Классический форум-трекер
canvas not supported
Нас вместе: 4 094 252

CCCP. Обратный отсчет. Война разведок. Курсанты особого назначения (2008) SATRip


 
 
RSS
Начать новую тему   Ответить на тему    Торрент-трекер NNM-Club -> Документалистика и Телепередачи -> Кинолетопись Страны Советской
Автор Сообщение
nnmclub0112 ®
Стаж: 8 лет 1 мес.
Сообщений: 3906
Ratio: 88,86
Поблагодарили: 251466
100%
CCCP. Обратный отсчет. Война разведок. Курсанты особого назначения (2011) SATRip
Название: CCCP. Обратный отсчет. Война разведок. Курсанты особого назначения

Режиссер / Телекомпания: ЗАО "Второй национальный канал"
Год выпуска: 2011
Жанр: Документальный

Описание:
Фильмы проекта «Обратный отсчет» рассказывают зрителям о малоизвестных страницах нашей истории. Совместно с белорусскими исследователями, архивистами, историками мы раскрываем о фактах и событиях, о которых в советское время принято было молчать.

Продолжительность: 00:26:36
Видеокодек: XVID
Битрейт видео: 774 Кбит/сек
Размер кадра: 768x576
Качество видео: SATRiр
Аудиокодек: MP3, 2 ch
Битрейт аудио: 96,0 Кбит/сек
Общее
Полное имя : F:\nF\Докум\!5 Кинолетопись страны Советской\СССР. Обратный отсчет\Война разведок. Курсанты особого назначения\CCCP. Обратный отсчет. Война разведок. Курсанты особого назначения (2011) SATRip.avi
Формат : AVI
Формат/Информация : Audio Video Interleave
Размер файла : 167 Мбайт
Продолжительность : 26 м.
Общий поток : 880 Кбит/сек
Библиотека кодирования : VirtualDub build 28292/release

Видео
Идентификатор : 0
Формат : MPEG-4 Visual
Профиль формата : Advanced Simple@L5
Параметр BVOP формата : Нет
Параметр QPel формата : Нет
Параметр GMC формата : Без точки перехода
Параметр матрицы формата : Default (H.263)
Идентификатор кодека : XVID
Идентификатор кодека/Подсказка : XviD
Продолжительность : 26 м.
Битрейт : 774 Кбит/сек
Ширина : 768 пикселей
Высота : 576 пикселей
Соотношение сторон : 4:3
Частота кадров : 25,000 кадров/сек
Цветовое пространство : YUV
Субдискретизация насыщенности : 4:2:0
Битовая глубина : 8 бит
Тип развёртки : Прогрессивная
Метод сжатия : С потерями
Бит/(Пиксели*Кадры) : 0.070
Размер потока : 147 Мбайт (88%)
Библиотека кодирования : XviD 1.1.2 (UTC 2006-11-01)

Аудио
Идентификатор : 1
Формат : MPEG Audio
Версия формата : Version 1
Профиль формата : Layer 3
Идентификатор кодека : 55
Идентификатор кодека/Подсказка : MP3
Продолжительность : 26 м.
Вид битрейта : Постоянный
Битрейт : 96,0 Кбит/сек
Каналы : 2 канала
Частота : 44,1 КГц
Метод сжатия : С потерями
Задержка видео : 7 мс.
Размер потока : 18,3 Мбайт (11%)
Выравнивание : Разделение по промежуткам
Продолжительность промежутка : 40 мс. (1,00 видеокадр)
Время предзагрузки промежутка : 500 мс.
Скриншоты:





Время раздачи: С 09:00 до 23:00

Серия передач "ССCР. Обратный отсчет" на NoNaMe Club
[NNM-Club.me]_CCCP. Obratnyiy otschet. Voyna razvedok. Kursantyi osobogo naznacheniya (2011) SATRip.avi.torrent
 Торрент: Платиновая раздача  Зарегистрирован
 
Скачать


Примагнититься
 Зарегистрирован:   09 Окт 2013 14:50:01
 Размер:   167 MB  (
 Рейтинг:   4,3 (Голосов: 12)
 Поблагодарили:   61
 Проверка:   Оформление проверено модератором 09 Окт 2013 18:01:32
Как cкачать  ·  Как раздать  ·  Правильно оформить  ·  Поднять ратио!  
Показать сообщения:   
Начать новую тему   Ответить на тему    Торрент-трекер NNM-Club -> Документалистика и Телепередачи -> Кинолетопись Страны Советской Часовой пояс: GMT + 3
Страница 1 из 1