Классический форум-трекер
canvas not supported
Нас вместе: 4 094 850

CCCP. Обратный отсчет. Катынь. Белорусский список (2010) SATRip


 
 
RSS
Начать новую тему   Ответить на тему    Торрент-трекер NNM-Club -> Документалистика и Телепередачи -> Кинолетопись Страны Советской
Автор Сообщение
nnmclub0112 ®
Стаж: 8 лет 1 мес.
Сообщений: 3906
Ratio: 88,86
Поблагодарили: 251492
100%
CCCP. Обратный отсчет. Катынь. Белорусский список (2010) SATRip
Название: CCCP. Обратный отсчет. Катынь. Белорусский список

Режиссер / Телекомпания: ЗАО "Второй национальный канал"
Год выпуска: 2010
Жанр: Документальный

Описание:
Фильмы проекта «Обратный отсчет» рассказывают зрителям о малоизвестных страницах нашей истории. Совместно с белорусскими исследователями, архивистами, историками мы раскрываем о фактах и событиях, о которых в советское время принято было молчать.ильм о трагических событиях в Катыни.

Продолжительность: 00:26:52
Видеокодек: XVID
Битрейт видео: 1547 Кбит/сек
Размер кадра: 640x400
Качество видео: SATRiр
Аудиокодек: MP3, 2 ch
Битрейт аудио: 128 Кбит/сек
Общее
Полное имя : F:\nF\Докум\!5 Кинолетопись страны Советской\СССР. Обратный отсчет\Катынь.Белорусский список\СССР. Обратный отсчет. Катынь. Белорусский список (2010) SATRip.avi
Формат : AVI
Формат/Информация : Audio Video Interleave
Размер файла : 330 Мбайт
Продолжительность : 27 м.
Общий поток : 1685 Кбит/сек
Библиотека кодирования : VirtualDub-MPEG2 build 24600/release

Видео
Идентификатор : 0
Формат : MPEG-4 Visual
Профиль формата : Advanced Simple@L5
Параметр BVOP формата : 2
Параметр QPel формата : Нет
Параметр GMC формата : Без точки перехода
Параметр матрицы формата : Default (H.263)
Режим смешивания : Сжатый битовый поток
Идентификатор кодека : XVID
Идентификатор кодека/Подсказка : XviD
Продолжительность : 27 м.
Битрейт : 1547 Кбит/сек
Ширина : 640 пикселей
Высота : 400 пикселей
Соотношение сторон : 16:10
Частота кадров : 25,000 кадров/сек
Цветовое пространство : YUV
Субдискретизация насыщенности : 4:2:0
Битовая глубина : 8 бит
Тип развёртки : Прогрессивная
Метод сжатия : С потерями
Бит/(Пиксели*Кадры) : 0.242
Размер потока : 303 Мбайт (92%)
Библиотека кодирования : XviD 1.2.1 (UTC 2008-12-04)

Аудио
Идентификатор : 1
Формат : MPEG Audio
Версия формата : Version 1
Профиль формата : Layer 3
Режим : Joint stereo
Расширение режима : MS Stereo
Идентификатор кодека : 55
Идентификатор кодека/Подсказка : MP3
Продолжительность : 27 м.
Вид битрейта : Постоянный
Битрейт : 128 Кбит/сек
Каналы : 2 канала
Частота : 48,0 КГц
Метод сжатия : С потерями
Размер потока : 25,1 Мбайт (8%)
Выравнивание : Разделение по промежуткам
Продолжительность промежутка : 40 мс. (1,00 видеокадр)
Время предзагрузки промежутка : 500 мс.

Скриншоты:




Время раздачи: С 09:00 до 23:00

Серия передач "ССCР. Обратный отсчет" на NoNaMe Club
[NNM-Club.me]_SSSR. Obratnyiy otschet. Katyin'. Belorusskiy spisok (2010) SATRip.avi.torrent
 Торрент:   Зарегистрирован
 
Зарегистрируйтесь и скачайте торрент!
13,3 KB

Примагнититься
 Зарегистрирован:   09 Окт 2013 15:17:54
 Размер:   330 MB  (
 Рейтинг:   3,9 (Голосов: 19)
 Поблагодарили:   60
 Проверка:   Оформление проверено модератором 09 Окт 2013 18:02:51
Как cкачать  ·  Как раздать  ·  Правильно оформить  ·  Поднять ратио!  
kariva11
Стаж: 8 лет 3 мес.
Сообщений: 8
Ratio: 55,161
Раздал: 5,284 TB
100%
Откуда: Donetsk
ukraine.gif
Антисоветский бред. Проплаченный пшеками, для которых главное, даже не память о погибших, а звериная ненависть ко всему русскому. А у нас хватает таких, которые за пару сотен "зелёных" и бутылку заморского виски подтвердить что угодно. Зачем было весной 40-го года везти чемоданы "Вальтеров", чтобы инсценировать гибель поляков от немцев? Мы уже тогда собирались Смоленск сдавать??? На этот вопрос ответов в этом фильме не дали. Посмотрите лучше "Катынскую подлость". Там о многом сказано. И поставлено с головы на ноги.
dora11
Стаж: 8 лет 3 мес.
Сообщений: 11
Ratio: 0,15
100%
poland.gif
kariva11 писал(а): Перейти к сообщению
Антисоветский бред. Проплаченный пшеками, для которых главное, даже не память о погибших, а звериная ненависть ко всему русскому. А у нас хватает таких, которые за пару сотен "зелёных" и бутылку заморского виски подтвердить что угодно. Зачем было весной 40-го года везти чемоданы "Вальтеров", чтобы инсценировать гибель поляков от немцев? Мы уже тогда собирались Смоленск сдавать??? На этот вопрос ответов в этом фильме не дали. Посмотрите лучше "Катынскую подлость". Там о многом сказано. И поставлено с головы на ноги.


Вы не оригиналны в Вашей теории, только в фильме "Катынская подлость" так и не ответили почему Россия к архивам не допускает. Вот откроют, тогда и будем вести предметный раговор...
endoftime
Стаж: 10 лет 3 мес.
Сообщений: 124
Ratio: 151,656
Поблагодарили: 2123
100%
ussr.gif
dora11 писал(а): Перейти к сообщению

Вы не оригиналны в Вашей теории, только в фильме "Катынская подлость" так и не ответили почему Россия к архивам не допускает. Вот откроют, тогда и будем вести предметный раговор...


А почему должны раскрываться архивы? И какие архивы по вашему должны быть раскрыты? Вы вообще понимаете, что ближайшие 30-40 лет нельзя будет допускать к архивам даже проверенных людей, так как это может повлечь например к раскрытию 10-тилетиями строившихся агентурных сетей... Нет конечно можно "подарить" все натофашистам и "слить" людей которые свою жизнь положили на алтарь страны на 40-50-60 лет...
Показать сообщения:   
Начать новую тему   Ответить на тему    Торрент-трекер NNM-Club -> Документалистика и Телепередачи -> Кинолетопись Страны Советской Часовой пояс: GMT + 3
Страница 1 из 1