Классический форум-трекер
canvas not supported
Нас вместе: 4 077 713

PBS. Природа - Дом животных / Nature - The Animal House (2007) BDRip [H.264/1080p]


 
 
RSS
Начать новую тему   Ответить на тему    Торрент-трекер NNM-Club -> Зарубежные TV-бренды -> PBS
Автор Сообщение
Отец Лоренцо ®
Uploader 1000+, Сталкер
Стаж: 7 лет 8 мес.
Сообщений: 4040
Ratio: 7393,141
Раздал: 1,0172 PB
Поблагодарили: 121761
100%
Откуда: Харьков, Украина
PBS. Природа - Дом животных / Nature - The Animal House (2007) BDRip [H.264/1080p]
Режиссер / Телекомпания: Марк Флэтчер / PBS
Страна: США
Год выпуска: 2011
Жанр: Документальный, природа

Релиз группы HDClub

Описание: Животные строят дома по тем же самым причинам, что и люди, но они начали это делать гораздо гораздо раньше человека... Дома животных могут быть очень простыми, но иногда ни похожи на настоящее архитектурное чудо. Все эти сооружения - вне зависимости от того, нора это, гнездо или еще что-либо - это места, где разворачиваются драмы и где порой происходят очень неординарные события...
В этом фильме мы увидим признанных мастеров по части постройки домов - термитов и трудолюбивых бобров, а также подлинных гениев маскировки - птиц-шалашников, умело маскирующих вход в свое жилище яркими цветами, отвлекающими на него внимание... В этом фильме мы попробуем взглянуть на жизнь разнообразных обитателей дикой природы в их "домашних условиях".

Продолжительность: 00:52:43

Перевод: Одноголосый закадровый (профессиональный, Дмитрий Есарев)
Язык субтитров: русский, английский

Формат файла: MKV
Видеокодек: MPEG-4 AVC/H.264
Битрейт видео: ~12 700 Кбит/с
Размер кадра: 1912 x 1080
Качество видео: BDRip [1080p]
Аудио:
1. [русский] AC3, 5.1, ~640.00 kbps
2. [english] AC3, 5.1, ~640.00 kbps
General
Unique ID : 173550041735731851278996775997709682618 (0x829085B0658E30E98EA9DB91079707BA)
Complete name : I:\РЕЛИЗЫ\PBS.Nature.The.Animal.House.(2011).BDRip.1080p.mkv
Format : Matroska
Format version : Version 4 / Version 2
File size : 5.26 GiB
Duration : 52mn 43s
Overall bit rate : 14.3 Mbps
Movie name : The Animal House (2011) - Release for HDCLUB by SbR
Encoded date : UTC 2013-10-10 19:33:50
Writing application : mkvmerge v6.4.1 ('Omega Point') built on Sep 16 2013 22:05:10
Writing library : libebml v1.3.0 + libmatroska v1.4.1
Attachment : Yes / Yes

Video
ID : 1
Format : AVC
Format/Info : Advanced Video Codec
Format profile : High@L4.1
Format settings, CABAC : Yes
Format settings, ReFrames : 4 frames
Codec ID : V_MPEG4/ISO/AVC
Duration : 52mn 43s
Bit rate : 12.7 Mbps
Width : 1 912 pixels
Height : 1 080 pixels
Display aspect ratio : 16:9
Frame rate mode : Constant
Frame rate : 29.970 fps
Color space : YUV
Chroma subsampling : 4:2:0
Bit depth : 8 bits
Scan type : Progressive
Bits/(Pixel*Frame) : 0.206
Stream size : 4.68 GiB (89%)
Title : Release for HDCLUB
Writing library : x264 core 138 r2359+704+48 3f879a0 tMod [8-bit@4:2:0 X86_64]
Encoding settings : cabac=1 / ref=4 / deblock=1:-2:-2 / analyse=0x3:0x113 / me=umh / subme=11 / psy=1 / fade_compensate=0.00 / psy_rd=1.00:0.00 / mixed_ref=1 / me_range=48 / chroma_me=1 / trellis=2 / 8x8dct=1 / cqm=0 / deadzone=21,11 / fast_pskip=1 / chroma_qp_offset=-2 / threads=12 / lookahead_threads=2 / sliced_threads=0 / nr=0 / decimate=1 / interlaced=0 / bluray_compat=0 / constrained_intra=0 / fgo=0 / bframes=8 / b_pyramid=2 / b_adapt=2 / b_bias=0 / direct=3 / weightb=1 / open_gop=0 / weightp=2 / keyint=250 / keyint_min=25 / scenecut=40 / intra_refresh=0 / rc_lookahead=60 / rc=crf / mbtree=0 / crf=20.0000 / qcomp=0.60 / qpmin=0:0:0 / qpmax=69:69:69 / qpstep=4 / vbv_maxrate=62500 / vbv_bufsize=78125 / crf_max=0.0 / nal_hrd=none / ip_ratio=1.40 / pb_ratio=1.30 / aq=4:0.80 / aq-sensitivity=11.00 / aq-factor=1.00:1.00:1.00 / aq2=1:0.60 / aq2-sensitivity=9.00 / aq2-factor=1.00:1.00:1.00 / aq3=1:[0.60:0.60]:[0.60:0.60]:[0.60:0.60]:[0.60:0.60] / aq3-sensitivity=10.00 / aq3-factor=[1.00:1.00]:[1.00:1.00]:[1.00:1.00] / aq3-boundary=192:64:24
Language : English
Default : Yes
Forced : No
Color primaries : BT.709
Transfer characteristics : BT.709
Matrix coefficients : BT.709

Audio #1
ID : 2
Format : AC-3
Format/Info : Audio Coding 3
Mode extension : CM (complete main)
Format settings, Endianness : Big
Codec ID : A_AC3
Duration : 52mn 43s
Bit rate mode : Constant
Bit rate : 640 Kbps
Channel(s) : 6 channels
Channel positions : Front: L C R, Side: L R, LFE
Sampling rate : 48.0 KHz
Bit depth : 16 bits
Compression mode : Lossy
Stream size : 241 MiB (4%)
Title : VO, Есарев
Language : Russian
Default : Yes
Forced : No

Audio #2
ID : 3
Format : AC-3
Format/Info : Audio Coding 3
Mode extension : CM (complete main)
Format settings, Endianness : Big
Codec ID : A_AC3
Duration : 52mn 43s
Bit rate mode : Constant
Bit rate : 640 Kbps
Channel(s) : 6 channels
Channel positions : Front: L C R, Side: L R, LFE
Sampling rate : 48.0 KHz
Bit depth : 16 bits
Compression mode : Lossy
Stream size : 241 MiB (4%)
Language : English
Default : No
Forced : No

Text #1
ID : 4
Format : UTF-8
Codec ID : S_TEXT/UTF8
Codec ID/Info : UTF-8 Plain Text
Language : Russian
Default : No
Forced : No

Text #2
ID : 5
Format : UTF-8
Codec ID : S_TEXT/UTF8
Codec ID/Info : UTF-8 Plain Text
Language : English
Default : No
Forced : No

Menu
00:00:00.000 : en:Introduction
00:09:28.301 : en:Building for Protection
00:20:27.359 : en:Construction Supplies
00:29:41.980 : en:Convenience Store
00:40:12.009 : en:Temperature Control
00:46:51.175 : en:Animal Without Homes
00:51:52.042 : en:Credits
Скриншоты:


Время раздачи: 24 / 7

"Природа - Дом животных / Nature - The Animal House" на NoNaMe Club
Рип от SbR! :приветствую:
Перевод Дмитрия Есарева выполнен в рамках сервиса от HDCLUB "Озвучивание". Спонсоры: dinocrisis, h4kdr, Snow_Leopard, ZeRoNe, tambov68, RAUL.
[NNM-Club.me]_PBS.Nature.The.Animal.House.(2011).BDRip.1080p.mkv.torrent
 Торрент: Платиновая раздача  Зарегистрирован
 
Скачать


Примагнититься
 Зарегистрирован:   11 Окт 2013 22:41:55
 Размер:   5,26 GB  (
 Рейтинг:   5 (Голосов: 37)
 Поблагодарили:   149
 Проверка:   Оформление проверено модератором 11 Окт 2013 22:43:13
Как cкачать  ·  Как раздать  ·  Правильно оформить  ·  Поднять ратио!  
TroILComandor
Стаж: 8 лет 6 мес.
Сообщений: 792
Ratio: 4,085
Поблагодарили: 310
100%
ussr.gif
Благодарю, ребенку скачаю.
Feurius
Стаж: 9 лет 2 мес.
Сообщений: 39
Ratio: 6,366
100%
ukraine.gif
Спасибо, себе скачаю )))
gosha1771
Стаж: 5 лет 9 мес.
Сообщений: 39
Ratio: 0,918
0.08%
Спасибо ,ребёнку себе и жене скачаю :D
Показать сообщения:   
Начать новую тему   Ответить на тему    Торрент-трекер NNM-Club -> Зарубежные TV-бренды -> PBS Часовой пояс: GMT + 3
Страница 1 из 1