Классический форум-трекер
canvas not supported
Нас вместе: 4 142 818

Сергей Чиж | Уроки Sony Vegas PRO с сайта sdelayvideo.ru (2012-2013) [PCRec]


 
 
RSS
Начать новую тему   Ответить на тему    Торрент-трекер NNM-Club -> Обучающие видеоматериалы -> Компьютеры, обуч.видео
Автор Сообщение
pcbs ®
Стаж: 11 лет
Сообщений: 40
Ratio: 0.802
Поблагодарили: 1134
100%
Сергей Чиж | Уроки Sony Vegas PRO с сайта sdelayvideo.ru (2012-2013) [PCRec]
Автор (режиссер): Сергей Чиж
Название: Уроки Sony Vegas PRO с сайта sdelayvideo.ru
Год выпуска: 2012-2013
Жанр: Компьютеры
Язык: Русский
Продолжительность: 02.22.37
Качество видео: PCRec
Видеокодек: AVC
Битрейт видео: ~Разный. ~1100(VBR), 25-29,97FPS
Размер кадра: 1280х720p и 1272х780
Аудиокодек: AAC
Битрейт аудио: 192 kb/s (VBR), 2 Ch, 44100 Hz

Описание:
Уроки по Sony Vegas PRO с сайта sdelayvideo.ru . В основном практические, рассчитанные на тех, кто уже знаком с программой. Идут в порядке от более простых к более сложным.

  1. Видеопереходы для Sony Vegas бесплатно
  2. Маска Безье
  3. Подложка для титров средствами Sony Vegas
  4. Фон для видео Вихрь
  5. Финальные титры
  6. Титры обтекающие видео
  7. Слайд-шоу с фоном из фотографий
  8. Слайды в очереди
  9. Вставка и анимация таблицы
Общее
Полное имя : D:\Видео\Уроки с сайта сделай видео\1.Видеопереходы Sony Vegas бесплатно.mp4
Формат : MPEG-4
Профиль формата : Base Media / Version 2
Идентификатор кодека : mp42
Размер файла : 77,2 Мбайт
Продолжительность : 8 м. 33 с.
Режим общего битрейта : Переменный
Общий поток : 1262 Кбит/сек
Дата кодирования : UTC 2012-12-04 14:03:16
Дата пометки : UTC 2012-12-04 14:03:16
gsst : 0
gstd : 513323
gssd : BADC21529MH1381643830409110
gshh : r9---sn-3c27ln7l.c.youtube.com

Видео
Идентификатор : 1
Формат : AVC
Формат/Информация : Advanced Video Codec
Профиль формата : High@L3.1
Параметр CABAC формата : Да
Параметр ReFrames формата : 1 кадр
Параметр GOP формата : M=1, N=60
Идентификатор кодека : avc1
Идентификатор кодека/Информация : Advanced Video Coding
Продолжительность : 8 м. 33 с.
Битрейт : 1067 Кбит/сек
Максимальный битрейт : 14,8 Мбит/сек
Ширина : 1280 пикселей
Высота : 720 пикселей
Соотношение сторон : 16:9
Режим частоты кадров : Постоянный
Частота кадров : 29,970 кадров/сек
Цветовое пространство : YUV
Субдискретизация насыщенности : 4:2:0
Битовая глубина : 8 бит
Тип развёртки : Прогрессивная
Бит/(Пиксели*Кадры) : 0.039
Размер потока : 65,3 Мбайт (85%)
Дата пометки : UTC 2012-12-04 14:03:16

Аудио
Идентификатор : 2
Формат : AAC
Формат/Информация : Advanced Audio Codec
Профиль формата : LC
Идентификатор кодека : 40
Продолжительность : 8 м. 33 с.
Вид битрейта : Переменный
Битрейт : 192 Кбит/сек
Максимальный битрейт : 204 Кбит/сек
Каналы : 2 канала
Расположение каналов : Front: L R
Частота : 44,1 КГц
Метод сжатия : С потерями
Размер потока : 11,7 Мбайт (15%)
Заголовок : IsoMedia File Produced by Google, 5-11-2011
Дата кодирования : UTC 2012-12-04 14:03:16
Дата пометки : UTC 2012-12-04 14:03:16

Общее
Полное имя : D:\Видео\Уроки с сайта сделай видео\2. Маска Безье.mp4
Формат : MPEG-4
Профиль формата : Base Media / Version 2
Идентификатор кодека : mp42
Размер файла : 144 Мбайт
Продолжительность : 16 м.
Режим общего битрейта : Переменный
Общий поток : 1199 Кбит/сек
Дата кодирования : UTC 2013-09-07 13:29:15
Дата пометки : UTC 2013-09-07 13:29:15
gsst : 0
gstd : 1008720
gssd : BADC21523HH1381641929729070
gshh : r3---sn-3c27ln7l.c.youtube.com

Видео
Идентификатор : 1
Формат : AVC
Формат/Информация : Advanced Video Codec
Профиль формата : High@L3.1
Параметр CABAC формата : Да
Параметр ReFrames формата : 1 кадр
Параметр GOP формата : M=1, N=60
Идентификатор кодека : avc1
Идентификатор кодека/Информация : Advanced Video Coding
Продолжительность : 16 м.
Битрейт : 1005 Кбит/сек
Максимальный битрейт : 6700 Кбит/сек
Ширина : 1280 пикселей
Высота : 720 пикселей
Соотношение сторон : 16:9
Режим частоты кадров : Постоянный
Частота кадров : 29,970 кадров/сек
Цветовое пространство : YUV
Субдискретизация насыщенности : 4:2:0
Битовая глубина : 8 бит
Тип развёртки : Прогрессивная
Бит/(Пиксели*Кадры) : 0.036
Размер потока : 121 Мбайт (84%)
Дата пометки : UTC 2013-09-07 13:29:40

Аудио
Идентификатор : 2
Формат : AAC
Формат/Информация : Advanced Audio Codec
Профиль формата : LC
Идентификатор кодека : 40
Продолжительность : 16 м.
Вид битрейта : Переменный
Битрейт : 192 Кбит/сек
Максимальный битрейт : 202 Кбит/сек
Каналы : 2 канала
Расположение каналов : Front: L R
Частота : 44,1 КГц
Метод сжатия : С потерями
Размер потока : 23,1 Мбайт (16%)
Заголовок : IsoMedia File Produced by Google, 5-11-2011
Дата кодирования : UTC 2013-09-07 13:29:30
Дата пометки : UTC 2013-09-07 13:29:40

Общее
Полное имя : D:\Видео\Уроки с сайта сделай видео\3. Подложка для титров средствами Sony Vegas.mp4
Формат : MPEG-4
Профиль формата : Base Media / Version 2
Идентификатор кодека : mp42
Размер файла : 158 Мбайт
Продолжительность : 20 м.
Режим общего битрейта : Переменный
Общий поток : 1103 Кбит/сек
Дата кодирования : UTC 2013-05-03 16:00:06
Дата пометки : UTC 2013-05-03 16:00:06
gsst : 0
gstd : 1203165
gssd : B4A7DDA41MH1381642601818133
gshh : r1---sn-4g57kues.c.youtube.com

Видео
Идентификатор : 1
Формат : AVC
Формат/Информация : Advanced Video Codec
Профиль формата : High@L3.1
Параметр CABAC формата : Да
Параметр ReFrames формата : 1 кадр
Параметр GOP формата : M=1, N=60
Идентификатор кодека : avc1
Идентификатор кодека/Информация : Advanced Video Coding
Продолжительность : 20 м.
Битрейт : 908 Кбит/сек
Максимальный битрейт : 7787 Кбит/сек
Ширина : 1280 пикселей
Высота : 720 пикселей
Соотношение сторон : 16:9
Режим частоты кадров : Постоянный
Частота кадров : 29,970 кадров/сек
Цветовое пространство : YUV
Субдискретизация насыщенности : 4:2:0
Битовая глубина : 8 бит
Тип развёртки : Прогрессивная
Бит/(Пиксели*Кадры) : 0.033
Размер потока : 130 Мбайт (82%)
Дата пометки : UTC 2013-05-03 16:00:34

Аудио
Идентификатор : 2
Формат : AAC
Формат/Информация : Advanced Audio Codec
Профиль формата : LC
Идентификатор кодека : 40
Продолжительность : 20 м.
Вид битрейта : Переменный
Битрейт : 192 Кбит/сек
Максимальный битрейт : 203 Кбит/сек
Каналы : 2 канала
Расположение каналов : Front: L R
Частота : 44,1 КГц
Метод сжатия : С потерями
Размер потока : 27,5 Мбайт (17%)
Заголовок : IsoMedia File Produced by Google, 5-11-2011
Дата кодирования : UTC 2013-05-03 16:00:21
Дата пометки : UTC 2013-05-03 16:00:34

Общее
Полное имя : D:\Видео\Уроки с сайта сделай видео\3. Подложка для титров.mp4
Формат : MPEG-4
Профиль формата : Base Media / Version 2
Идентификатор кодека : mp42
Размер файла : 158 Мбайт
Продолжительность : 20 м.
Режим общего битрейта : Переменный
Общий поток : 1103 Кбит/сек
Дата кодирования : UTC 2013-05-03 16:00:06
Дата пометки : UTC 2013-05-03 16:00:06
gsst : 0
gstd : 1203165
gssd : BD47131C4MH1381764735125125
gshh : r1---ukrtelecom-kbp4.c.youtube.com

Видео
Идентификатор : 1
Формат : AVC
Формат/Информация : Advanced Video Codec
Профиль формата : High@L3.1
Параметр CABAC формата : Да
Параметр ReFrames формата : 1 кадр
Параметр GOP формата : M=1, N=60
Идентификатор кодека : avc1
Идентификатор кодека/Информация : Advanced Video Coding
Продолжительность : 20 м.
Битрейт : 908 Кбит/сек
Максимальный битрейт : 7787 Кбит/сек
Ширина : 1280 пикселей
Высота : 720 пикселей
Соотношение сторон : 16:9
Режим частоты кадров : Постоянный
Частота кадров : 29,970 кадров/сек
Цветовое пространство : YUV
Субдискретизация насыщенности : 4:2:0
Битовая глубина : 8 бит
Тип развёртки : Прогрессивная
Бит/(Пиксели*Кадры) : 0.033
Размер потока : 130 Мбайт (82%)
Дата пометки : UTC 2013-05-03 16:00:34

Аудио
Идентификатор : 2
Формат : AAC
Формат/Информация : Advanced Audio Codec
Профиль формата : LC
Идентификатор кодека : 40
Продолжительность : 20 м.
Вид битрейта : Переменный
Битрейт : 192 Кбит/сек
Максимальный битрейт : 203 Кбит/сек
Каналы : 2 канала
Расположение каналов : Front: L R
Частота : 44,1 КГц
Метод сжатия : С потерями
Размер потока : 27,5 Мбайт (17%)
Заголовок : IsoMedia File Produced by Google, 5-11-2011
Дата кодирования : UTC 2013-05-03 16:00:21
Дата пометки : UTC 2013-05-03 16:00:34

Общее
Полное имя : D:\Видео\Уроки с сайта сделай видео\4. Фон для видео Вихрь.mp4
Формат : MPEG-4
Профиль формата : Base Media / Version 2
Идентификатор кодека : mp42
Размер файла : 103 Мбайт
Продолжительность : 10 м.
Режим общего битрейта : Переменный
Общий поток : 1360 Кбит/сек
Дата кодирования : UTC 2013-06-08 15:39:14
Дата пометки : UTC 2013-06-08 15:39:14
gsst : 0
gstd : 634948
gssd : BADC21547MH1381642487226040
gshh : r7---sn-3c27ln7e.c.youtube.com

Видео
Идентификатор : 1
Формат : AVC
Формат/Информация : Advanced Video Codec
Профиль формата : High@L3.1
Параметр CABAC формата : Да
Параметр ReFrames формата : 1 кадр
Параметр GOP формата : M=1, N=60
Идентификатор кодека : avc1
Идентификатор кодека/Информация : Advanced Video Coding
Продолжительность : 10 м.
Битрейт : 1166 Кбит/сек
Максимальный битрейт : 4674 Кбит/сек
Ширина : 1280 пикселей
Высота : 720 пикселей
Соотношение сторон : 16:9
Режим частоты кадров : Постоянный
Частота кадров : 29,970 кадров/сек
Цветовое пространство : YUV
Субдискретизация насыщенности : 4:2:0
Битовая глубина : 8 бит
Тип развёртки : Прогрессивная
Бит/(Пиксели*Кадры) : 0.042
Размер потока : 88,2 Мбайт (86%)
Дата пометки : UTC 2013-06-08 15:39:27

Аудио
Идентификатор : 2
Формат : AAC
Формат/Информация : Advanced Audio Codec
Профиль формата : LC
Идентификатор кодека : 40
Продолжительность : 10 м.
Вид битрейта : Переменный
Битрейт : 192 Кбит/сек
Максимальный битрейт : 203 Кбит/сек
Каналы : 2 канала
Расположение каналов : Front: L R
Частота : 44,1 КГц
Метод сжатия : С потерями
Размер потока : 14,5 Мбайт (14%)
Заголовок : IsoMedia File Produced by Google, 5-11-2011
Дата кодирования : UTC 2013-06-08 15:39:22
Дата пометки : UTC 2013-06-08 15:39:27

Общее
Полное имя : D:\Видео\Уроки с сайта сделай видео\5. Финальные титры.mp4
Формат : MPEG-4
Профиль формата : Base Media / Version 2
Идентификатор кодека : mp42
Размер файла : 113 Мбайт
Продолжительность : 15 м.
Режим общего битрейта : Переменный
Общий поток : 1036 Кбит/сек
Дата кодирования : UTC 2013-04-04 19:30:13
Дата пометки : UTC 2013-04-04 19:30:13
gsst : 0
gstd : 915143
gssd : B4A7DDA02MH1381642944094355
gshh : r2---sn-4g57kuee.c.youtube.com

Видео
Идентификатор : 1
Формат : AVC
Формат/Информация : Advanced Video Codec
Профиль формата : High@L3.1
Параметр CABAC формата : Да
Параметр ReFrames формата : 1 кадр
Параметр GOP формата : M=1, N=60
Идентификатор кодека : avc1
Идентификатор кодека/Информация : Advanced Video Coding
Продолжительность : 15 м.
Битрейт : 841 Кбит/сек
Максимальный битрейт : 6066 Кбит/сек
Ширина : 1280 пикселей
Высота : 720 пикселей
Соотношение сторон : 16:9
Режим частоты кадров : Постоянный
Частота кадров : 29,970 кадров/сек
Цветовое пространство : YUV
Субдискретизация насыщенности : 4:2:0
Битовая глубина : 8 бит
Тип развёртки : Прогрессивная
Бит/(Пиксели*Кадры) : 0.030
Размер потока : 91,7 Мбайт (81%)
Дата пометки : UTC 2013-04-04 19:30:33

Аудио
Идентификатор : 2
Формат : AAC
Формат/Информация : Advanced Audio Codec
Профиль формата : LC
Идентификатор кодека : 40
Продолжительность : 15 м.
Вид битрейта : Переменный
Битрейт : 192 Кбит/сек
Максимальный битрейт : 204 Кбит/сек
Каналы : 2 канала
Расположение каналов : Front: L R
Частота : 44,1 КГц
Метод сжатия : С потерями
Размер потока : 20,9 Мбайт (19%)
Заголовок : IsoMedia File Produced by Google, 5-11-2011
Дата кодирования : UTC 2013-04-04 19:30:24
Дата пометки : UTC 2013-04-04 19:30:33

Общее
Полное имя : D:\Видео\Уроки с сайта сделай видео\6. Титры обтекающие видео.mp4
Формат : MPEG-4
Профиль формата : Base Media / Version 2
Идентификатор кодека : mp42
Размер файла : 126 Мбайт
Продолжительность : 14 м.
Режим общего битрейта : Переменный
Общий поток : 1177 Кбит/сек
Дата кодирования : UTC 2013-04-04 18:08:39
Дата пометки : UTC 2013-04-04 18:08:39
gsst : 0
gstd : 899308
gssd : B4A7DDA64HH1381643801553866
gshh : r4---sn-4g57kuez.c.youtube.com

Видео
Идентификатор : 1
Формат : AVC
Формат/Информация : Advanced Video Codec
Профиль формата : High@L3.1
Параметр CABAC формата : Да
Параметр ReFrames формата : 1 кадр
Параметр GOP формата : M=1, N=60
Идентификатор кодека : avc1
Идентификатор кодека/Информация : Advanced Video Coding
Продолжительность : 14 м.
Битрейт : 982 Кбит/сек
Максимальный битрейт : 8769 Кбит/сек
Ширина : 1280 пикселей
Высота : 720 пикселей
Соотношение сторон : 16:9
Режим частоты кадров : Постоянный
Частота кадров : 29,970 кадров/сек
Цветовое пространство : YUV
Субдискретизация насыщенности : 4:2:0
Битовая глубина : 8 бит
Тип развёртки : Прогрессивная
Бит/(Пиксели*Кадры) : 0.036
Размер потока : 105 Мбайт (83%)
Дата пометки : UTC 2013-04-04 18:09:15

Аудио
Идентификатор : 2
Формат : AAC
Формат/Информация : Advanced Audio Codec
Профиль формата : LC
Идентификатор кодека : 40
Продолжительность : 14 м.
Вид битрейта : Переменный
Битрейт : 192 Кбит/сек
Максимальный битрейт : 204 Кбит/сек
Каналы : 2 канала
Расположение каналов : Front: L R
Частота : 44,1 КГц
Метод сжатия : С потерями
Размер потока : 20,6 Мбайт (16%)
Заголовок : IsoMedia File Produced by Google, 5-11-2011
Дата кодирования : UTC 2013-04-04 18:09:01
Дата пометки : UTC 2013-04-04 18:09:15

Общее
Полное имя : D:\Видео\Уроки с сайта сделай видео\7. Слайд-шоу с фоном из фотографий.mp4
Формат : MPEG-4
Профиль формата : Base Media / Version 2
Идентификатор кодека : mp42
Размер файла : 101 Мбайт
Продолжительность : 12 м.
Режим общего битрейта : Переменный
Общий поток : 1139 Кбит/сек
Дата кодирования : UTC 2012-08-17 03:46:37
Дата пометки : UTC 2012-08-17 03:46:37
gsst : 0
gstd : 746730
gssd : BADC21588MH1381643880717700
gshh : r8---sn-3c27ln7z.c.youtube.com

Видео
Идентификатор : 1
Формат : AVC
Формат/Информация : Advanced Video Codec
Профиль формата : High@L3.1
Параметр CABAC формата : Да
Параметр ReFrames формата : 1 кадр
Параметр GOP формата : M=1, N=60
Идентификатор кодека : avc1
Идентификатор кодека/Информация : Advanced Video Coding
Продолжительность : 12 м.
Битрейт : 945 Кбит/сек
Максимальный битрейт : 4720 Кбит/сек
Ширина : 1272 пикселя
Высота : 720 пикселей
Соотношение сторон : 16:9
Режим частоты кадров : Постоянный
Частота кадров : 25,000 кадров/сек
Цветовое пространство : YUV
Субдискретизация насыщенности : 4:2:0
Битовая глубина : 8 бит
Тип развёртки : Прогрессивная
Бит/(Пиксели*Кадры) : 0.041
Размер потока : 84,1 Мбайт (83%)
Дата пометки : UTC 2012-08-17 03:46:37

Аудио
Идентификатор : 2
Формат : AAC
Формат/Информация : Advanced Audio Codec
Профиль формата : LC
Идентификатор кодека : 40
Продолжительность : 12 м.
Вид битрейта : Переменный
Битрейт : 192 Кбит/сек
Максимальный битрейт : 203 Кбит/сек
Каналы : 2 канала
Расположение каналов : Front: L R
Частота : 44,1 КГц
Метод сжатия : С потерями
Размер потока : 17,1 Мбайт (17%)
Заголовок : IsoMedia File Produced by Google, 5-11-2011
Дата кодирования : UTC 2012-08-17 03:46:37
Дата пометки : UTC 2012-08-17 03:46:37

Общее
Полное имя : D:\Видео\Уроки с сайта сделай видео\8. Слайды в очереди.mp4
Формат : MPEG-4
Профиль формата : Base Media / Version 2
Идентификатор кодека : mp42
Размер файла : 179 Мбайт
Продолжительность : 22 м.
Режим общего битрейта : Переменный
Общий поток : 1098 Кбит/сек
Дата кодирования : UTC 2013-09-07 14:11:42
Дата пометки : UTC 2013-09-07 14:11:42
gsst : 0
gstd : 1363660
gssd : BADC21586MH1381641746488366
gshh : r6---sn-3c27ln7z.c.youtube.com

Видео
Идентификатор : 1
Формат : AVC
Формат/Информация : Advanced Video Codec
Профиль формата : High@L3.1
Параметр CABAC формата : Да
Параметр ReFrames формата : 1 кадр
Параметр GOP формата : M=1, N=60
Идентификатор кодека : avc1
Идентификатор кодека/Информация : Advanced Video Coding
Продолжительность : 22 м.
Битрейт : 904 Кбит/сек
Максимальный битрейт : 6643 Кбит/сек
Ширина : 1280 пикселей
Высота : 720 пикселей
Соотношение сторон : 16:9
Режим частоты кадров : Постоянный
Частота кадров : 25,000 кадров/сек
Цветовое пространство : YUV
Субдискретизация насыщенности : 4:2:0
Битовая глубина : 8 бит
Тип развёртки : Прогрессивная
Бит/(Пиксели*Кадры) : 0.039
Размер потока : 147 Мбайт (82%)
Дата пометки : UTC 2013-09-07 14:12:07

Аудио
Идентификатор : 2
Формат : AAC
Формат/Информация : Advanced Audio Codec
Профиль формата : LC
Идентификатор кодека : 40
Продолжительность : 22 м.
Вид битрейта : Переменный
Битрейт : 192 Кбит/сек
Максимальный битрейт : 203 Кбит/сек
Каналы : 2 канала
Расположение каналов : Front: L R
Частота : 44,1 КГц
Метод сжатия : С потерями
Размер потока : 31,2 Мбайт (17%)
Заголовок : IsoMedia File Produced by Google, 5-11-2011
Дата кодирования : UTC 2013-09-07 14:11:57
Дата пометки : UTC 2013-09-07 14:12:07

Общее
Полное имя : D:\Видео\Уроки с сайта сделай видео\9. Вставка и анимация таблицы.mp4
Формат : MPEG-4
Профиль формата : Base Media / Version 2
Идентификатор кодека : mp42
Размер файла : 181 Мбайт
Продолжительность : 21 м.
Режим общего битрейта : Переменный
Общий поток : 1195 Кбит/сек
Дата кодирования : UTC 2013-06-08 17:48:56
Дата пометки : UTC 2013-06-08 17:48:56
gsst : 0
gstd : 1273520
gssd : BADC21567HH1381661219712224
gshh : r7---sn-3c27ln7s.c.youtube.com

Видео
Идентификатор : 1
Формат : AVC
Формат/Информация : Advanced Video Codec
Профиль формата : High@L3.1
Параметр CABAC формата : Да
Параметр ReFrames формата : 1 кадр
Параметр GOP формата : M=1, N=60
Идентификатор кодека : avc1
Идентификатор кодека/Информация : Advanced Video Coding
Продолжительность : 21 м.
Битрейт : 1001 Кбит/сек
Максимальный битрейт : 9542 Кбит/сек
Ширина : 1280 пикселей
Высота : 720 пикселей
Соотношение сторон : 16:9
Режим частоты кадров : Постоянный
Частота кадров : 25,000 кадров/сек
Цветовое пространство : YUV
Субдискретизация насыщенности : 4:2:0
Битовая глубина : 8 бит
Тип развёртки : Прогрессивная
Бит/(Пиксели*Кадры) : 0.043
Размер потока : 152 Мбайт (84%)
Дата пометки : UTC 2013-06-08 17:49:20

Аудио
Идентификатор : 2
Формат : AAC
Формат/Информация : Advanced Audio Codec
Профиль формата : LC
Идентификатор кодека : 40
Продолжительность : 21 м.
Вид битрейта : Переменный
Битрейт : 192 Кбит/сек
Максимальный битрейт : 204 Кбит/сек
Каналы : 2 канала
Расположение каналов : Front: L R
Частота : 44,1 КГц
Метод сжатия : С потерями
Размер потока : 29,1 Мбайт (16%)
Заголовок : IsoMedia File Produced by Google, 5-11-2011
Дата кодирования : UTC 2013-06-08 17:49:09
Дата пометки : UTC 2013-06-08 17:49:20

Общее
Полное имя : D:\Видео\Уроки с сайта сделай видео\Thumbs.db
Размер файла : 101 Кбайт
Скриншоты:


Время раздачи: с 10.00 до 22.00 до первых скачавших
[NNM-Club.me]_Uroki s sayta sdelay video.torrent
 Торрент: Платиновая раздача  Зарегистрирован
 
Скачать


Примагнититься
 Зарегистрирован:   14 Окт 2013 18:52:47
 Размер:   1.31 GB  (
 Рейтинг:   4.8 (Голосов: 140)
 Поблагодарили:   474
 Проверка:   Оформление проверено модератором 21 Окт 2013 00:35:19
Как cкачать  ·  Как раздать  ·  Правильно оформить  ·  Поднять ратио!  
pcbs ®
Стаж: 11 лет
Сообщений: 40
Ratio: 0.802
Поблагодарили: 1134
100%
Есть еще проекты к этим урокам, а так же те шаблоны которые рассылались подписчикам (не хватает только одного, самого первого). Если кому нужно пишите, со временем выложу.
mickey321
Стаж: 7 лет 10 мес.
Сообщений: 143
Ratio: 4.068
100%
Откуда: СССР
ussr.gif
pcbs писал(а): Перейти к сообщению
Есть еще проекты к этим урокам, а так же те шаблоны которые рассылались подписчикам (не хватает только одного, самого первого). Если кому нужно пишите, со временем выложу.

Очень нужно! Пожалуйста :смущение:
pcbs ®
Стаж: 11 лет
Сообщений: 40
Ratio: 0.802
Поблагодарили: 1134
100%
mickey321
Хорошо, завтра-послезавтра постараюсь выложить. Я первый раз раздаю, с этой раздачей намучился. Да и канал на отдачу слабый совсем.
oll-88
Стаж: 9 лет 9 мес.
Сообщений: 136
Ratio: 1.399
100%
да-да, солидарен, нужно!
pcbs ®
Стаж: 11 лет
Сообщений: 40
Ratio: 0.802
Поблагодарили: 1134
100%
mickey321
oll-88
Вот добавил, и даже первый нашел.
http://nnmclub.to/forum/viewtopic.php?p=6012770#6012770
donaero
Стаж: 8 лет 9 мес.
Сообщений: 92
Ratio: 2.038
100%
ussr.gif
Все прекрасно, сам в ней работаю, вот только бы глючила поменьше - цены ей не было!
Девушка из душа
Стаж: 10 лет 10 мес.
Сообщений: 89
Ratio: 24.774
100%
cuba.gif
Спасибо. Нужная раздача. :респект:
Jambo99Jambo
Стаж: 7 лет 8 мес.
Сообщений: 428
Ratio: 0.845
100%
Подскажите пожалуйста если не трудно! У меня Sony Vegas Pro 11 открываю Sony ProType Titler в нём не появляются встроенные титры. В ProType Titler есть же своя коллекция готовых титров. На чё нажать что бы они появились или в чём может быть причина?
dudits
Стаж: 6 лет 7 мес.
Сообщений: 3
Ratio: 26.5
100%
спасибо за курс
zovacin
Стаж: 7 лет 2 мес.
Сообщений: 57
Ratio: 0.392
6.45%
скачал
спс
Показать сообщения:   
Начать новую тему   Ответить на тему    Торрент-трекер NNM-Club -> Обучающие видеоматериалы -> Компьютеры, обуч.видео Часовой пояс: GMT + 3
Страница 1 из 1