Классический форум-трекер
canvas not supported
Нас вместе: 4 114 115

CCCP. Обратный отсчет. Граф Чапский. Драма реформатора (2010) SATRip


 
 
RSS
Начать новую тему   Ответить на тему    Торрент-трекер NNM-Club -> Документалистика и Телепередачи -> Кинолетопись Страны Советской
Автор Сообщение
nnmclub0112 ®
Стаж: 8 лет 4 мес.
Сообщений: 3919
Ratio: 80,578
Поблагодарили: 252462
100%
CCCP. Обратный отсчет. Граф Чапский. Драма реформатора (2010) SATRip
Название: CCCP. Обратный отсчет. Граф Чапский. Драма реформатора

Режиссер / Телекомпания: ЗАО "Второй национальный канал"
Год выпуска: 2010
Жанр: Документальный

Описание:
Фильмы проекта «Обратный отсчет» рассказывают зрителям о малоизвестных страницах нашей истории. Совместно с белорусскими исследователями, архивистами, историками мы раскрываем о фактах и событиях, о которых в советское время принято было молчать.

Продолжительность: 00:25:54
Видеокодек: XVID
Битрейт видео: 1500 Кбит/сек
Размер кадра: 640x360
Качество видео: SATRiр
Аудиокодек: MP3, 2 ch
Битрейт аудио: 128 Кбит/сек
Общее
Полное имя : F:\nF\Докум\!5 Кинолетопись страны Советской\СССР. Обратный отсчет\Граф Чапский. Драма реформатора\СССP. Обратный отсчёт. Граф Чапский. Драма реформатора (2010) SATRip.avi
Формат : AVI
Формат/Информация : Audio Video Interleave
Размер файла : 304 Мбайт
Продолжительность : 25 м.
Общий поток : 1638 Кбит/сек

Видео
Идентификатор : 0
Формат : xvid
Идентификатор кодека : xvid
Продолжительность : 25 м.
Битрейт : 1500 Кбит/сек
Ширина : 640 пикселей
Высота : 360 пикселей
Соотношение сторон : 16:9
Частота кадров : 25,000 кадров/сек
Бит/(Пиксели*Кадры) : 0.260
Размер потока : 278 Мбайт (92%)

Аудио
Идентификатор : 1
Формат : MPEG Audio
Версия формата : Version 1
Профиль формата : Layer 3
Режим : Joint stereo
Расширение режима : MS Stereo
Идентификатор кодека : 55
Идентификатор кодека/Подсказка : MP3
Продолжительность : 25 м.
Продолжительность оригинала : 25 м.
Вид битрейта : Постоянный
Битрейт : 128 Кбит/сек
Каналы : 2 канала
Частота : 48,0 КГц
Метод сжатия : С потерями
Размер потока : 23,7 Мбайт (8%)
Выравнивание : Соединение по промежуткам
Продолжительность промежутка : 40 мс. (1,00 видеокадр)
Скриншоты:







Время раздачи: С 09:00 до 23:00

Серия передач "ССCР. Обратный отсчет" на NoNaMe Club
[NNM-Club.me]_SSSP. Obratnyiy otschet. Graf CHapskiy. Drama reformatora (2010) SATRip.avi.torrent
 Торрент:   Зарегистрирован
 
Зарегистрируйтесь и скачайте торрент!
12,2 KB

Примагнититься
 Зарегистрирован:   14 Окт 2013 22:59:05
 Размер:   304 MB  (
 Рейтинг:    (Голосов: 6)
 Поблагодарили:   20
 Проверка:   Оформление проверено модератором 16 Окт 2013 22:04:28
Как cкачать  ·  Как раздать  ·  Правильно оформить  ·  Поднять ратио!  
Показать сообщения:   
Начать новую тему   Ответить на тему    Торрент-трекер NNM-Club -> Документалистика и Телепередачи -> Кинолетопись Страны Советской Часовой пояс: GMT + 3
Страница 1 из 1