Классический форум-трекер
canvas not supported
Нас вместе: 4 079 223

Dale Kavanaugh - Toccata In Blue (2000) [FLAC|Lossless]<Contemporary Classical, New Classical, Guitar>


 
 
RSS
Начать новую тему   Ответить на тему    Торрент-трекер NNM-Club -> Классика -> В обработке/Classical Crossover/Neoclassical (Lossless)
Автор Сообщение
PlaNed ®
Стаж: 7 лет 7 мес.
Сообщений: 1358
Ratio: 1016,169
Поблагодарили: 68968
25.86%
Откуда: The Net!
bulgaria.gif
Dale Kavanaugh - Toccata In Blue (2000)
Год: 2000
Жанр: Contemporary Classical, New Classical, Guitar
Издатель: Hanssler Classic
Номер по каталогу: : HAEN98348
Страна изготовитель: Germany

Продолжительность: 00:53:03

Кодек: FLAC | Битрейт: Lossless | Источник: Web

Треклист:

01. Carlo Domeniconi: Toccata In Blue [06:21.22]
Carlo Domeniconi: Trilogy
02. 1. Calata [03:34.50]
03. 2. Adagio, Lirico [04:30.74]
04. 3. Ragtime [02:44.90]
Jaime Mirtenbaum Zenamon: Reflexoes No. 7
05. 1. Lento [02:44.30]
06. 2. Vivissimo [02:25.94]
07. 3. Molto Lento [02:23.64]
Dale Kavanagh: Three Pieces
08. 1. Melissa [03:02.88]
09. 2. Contemplation [03:16.53]
10. 3. A La Fueco [02:09.02]
Jaime Mirtenbaum Zenamon: Demian
11. 1. Dos Mundos (moderato) [03:46.89]
12. 2. El Senal De Caim (violento) [00:57.12]
13. 3. Krommer (poco meno) [01:05.88]
14. 4. Abraxas (lento) [01:26.61]
15. 5. Eva (largo) [03:36.97]
16. 6. Pistorius (sonando) [01:58.13]
17. 7. El Principio Del Fin (lento) [02:20.74]
18. Dale Kavanagh: Fundy [04:35.21]
Код:

Exact Audio Copy V1.0 beta 3 from 29. August 2011

EAC extraction logfile from 4. October 2013, 19:03

Dale Kavanaugh / Toccata In Blue

Used drive  : TSSTcorpCDDVDW SH-216AB   Adapter: 1  ID: 0

Read mode               : Secure
Utilize accurate stream : Yes
Defeat audio cache      : Yes
Make use of C2 pointers : No

Read offset correction                      : 6
Overread into Lead-In and Lead-Out          : No
Fill up missing offset samples with silence : Yes
Delete leading and trailing silent blocks   : No
Null samples used in CRC calculations       : Yes
Used interface                              : Native Win32 interface for Win NT & 2000
Gap handling                                : Appended to previous track

Used output format              : User Defined Encoder
Selected bitrate                : 768 kBit/s
Quality                         : High
Add ID3 tag                     : No
Command line compressor         : C:\Program Files (x86)\Exact Audio Copy\FLAC\FLAC.EXE
Additional command line options : -6 -V -T "ARTIST=%artist%" -T "TITLE=%title%" -T "ALBUM=%albumtitle%" -T "DATE=%year%" -T "TRACKNUMBER=%tracknr%" -T "GENRE=%genre%" -T "COMMENT=%comment%" -T "BAND=%albuminterpret%" -T "ALBUMARTIST=%albuminterpret%" -T "COMPOSER=%composer%" %haslyrics%--tag-from-file=LYRICS="%lyricsfile%"%haslyrics% -T "DISCNUMBER=%cdnumber%" -T "TOTALDISCS=%totalcds%" -T "TOTALTRACKS=%numtracks%" %hascover%--picture="%coverfile%"%hascover% %source% -o %dest%

TOC of the extracted CD

     Track |   Start  |  Length  | Start sector | End sector
    ---------------------------------------------------------
        1  |  0:00.00 |  6:21.17 |         0    |    28591
        2  |  6:21.17 |  3:34.38 |     28592    |    44679
        3  |  9:55.55 |  4:30.56 |     44680    |    64985
        4  | 14:26.36 |  2:44.68 |     64986    |    77353
        5  | 17:11.29 |  2:44.23 |     77354    |    89676
        6  | 19:55.52 |  2:25.71 |     89677    |   100622
        7  | 22:21.48 |  2:23.48 |    100623    |   111395
        8  | 24:45.21 |  3:02.66 |    111396    |   125111
        9  | 27:48.12 |  3:16.40 |    125112    |   139851
       10  | 31:04.52 |  2:09.02 |    139852    |   149528
       11  | 33:13.54 |  3:46.67 |    149529    |   166545
       12  | 37:00.46 |  0:57.09 |    166546    |   170829
       13  | 37:57.55 |  1:05.66 |    170830    |   175770
       14  | 39:03.46 |  1:26.46 |    175771    |   182266
       15  | 40:30.17 |  3:36.73 |    182267    |   198539
       16  | 44:07.15 |  1:58.10 |    198540    |   207399
       17  | 46:05.25 |  2:20.56 |    207400    |   217955
       18  | 48:26.06 |  4:35.16 |    217956    |   238596

Track  1

     Filename C:\Users\astarte\03. POST\toccata in blue\01. Domeniconi - Toccata In Blue.wav

     Pre-gap length  0:00:02.00

     Peak level 77.2 %
     Extraction speed 5.0 X
     Track quality 100.0 %
     Copy CRC 68BD24CB
     Accurately ripped (confidence 1)  [22FD7233]  (AR v2)
     Copy OK

Track  2

     Filename C:\Users\astarte\03. POST\toccata in blue\02. Domeniconi - Trilogy - 1. Calata.wav

     Pre-gap length  0:00:04.34

     Peak level 45.2 %
     Extraction speed 5.3 X
     Track quality 100.0 %
     Copy CRC 86E5D1FD
     Accurately ripped (confidence 1)  [67AB21A6]  (AR v2)
     Copy OK

Track  3

     Filename C:\Users\astarte\03. POST\toccata in blue\03. Domeniconi - Trilogy - 2. Adagio, Lirico.wav

     Pre-gap length  0:00:01.81

     Peak level 44.1 %
     Extraction speed 5.9 X
     Track quality 100.0 %
     Copy CRC 1431F5E2
     Accurately ripped (confidence 1)  [B5F6678C]  (AR v2)
     Copy OK

Track  4

     Filename C:\Users\astarte\03. POST\toccata in blue\04. Domeniconi - Trilogy - 3. Ragtime.wav

     Peak level 58.3 %
     Extraction speed 5.8 X
     Track quality 100.0 %
     Copy CRC 7A51F01F
     Accurately ripped (confidence 1)  [1DAD941F]  (AR v2)
     Copy OK

Track  5

     Filename C:\Users\astarte\03. POST\toccata in blue\05. Zenamon - Reflexoes No. 7 - 1. Lento.wav

     Pre-gap length  0:00:06.12

     Peak level 27.2 %
     Extraction speed 4.6 X
     Track quality 99.9 %
     Copy CRC C4CEBAE3
     Accurately ripped (confidence 1)  [5757B5BF]  (AR v2)
     Copy OK

Track  6

     Filename C:\Users\astarte\03. POST\toccata in blue\06. Zenamon - Reflexoes No. 7 - 2. Vivissimo.wav

     Peak level 41.4 %
     Extraction speed 5.8 X
     Track quality 100.0 %
     Copy CRC 941C29F2
     Accurately ripped (confidence 1)  [40C28F9F]  (AR v2)
     Copy OK

Track  7

     Filename C:\Users\astarte\03. POST\toccata in blue\07. Zenamon - Reflexoes No. 7 - 3. Molto Lento.wav

     Peak level 14.3 %
     Extraction speed 6.2 X
     Track quality 100.0 %
     Copy CRC B504ABDD
     Accurately ripped (confidence 1)  [6D0509D7]  (AR v2)
     Copy OK

Track  8

     Filename C:\Users\astarte\03. POST\toccata in blue\08. Kavanagh - Three Pieces - 1. Melissa.wav

     Pre-gap length  0:00:03.90

     Peak level 69.0 %
     Extraction speed 6.7 X
     Track quality 100.0 %
     Copy CRC D22881F1
     Accurately ripped (confidence 1)  [E0749637]  (AR v2)
     Copy OK

Track  9

     Filename C:\Users\astarte\03. POST\toccata in blue\09. Kavanagh - Three Pieces - 2. Contemplation.wav

     Peak level 41.9 %
     Extraction speed 5.5 X
     Track quality 99.9 %
     Copy CRC D854D9B6
     Accurately ripped (confidence 1)  [F118B82B]  (AR v2)
     Copy OK

Track 10

     Filename C:\Users\astarte\03. POST\toccata in blue\10. Kavanagh - Three Pieces - 3. A La Fueco.wav

     Peak level 39.4 %
     Extraction speed 6.3 X
     Track quality 100.0 %
     Copy CRC 22119EF6
     Accurately ripped (confidence 1)  [E474BEF3]  (AR v2)
     Copy OK

Track 11

     Filename C:\Users\astarte\03. POST\toccata in blue\11. Zenamon - Demian - 1. Dos Mundos (moderato).wav

     Pre-gap length  0:00:05.86

     Peak level 57.5 %
     Extraction speed 7.6 X
     Track quality 100.0 %
     Copy CRC D5D8F346
     Accurately ripped (confidence 1)  [8531848C]  (AR v2)
     Copy OK

Track 12

     Filename C:\Users\astarte\03. POST\toccata in blue\12. Zenamon - Demian - 2. El Senal De Caim (violento).wav

     Peak level 96.1 %
     Extraction speed 3.2 X
     Track quality 99.8 %
     Copy CRC AEBD5D83
     Accurately ripped (confidence 1)  [589A0B24]  (AR v2)
     Copy OK

Track 13

     Filename C:\Users\astarte\03. POST\toccata in blue\13. Zenamon - Demian - 3. Krommer (poco meno).wav

     Peak level 70.0 %
     Extraction speed 5.3 X
     Track quality 100.0 %
     Copy CRC 450FAA27
     Accurately ripped (confidence 1)  [F680A1B5]  (AR v2)
     Copy OK

Track 14

     Filename C:\Users\astarte\03. POST\toccata in blue\14. Zenamon - Demian - 4. Abraxas (lento).wav

     Peak level 62.8 %
     Extraction speed 6.5 X
     Track quality 100.0 %
     Copy CRC 8366AB54
     Accurately ripped (confidence 1)  [8B0FE35F]  (AR v2)
     Copy OK

Track 15

     Filename C:\Users\astarte\03. POST\toccata in blue\15. Zenamon - Demian - 5. Eva (largo).wav

     Peak level 52.5 %
     Extraction speed 8.1 X
     Track quality 100.0 %
     Copy CRC 2C7A91B7
     Accurately ripped (confidence 1)  [5000E7F4]  (AR v2)
     Copy OK

Track 16

     Filename C:\Users\astarte\03. POST\toccata in blue\16. Zenamon - Demian - 6. Pistorius (sonando).wav

     Pre-gap length  0:00:01.29

     Peak level 36.5 %
     Extraction speed 7.3 X
     Track quality 100.0 %
     Copy CRC EFB30AF6
     Accurately ripped (confidence 1)  [7380FF5C]  (AR v2)
     Copy OK

Track 17

     Filename C:\Users\astarte\03. POST\toccata in blue\17. Zenamon - Demian - 7. El Principio Del Fin (lento).wav

     Peak level 52.9 %
     Extraction speed 5.7 X
     Track quality 99.9 %
     Copy CRC 30AE32D1
     Accurately ripped (confidence 1)  [F114AFE4]  (AR v2)
     Copy OK

Track 18

     Filename C:\Users\astarte\03. POST\toccata in blue\18. Kavanagh - Fundy.wav

     Pre-gap length  0:00:04.17

     Peak level 50.3 %
     Extraction speed 7.1 X
     Track quality 99.9 %
     Copy CRC DB4DC82A
     Accurately ripped (confidence 1)  [E54693DD]  (AR v2)
     Copy OK

All tracks accurately ripped

No errors occurred

End of status report

==== Log checksum 33BFDF07371B27C2C001C612EA74B482A44372192B3D4E26D70062F255A9FC2F ====

------------------------------------------------------------

Exact Audio Copy V1.0 beta 3 from 29. August 2011

EAC extraction logfile from 4. October 2013, 19:03

Dale Kavanaugh / Toccata In Blue

Used drive  : TSSTcorpCDDVDW SH-216AB   Adapter: 1  ID: 0

Read mode               : Secure
Utilize accurate stream : Yes
Defeat audio cache      : Yes
Make use of C2 pointers : No

Read offset correction                      : 6
Overread into Lead-In and Lead-Out          : No
Fill up missing offset samples with silence : Yes
Delete leading and trailing silent blocks   : No
Null samples used in CRC calculations       : Yes
Used interface                              : Native Win32 interface for Win NT & 2000
Gap handling                                : Appended to previous track

Used output format              : User Defined Encoder
Selected bitrate                : 768 kBit/s
Quality                         : High
Add ID3 tag                     : No
Command line compressor         : C:\Program Files (x86)\Exact Audio Copy\FLAC\FLAC.EXE
Additional command line options : -6 -V -T "ARTIST=%artist%" -T "TITLE=%title%" -T "ALBUM=%albumtitle%" -T "DATE=%year%" -T "TRACKNUMBER=%tracknr%" -T "GENRE=%genre%" -T "COMMENT=%comment%" -T "BAND=%albuminterpret%" -T "ALBUMARTIST=%albuminterpret%" -T "COMPOSER=%composer%" %haslyrics%--tag-from-file=LYRICS="%lyricsfile%"%haslyrics% -T "DISCNUMBER=%cdnumber%" -T "TOTALDISCS=%totalcds%" -T "TOTALTRACKS=%numtracks%" %hascover%--picture="%coverfile%"%hascover% %source% -o %dest%

TOC of the extracted CD

     Track |   Start  |  Length  | Start sector | End sector
    ---------------------------------------------------------
        1  |  0:00.00 |  6:21.17 |         0    |    28591
        2  |  6:21.17 |  3:34.38 |     28592    |    44679
        3  |  9:55.55 |  4:30.56 |     44680    |    64985
        4  | 14:26.36 |  2:44.68 |     64986    |    77353
        5  | 17:11.29 |  2:44.23 |     77354    |    89676
        6  | 19:55.52 |  2:25.71 |     89677    |   100622
        7  | 22:21.48 |  2:23.48 |    100623    |   111395
        8  | 24:45.21 |  3:02.66 |    111396    |   125111
        9  | 27:48.12 |  3:16.40 |    125112    |   139851
       10  | 31:04.52 |  2:09.02 |    139852    |   149528
       11  | 33:13.54 |  3:46.67 |    149529    |   166545
       12  | 37:00.46 |  0:57.09 |    166546    |   170829
       13  | 37:57.55 |  1:05.66 |    170830    |   175770
       14  | 39:03.46 |  1:26.46 |    175771    |   182266
       15  | 40:30.17 |  3:36.73 |    182267    |   198539
       16  | 44:07.15 |  1:58.10 |    198540    |   207399
       17  | 46:05.25 |  2:20.56 |    207400    |   217955
       18  | 48:26.06 |  4:35.16 |    217956    |   238596

Track  1

     Filename C:\Users\astarte\03. POST\toccata in blue\01. Domeniconi - Toccata In Blue.wav

     Pre-gap length  0:00:02.00

     Peak level 77.2 %
     Extraction speed 5.0 X
     Track quality 100.0 %
     Copy CRC 68BD24CB
     Accurately ripped (confidence 1)  [22FD7233]  (AR v2)
     Copy OK

Track  2

     Filename C:\Users\astarte\03. POST\toccata in blue\02. Domeniconi - Trilogy - 1. Calata.wav

     Pre-gap length  0:00:04.34

     Peak level 45.2 %
     Extraction speed 5.3 X
     Track quality 100.0 %
     Copy CRC 86E5D1FD
     Accurately ripped (confidence 1)  [67AB21A6]  (AR v2)
     Copy OK

Track  3

     Filename C:\Users\astarte\03. POST\toccata in blue\03. Domeniconi - Trilogy - 2. Adagio, Lirico.wav

     Pre-gap length  0:00:01.81

     Peak level 44.1 %
     Extraction speed 5.9 X
     Track quality 100.0 %
     Copy CRC 1431F5E2
     Accurately ripped (confidence 1)  [B5F6678C]  (AR v2)
     Copy OK

Track  4

     Filename C:\Users\astarte\03. POST\toccata in blue\04. Domeniconi - Trilogy - 3. Ragtime.wav

     Peak level 58.3 %
     Extraction speed 5.8 X
     Track quality 100.0 %
     Copy CRC 7A51F01F
     Accurately ripped (confidence 1)  [1DAD941F]  (AR v2)
     Copy OK

Track  5

     Filename C:\Users\astarte\03. POST\toccata in blue\05. Zenamon - Reflexoes No. 7 - 1. Lento.wav

     Pre-gap length  0:00:06.12

     Peak level 27.2 %
     Extraction speed 4.6 X
     Track quality 99.9 %
     Copy CRC C4CEBAE3
     Accurately ripped (confidence 1)  [5757B5BF]  (AR v2)
     Copy OK

Track  6

     Filename C:\Users\astarte\03. POST\toccata in blue\06. Zenamon - Reflexoes No. 7 - 2. Vivissimo.wav

     Peak level 41.4 %
     Extraction speed 5.8 X
     Track quality 100.0 %
     Copy CRC 941C29F2
     Accurately ripped (confidence 1)  [40C28F9F]  (AR v2)
     Copy OK

Track  7

     Filename C:\Users\astarte\03. POST\toccata in blue\07. Zenamon - Reflexoes No. 7 - 3. Molto Lento.wav

     Peak level 14.3 %
     Extraction speed 6.2 X
     Track quality 100.0 %
     Copy CRC B504ABDD
     Accurately ripped (confidence 1)  [6D0509D7]  (AR v2)
     Copy OK

Track  8

     Filename C:\Users\astarte\03. POST\toccata in blue\08. Kavanagh - Three Pieces - 1. Melissa.wav

     Pre-gap length  0:00:03.90

     Peak level 69.0 %
     Extraction speed 6.7 X
     Track quality 100.0 %
     Copy CRC D22881F1
     Accurately ripped (confidence 1)  [E0749637]  (AR v2)
     Copy OK

Track  9

     Filename C:\Users\astarte\03. POST\toccata in blue\09. Kavanagh - Three Pieces - 2. Contemplation.wav

     Peak level 41.9 %
     Extraction speed 5.5 X
     Track quality 99.9 %
     Copy CRC D854D9B6
     Accurately ripped (confidence 1)  [F118B82B]  (AR v2)
     Copy OK

Track 10

     Filename C:\Users\astarte\03. POST\toccata in blue\10. Kavanagh - Three Pieces - 3. A La Fueco.wav

     Peak level 39.4 %
     Extraction speed 6.3 X
     Track quality 100.0 %
     Copy CRC 22119EF6
     Accurately ripped (confidence 1)  [E474BEF3]  (AR v2)
     Copy OK

Track 11

     Filename C:\Users\astarte\03. POST\toccata in blue\11. Zenamon - Demian - 1. Dos Mundos (moderato).wav

     Pre-gap length  0:00:05.86

     Peak level 57.5 %
     Extraction speed 7.6 X
     Track quality 100.0 %
     Copy CRC D5D8F346
     Accurately ripped (confidence 1)  [8531848C]  (AR v2)
     Copy OK

Track 12

     Filename C:\Users\astarte\03. POST\toccata in blue\12. Zenamon - Demian - 2. El Senal De Caim (violento).wav

     Peak level 96.1 %
     Extraction speed 3.2 X
     Track quality 99.8 %
     Copy CRC AEBD5D83
     Accurately ripped (confidence 1)  [589A0B24]  (AR v2)
     Copy OK

Track 13

     Filename C:\Users\astarte\03. POST\toccata in blue\13. Zenamon - Demian - 3. Krommer (poco meno).wav

     Peak level 70.0 %
     Extraction speed 5.3 X
     Track quality 100.0 %
     Copy CRC 450FAA27
     Accurately ripped (confidence 1)  [F680A1B5]  (AR v2)
     Copy OK

Track 14

     Filename C:\Users\astarte\03. POST\toccata in blue\14. Zenamon - Demian - 4. Abraxas (lento).wav

     Peak level 62.8 %
     Extraction speed 6.5 X
     Track quality 100.0 %
     Copy CRC 8366AB54
     Accurately ripped (confidence 1)  [8B0FE35F]  (AR v2)
     Copy OK

Track 15

     Filename C:\Users\astarte\03. POST\toccata in blue\15. Zenamon - Demian - 5. Eva (largo).wav

     Peak level 52.5 %
     Extraction speed 8.1 X
     Track quality 100.0 %
     Copy CRC 2C7A91B7
     Accurately ripped (confidence 1)  [5000E7F4]  (AR v2)
     Copy OK

Track 16

     Filename C:\Users\astarte\03. POST\toccata in blue\16. Zenamon - Demian - 6. Pistorius (sonando).wav

     Pre-gap length  0:00:01.29

     Peak level 36.5 %
     Extraction speed 7.3 X
     Track quality 100.0 %
     Copy CRC EFB30AF6
     Accurately ripped (confidence 1)  [7380FF5C]  (AR v2)
     Copy OK

Track 17

     Filename C:\Users\astarte\03. POST\toccata in blue\17. Zenamon - Demian - 7. El Principio Del Fin (lento).wav

     Peak level 52.9 %
     Extraction speed 5.7 X
     Track quality 99.9 %
     Copy CRC 30AE32D1
     Accurately ripped (confidence 1)  [F114AFE4]  (AR v2)
     Copy OK

Track 18

     Filename C:\Users\astarte\03. POST\toccata in blue\18. Kavanagh - Fundy.wav

     Pre-gap length  0:00:04.17

     Peak level 50.3 %
     Extraction speed 7.1 X
     Track quality 99.9 %
     Copy CRC DB4DC82A
     Accurately ripped (confidence 1)  [E54693DD]  (AR v2)
     Copy OK

All tracks accurately ripped

No errors occurred

End of status report

==== Log checksum 33BFDF07371B27C2C001C612EA74B482A44372192B3D4E26D70062F255A9FC2F ====
Код:

-----------------------

DON'T MODIFY THIS FILE

-----------------------

PERFORMER: auCDtect Task Manager, ver. 1.6.0 RC1 build 1.6.0.1
Copyright (c) 2008-2010 y-soft. All rights reserved
http://y-soft.org

ANALYZER: auCDtect: CD records authenticity detector, version 0.8.2
Copyright (c) 2004 Oleg Berngardt. All rights reserved.
Copyright (c) 2004 Alexander Djourik. All rights reserved.

FILE: 18. Kavanagh - Fundy.flac
  Size: 16482551 Hash: 21FA60CAB30778A0478385B0C71885CF Accuracy: -m0
  Conclusion: CDDA 100%
  Signature: 0C5A4BCE22D0817387FE345A2401D0FD8CCF86FF
FILE: 17. Zenamon - Demian - 7. El Principio Del Fin (lento).flac
  Size: 6751277 Hash: D4564A467C6F882DBD8BAB7B255CCB97 Accuracy: -m0
  Conclusion: CDDA 100%
  Signature: B9E8D84D24B4720ABA54098C83ACD74AEAB1360D
FILE: 16. Zenamon - Demian - 6. Pistorius (sonando).flac
  Size: 7769465 Hash: FE764D766160C895D54E148D04F82B73 Accuracy: -m0
  Conclusion: CDDA 100%
  Signature: C5C99A324A8E08E791420874422BD64FDA7DB0C0
FILE: 15. Zenamon - Demian - 5. Eva (largo).flac
  Size: 11302633 Hash: 83B4B645628DDAE69F3104E9D8C14934 Accuracy: -m0
  Conclusion: CDDA 100%
  Signature: 7033EA72A78428BFC9A8FE19BDDB2F45607DEFF8
FILE: 14. Zenamon - Demian - 4. Abraxas (lento).flac
  Size: 6151196 Hash: A8EB3A19530675B69C3CCB1CC06D017E Accuracy: -m0
  Conclusion: CDDA 100%
  Signature: 26E8188802BF58D9BCBBFE92C067FF2FF00DC091
FILE: 13. Zenamon - Demian - 3. Krommer (poco meno).flac
  Size: 4678494 Hash: 059A0D739332E3953F7BD514AA151AE9 Accuracy: -m0
  Conclusion: CDDA 100%
  Signature: E1281AEC30932CCEA6CBB5F24B5165071304602F
FILE: 12. Zenamon - Demian - 2. El Senal De Caim (violento).flac
  Size: 4496113 Hash: 63E6D182E7BFABA63A91544CEE08B992 Accuracy: -m0
  Conclusion: CDDA 100%
  Signature: D6BE0491C36A797868F1ABF0F72235C64CA19B1A
FILE: 11. Zenamon - Demian - 1. Dos Mundos (moderato).flac
  Size: 14884398 Hash: 8919BF7772376B0EAB02E07FA5F60827 Accuracy: -m0
  Conclusion: CDDA 100%
  Signature: 0B1DD0706AA5E20354AC7AE09E41E98EFD4471FB
FILE: 10. Kavanagh - Three Pieces - 3. A La Fueco.flac
  Size: 9229571 Hash: 5EFF81CE91768A38CA41A1F4871C5D7F Accuracy: -m0
  Conclusion: CDDA 99%
  Signature: 6FD4964699BC754D219307DC7A46A525EDAAEC44
FILE: 09. Kavanagh - Three Pieces - 2. Contemplation.flac
  Size: 10184876 Hash: 6F7AEE641B93D75CAE6D9AA1708CE4EE Accuracy: -m0
  Conclusion: CDDA 99%
  Signature: 734D45DF35BCF3E7A33F86F3E6750E73E8A40A87
FILE: 08. Kavanagh - Three Pieces - 1. Melissa.flac
  Size: 11507220 Hash: 76FE08F95E207E9B5081AFDFD3D70022 Accuracy: -m0
  Conclusion: CDDA 100%
  Signature: E74F739B19134D839142287C148385636B7D3632
FILE: 07. Zenamon - Reflexoes No. 7 - 3. Molto Lento.flac
  Size: 6175215 Hash: 922566C65A52392D92F6C1568E831CF7 Accuracy: -m0
  Conclusion: CDDA 99%
  Signature: 5AF0262571235C6A094E5C9B8B39EAA835A918B8
FILE: 06. Zenamon - Reflexoes No. 7 - 2. Vivissimo.flac
  Size: 8932381 Hash: E82E5369F0FE69AE2BA82170C6C2CFE9 Accuracy: -m0
  Conclusion: CDDA 100%
  Signature: 56EFCB75E69B4D640DCA41BE00AB2560E7723294
FILE: 05. Zenamon - Reflexoes No. 7 - 1. Lento.flac
  Size: 8417124 Hash: 3A66673311B6C563B6FD42FA49F8CB82 Accuracy: -m0
  Conclusion: CDDA 100%
  Signature: C65DAA3098CF7C796754C0867570EE39FFF45F09
FILE: 04. Domeniconi - Trilogy - 3. Ragtime.flac
  Size: 10944792 Hash: A8D00D676C08EDDB376D69B9230EBE98 Accuracy: -m0
  Conclusion: CDDA 100%
  Signature: BA3BB4F93BFEEE263954E009EA0E5276BD502159
FILE: 03. Domeniconi - Trilogy - 2. Adagio, Lirico.flac
  Size: 14387589 Hash: 2A04FCB19F72FC9CE50165992378A4A1 Accuracy: -m0
  Conclusion: CDDA 100%
  Signature: D02445DBED1EFA267230DC162A6B2D608EB89076
FILE: 02. Domeniconi - Trilogy - 1. Calata.flac
  Size: 14323118 Hash: 51DBA829902509836326F19B44CADEA1 Accuracy: -m0
  Conclusion: CDDA 100%
  Signature: 3A27D8DBCF44F68D67FD03AF820DA9A06DBE3FD9
FILE: 01. Domeniconi - Toccata In Blue.flac
  Size: 24791993 Hash: BE251391EB45CF1FE4D3495840352524 Accuracy: -m0
  Conclusion: CDDA 100%
  Signature: FD3D66DB9C010A3DAE5C8EB70E8A1CE905405431
YouTube

Время раздачи: 24/7


Поглощение/вытеснение
Только с согласия релизера

J_Man
[NNM-Club.me]_Dale Kavanaugh - Toccata In Blue.torrent
 Торрент: Платиновая раздача  Зарегистрирован
 
Скачать


Примагнититься
 Зарегистрирован:   15 Окт 2013 17:13:55
 Размер:   196 MB  (
 Рейтинг:   4,4 (Голосов: 15)
 Поблагодарили:   58
 Проверка:   Оформление проверено модератором 16 Окт 2013 09:25:29
Как cкачать  ·  Как раздать  ·  Правильно оформить  ·  Поднять ратио!  
Показать сообщения:   
Начать новую тему   Ответить на тему    Торрент-трекер NNM-Club -> Классика -> В обработке/Classical Crossover/Neoclassical (Lossless) Часовой пояс: GMT + 3
Страница 1 из 1