Классический форум-трекер
canvas not supported
Нас вместе: 4 114 419

Всегда виновен / Osanda (1976) DVDRip


 
 
RSS
Начать новую тему   Ответить на тему    Торрент-трекер NNM-Club -> Классика кино и Старые фильмы до 90-х -> Старые Зарубежные Фильмы (HD*Rip/LQ, DVDRip, SATRip, VHSRip)
Автор Сообщение
nnmclub0112 ®
Стаж: 8 лет 4 мес.
Сообщений: 3919
Ratio: 80,578
Поблагодарили: 252467
100%
Всегда виновен / Osanda (1976) DVDRip
Год выпуска: 1976
Страна: Румыния
Жанр: Военный, Драма

Описание фильма:
1919 год, Румыния. Манлаке Преда (Пелля) возвращается на родину после того, как 10 лет провёл на соляных копях и ещё 2 года воевал на фронтах Первой мировой войны. На каторгу его отправили за убийство помещика. Нынешний хозяин земель, племянник убитого, господин Леон (Шаффер) неожиданно приветливо встречает Манлаке и даёт ему у себя работу. Но вскоре Леона убивают и подозрение падает на бывшего каторжника. В деревню прибывает прокурор Мариан (Серджиу Николаеску). Удастся ли ему докопаться до истины?

Режиссер: Серджиу Николаеску / Sergiu Nicolaescu
Актеры: Амза Пелля,Георге Диникэ,Эрнест Мафтей,Йоана Павелеску,Эммерих Шэффер,Эме Якобеску,Серджиу Николаеску

Продолжительность: 01:52:01
Качество видео: DVDRip
Перевод: Одноголосый закадровый



Видеокодек: Xvid
Битрейт видео: ~1654 Кбит/сек
Размер кадра: 704x512
Аудиокодек: AC3 2.0
Битрейт аудио: 192 Кбит/сек
Общее
Полное имя : W:\Интересно\Всегда виновен\DVDRip\Всегда виновен (1976) DVDRip.avi
Формат : AVI
Формат/Информация : Audio Video Interleave
Размер файла : 1,45 Гбайт
Продолжительность : 1 ч. 52 м.
Общий поток : 1856 Кбит/сек
Программа кодирования : VirtualDubMod 1.5.10.2 (build 2540/release)
Библиотека кодирования : VirtualDubMod build 2540/release

Видео
Идентификатор : 0
Формат : MPEG-4 Visual
Профиль формата : Advanced Simple@L5
Параметр BVOP формата : 1
Параметр QPel формата : Нет
Параметр GMC формата : Без точки перехода
Параметр матрицы формата : Default (MPEG)
Идентификатор кодека : XVID
Идентификатор кодека/Подсказка : XviD
Продолжительность : 1 ч. 52 м.
Битрейт : 1654 Кбит/сек
Ширина : 704 пикселя
Высота : 512 пикселей
Соотношение сторон : 1,375
Частота кадров : 25,000 кадров/сек
Цветовое пространство : YUV
Субдискретизация насыщенности : 4:2:0
Битовая глубина : 8 бит
Тип развёртки : Прогрессивная
Метод сжатия : С потерями
Бит/(Пиксели*Кадры) : 0.184
Размер потока : 1,29 Гбайт (89%)
Библиотека кодирования : XviD 64

Аудио
Идентификатор : 1
Формат : AC-3
Формат/Информация : Audio Coding 3
Расширение режима : CM (complete main)
Параметр Endianness формата : Big
Идентификатор кодека : 2000
Продолжительность : 1 ч. 52 м.
Вид битрейта : Постоянный
Битрейт : 192 Кбит/сек
Каналы : 2 канала
Расположение каналов : Front: L R
Частота : 48,0 КГц
Битовая глубина : 16 бит
Метод сжатия : С потерями
Размер потока : 154 Мбайт (10%)
Выравнивание : Разделение по промежуткам
Продолжительность промежутка : 40 мс. (1,00 видеокадр)
Время предзагрузки промежутка : 500 мс.
Скриншоты:





Время раздачи: С 10:00 до 23:00
[NNM-Club.me]_Vsegda vinoven (1976) DVDRip.avi.torrent
 Торрент: Платиновая раздача  Зарегистрирован
 
Скачать


Примагнититься
 Зарегистрирован:   15 Окт 2013 20:55:32
 Размер:   1,45 GB  (
 Рейтинг:   4,6 (Голосов: 17)
 Поблагодарили:   54
 Проверка:   Оформление проверено модератором 16 Окт 2013 18:41:57
Как cкачать  ·  Как раздать  ·  Правильно оформить  ·  Поднять ратио!  
Semi000
Uploader 100+
Стаж: 9 лет 11 мес.
Сообщений: 846
Ratio: 288,829
Раздал: 409,5 TB
100%
Откуда: планета Земля
russia.gif
Помогите докачать этот фильм, пожалуйста!!!! "Застрял" на 42%...
Показать сообщения:   
Начать новую тему   Ответить на тему    Торрент-трекер NNM-Club -> Классика кино и Старые фильмы до 90-х -> Старые Зарубежные Фильмы (HD*Rip/LQ, DVDRip, SATRip, VHSRip) Часовой пояс: GMT + 3
Страница 1 из 1