Классический форум-трекер
canvas not supported
Нас вместе: 4 079 405

Лунтик и его друзья (1-419 серии) (2006-2013) DVDRip / TVRip


 
 
RSS
Начать новую тему   Ответить на тему    Торрент-трекер NNM-Club -> Мультфильмы -> Отечественные Мультсериалы
Автор Сообщение
arturikik ®
Стаж: 8 лет 9 мес.
Сообщений: 6
Ratio: 23,946
Поблагодарили: 1513
1.39%
russia.gif
Лунтик и его друзья (1-419 серии) (2006-2013) DVDRip
Год выпуска: 2006-2013
Жанр: Рисованная анимация, Компьютерная анимация, Детский

Режиссер: Дарина Шмидт
Персонажи: Лунтик, Кузя, Мила...

Описание фильма:
Родившись на Луне, Лунтик сразу же падает на Землю и попадет в пруд.
Его появление нарушает спокойную жизнь пруда, и паника охватывает многих его жителей.
Дружелюбный Лунтик пытается разобраться, что же всех так напугало,
но, похоже, от этого суматоха только усиливается.

Продолжительность: 419 серий по ~ 00:04:34
Качество видео: DVDRip
Видеокодек:

  • Серии 393, 415, 416, 418, 419, 0398, 399, 0417: AVC
  • Серии остальные: XVID

Битрейт видео: ~1037 kbps
Размер кадра:

  • Серии 393, 415, 416, 418, 419: 720х528
  • Серии 398: 960х720
  • Серии 399, 417: 1280х720
  • Серии остальные: 704х544

Аудиокодек:

  • Серии 393, 415, 416, 418, 419, 0398, 399, 0417: AAC, 2 канала
  • Серии остальные: MP3, 2 канала

Битрейт аудио:

  • Серии 393, 415, 416, 418, 419, 0398, 399, 0417: 192 kbps
  • Серии остальные: 128 kbps
Complete name : 0030 Посуда.avi
Format : AVI
Format/Info : Audio Video Interleave
File size : 38.6 MiB
Duration : 4mn 34s
Overall bit rate : 1 178 Kbps
Writing application : MEncoder SVN-r1.0~rc3+svn20090426-4.4.3
Writing library : MPlayer

Video
ID : 0
Format : MPEG-4 Visual
Format profile : Advanced Simple@L5
Format settings, BVOP : 2
Format settings, QPel : No
Format settings, GMC : No warppoints
Format settings, Matrix : Default (H.263)
Codec ID : XVID
Codec ID/Hint : XviD
Duration : 4mn 34s
Bit rate : 1 037 Kbps
Width : 704 pixels
Height : 544 pixels
Display aspect ratio : 4:3
Original display aspect ratio : 1.294
Frame rate : 25.000 fps
Color space : YUV
Chroma subsampling : 4:2:0
Bit depth : 8 bits
Scan type : Progressive
Compression mode : Lossy
Bits/(Pixel*Frame) : 0.108
Stream size : 34.0 MiB (88%)
Writing library : XviD 1.2.1 (UTC 2008-12-04)

Audio
ID : 1
Format : MPEG Audio
Format version : Version 1
Format profile : Layer 3
Mode : Joint stereo
Mode extension : MS Stereo
Codec ID : 55
Codec ID/Hint : MP3
Duration : 4mn 34s
Bit rate mode : Constant
Bit rate : 128 Kbps
Channel(s) : 2 channels
Sampling rate : 48.0 KHz
Compression mode : Lossy
Delay relative to video : 80ms
Stream size : 4.19 MiB (11%)
Alignment : Aligned on interleaves
Interleave, duration : 24 ms (0.60 video frame)
Interleave, preload duration : 504 ms
Complete name : 0393 Доброе воспитание.mp4
Format : MPEG-4
Format profile : Base Media
Codec ID : isom
File size : 40.4 MiB
Duration : 4mn 40s
Overall bit rate mode : Variable
Overall bit rate : 1 209 Kbps
Album : Cartoon
Performer : SATRip by Thunder
Writing application : Lavf54.63.104

Video
ID : 1
Format : AVC
Format/Info : Advanced Video Codec
Format profile : Baseline@L3.0
Format settings, CABAC : No
Format settings, ReFrames : 3 frames
Format settings, GOP : M=1, N=50
Codec ID : avc1
Codec ID/Info : Advanced Video Coding
Duration : 4mn 40s
Bit rate : 1 013 Kbps
Width : 720 pixels
Height : 528 pixels
Display aspect ratio : 4:3
Frame rate mode : Constant
Frame rate : 25.000 fps
Color space : YUV
Chroma subsampling : 4:2:0
Bit depth : 8 bits
Scan type : Progressive
Bits/(Pixel*Frame) : 0.107
Stream size : 33.8 MiB (84%)
Writing library : x264 core 138
Encoding settings : cabac=0 / ref=3 / deblock=1:0:0 / analyse=0x1:0x131 / me=hex / subme=6 / psy=1 / psy_rd=1.00:0.00 / mixed_ref=1 / me_range=16 / chroma_me=1 / trellis=1 / 8x8dct=0 / cqm=0 / deadzone=21,11 / fast_pskip=1 / chroma_qp_offset=-2 / threads=6 / lookahead_threads=1 / sliced_threads=0 / nr=0 / decimate=1 / interlaced=0 / bluray_compat=0 / constrained_intra=0 / bframes=0 / weightp=0 / keyint=50 / keyint_min=5 / scenecut=40 / intra_refresh=0 / rc_lookahead=40 / rc=crf / mbtree=1 / crf=23.0 / qcomp=0.60 / qpmin=10 / qpmax=51 / qpstep=4 / vbv_maxrate=10000 / vbv_bufsize=10000 / crf_max=0.0 / nal_hrd=none / ip_ratio=1.41 / aq=1:1.00

Audio
ID : 2
Format : AAC
Format/Info : Advanced Audio Codec
Format profile : LC
Codec ID : 40
Duration : 4mn 40s
Duration_LastFrame : -9ms
Bit rate mode : Variable
Bit rate : 192 Kbps
Maximum bit rate : 10 000 Kbps
Channel(s) : 2 channels
Channel positions : Front: L R
Sampling rate : 48.0 KHz
Compression mode : Lossy
Stream size : 6.41 MiB (16%)
Complete name : 0398 Озорники.mp4
Format : MPEG-4
Format profile : Base Media / Version 2
Codec ID : mp42
File size : 64.7 MiB
Duration : 7mn 25s
Overall bit rate mode : Variable
Overall bit rate : 1 219 Kbps
Encoded date : UTC 2013-10-18 05:26:30
Tagged date : UTC 2013-10-18 05:26:30
gsst : 0
gstd : 445171
gssd : BD4BC0745HH1382436227836314
gshh : r2---sn-jvhnu5g-n8vl.c.youtube.com

Video
ID : 1
Format : AVC
Format/Info : Advanced Video Codec
Format profile : High@L3.1
Format settings, CABAC : Yes
Format settings, ReFrames : 1 frame
Codec ID : avc1
Codec ID/Info : Advanced Video Coding
Duration : 7mn 25s
Bit rate : 1 025 Kbps
Maximum bit rate : 2 480 Kbps
Width : 960 pixels
Height : 720 pixels
Display aspect ratio : 4:3
Frame rate mode : Constant
Frame rate : 25.000 fps
Color space : YUV
Chroma subsampling : 4:2:0
Bit depth : 8 bits
Scan type : Progressive
Bits/(Pixel*Frame) : 0.059
Stream size : 54.4 MiB (84%)
Tagged date : UTC 2013-10-18 05:26:34

Audio
ID : 2
Format : AAC
Format/Info : Advanced Audio Codec
Format profile : LC
Codec ID : 40
Duration : 7mn 25s
Bit rate mode : Variable
Bit rate : 192 Kbps
Maximum bit rate : 201 Kbps
Channel(s) : 2 channels
Channel positions : Front: L R
Sampling rate : 44.1 KHz
Compression mode : Lossy
Stream size : 10.2 MiB (16%)
Title : IsoMedia File Produced by Google, 5-11-2011
Encoded date : UTC 2013-10-18 05:26:32
Tagged date : UTC 2013-10-18 05:26:34
Complete name : D:\Videos\Лунтик\0399 Гигинская обезьяна.mp4
Format : MPEG-4
Format profile : Base Media / Version 2
Codec ID : mp42
File size : 68.8 MiB
Duration : 7mn 27s
Overall bit rate mode : Variable
Overall bit rate : 1 288 Kbps
Encoded date : UTC 2013-07-13 08:01:57
Tagged date : UTC 2013-07-13 08:01:57
gsst : 0
gstd : 448098
gssd : BD4BC0745HH1382437122679751
gshh : r2---sn-jvhnu5g-n8vl.c.youtube.com

Video
ID : 1
Format : AVC
Format/Info : Advanced Video Codec
Format profile : High@L3.1
Format settings, CABAC : Yes
Format settings, ReFrames : 1 frame
Format settings, GOP : M=1, N=60
Codec ID : avc1
Codec ID/Info : Advanced Video Coding
Duration : 7mn 27s
Bit rate : 1 094 Kbps
Maximum bit rate : 2 672 Kbps
Width : 1 280 pixels
Height : 720 pixels
Display aspect ratio : 16:9
Frame rate mode : Constant
Frame rate : 25.000 fps
Color space : YUV
Chroma subsampling : 4:2:0
Bit depth : 8 bits
Scan type : Progressive
Bits/(Pixel*Frame) : 0.047
Stream size : 58.4 MiB (85%)
Tagged date : UTC 2013-07-13 08:02:05

Audio
ID : 2
Format : AAC
Format/Info : Advanced Audio Codec
Format profile : LC
Codec ID : 40
Duration : 7mn 27s
Bit rate mode : Variable
Bit rate : 192 Kbps
Maximum bit rate : 202 Kbps
Channel(s) : 2 channels
Channel positions : Front: L R
Sampling rate : 44.1 KHz
Compression mode : Lossy
Stream size : 10.3 MiB (15%)
Title : IsoMedia File Produced by Google, 5-11-2011
Encoded date : UTC 2013-07-13 08:02:01
Tagged date : UTC 2013-07-13 08:02:05

Скриншоты: 704х544

Скриншоты: 720х528

Скриншоты: 960х720

Скриншоты: 1280х720
Время раздачи: 21:00 - 6:00 (Екатеринбург) Днем на работе через МТС (максимум 200 кб/с)

Лунтик и его друзья на NNM-club
[NNM-Club.me]_Luntik.torrent
 Торрент: Платиновая раздача  Зарегистрирован
 
Скачать


Примагнититься
 Зарегистрирован:   24 Окт 2013 18:58:51
 Размер:   15,7 GB  (
 Рейтинг:   4,9 (Голосов: 358)
 Поблагодарили:   1513
 Проверка:   Оформление проверено модератором 25 Окт 2013 07:26:01
Как cкачать  ·  Как раздать  ·  Правильно оформить  ·  Поднять ратио!  
ligapolis2012
Стаж: 7 лет
Сообщений: 1
Ratio: 0,951
0%
Благодарю за отсутствующие в другой раздаче серии!
123456789pp
Стаж: 8 лет 6 мес.
Сообщений: 5
Ratio: 8,606
100%
Обидно, что в конце новых серий вставлен 3-минутная реклама серий нового сезона.... Приходится скакать каждые 3 минуты после окончания серии, чтобы переключить на следующую. Но это в скобках. Спасибо автору!!!
andrey1366621
Стаж: 7 лет 10 мес.
Сообщений: 33
Ratio: 13,662
100%
ussr.gif
Спасибо!!!
russ-truss
Стаж: 10 лет 7 мес.
Сообщений: 46
Ratio: 1,658
100%
Откуда: Ростов-Папа
russia.gif
выкинул кучу дисков, качаю дочке всего лунта,автору СПАСИБО!поддержу раздачу
Nervasystem
Стаж: 7 лет 6 мес.
Сообщений: 22
Ratio: 65,313
Раздал: 37,93 TB
100%
russia.gif
Огромное спасибо от моей маленькой дочки. Надеюсь тут будут оставшиеся серии до 439 :)
Balibon
Стаж: 7 лет 4 мес.
Сообщений: 1
Ratio: 283,257
100%
Поддержу раздачу!!! Спасибо огромное!!!
staralexis
Стаж: 8 лет 7 мес.
Сообщений: 47
Ratio: 72,923
100%
Откуда: Каменск-Ш​ахтинский​
ussr.gif
"Серии 393, 415, 416, 418, 419, 0398, 399, 0417: AVC Серии остальные: XVID"
Действительно, DVD проигрыватели умеющие воспроизводить компьютерный формат (сейчас почти все деки это могут) видят только расширение *.AVI, да и то, только файлы полученные определенным видом кодека: Xvid MPEG-4 codec. Файлы с тем же самым расширением *.AVI, НО полученные другими видами кодеков, будут определяться как "unsupport format" и в лучшем случае проигрывать только звук! Я перебрал все программы-кодировщики пока нашел нужный формат и теперь перегоняю в него и MP4 и "матроску" и "левые" *.AVI Проверено на DVD проигрывателе "Mystery MDV-731" - разрешение при кодировании следует задавать 720*432, это соотношение: 1,666666667
nnmflowerking
Стаж: 6 лет 7 мес.
Сообщений: 7
Ratio: 11,928
22.73%
Порядок серий 7 сезона не соответствует порядку в Wiki [url]http://ru.wikipedia.org/wiki/Список_серий_сериала_«Лунтик»#.D0.A1.D0.B5.D0.B7.D0.BE.D0.BD_7_.282013.29._3D_.28.D0.BA.D0.BE.D0.BC.D0.BF.D1.8C.D1.8E.D1.82.D0.B5.D1.80.D0.BD.D0.B0.D1.8F_.D0.B0.D0.BD.D0.B8.D0.BC.D0.B0.D1.86.D0.B8.D1.8F.29[/url]
Какой правильней?
Jessy85
Стаж: 6 лет 4 мес.
Сообщений: 1
Ratio: 314,02
85.54%
Подскажите, плиз! Тут серии подряд идут или каждую отдельно запускать нужно???
kunlun
Стаж: 9 лет 1 мес.
Сообщений: 117
Ratio: 6,38
100%
russia.gif
Спасибо за новые серии!
ks1284
 
Стаж: 8 лет 8 мес.
Сообщений: 52
Ratio: 7,349
Раздал: 34,07 TB
0.96%
будут ли еще новые серии 2014г? на ютубе есть по 432-ю
Valsorya
Стаж: 8 лет
Сообщений: 9
Ratio: 2,24
100%
ukraine.gif
Какой-то негодяй в некоторые серии вставил куски сериала Физрук, писец просто, особенно в середине мультика, больше 10 серий точно, буду искать другие раздачи....
svoron
Стаж: 8 лет 11 мес.
Сообщений: 48
Ratio: 25,252
Поблагодарили: 213
100%
Valsorya например в какие? Ни в одной не встречал
LinZiP
Стаж: 8 лет 1 мес.
Сообщений: 535
Ratio: 226,28
Раздал: 30,32 TB
Поблагодарили: 4898
100%
Откуда: Марий Эл, Йошкар-Ола
russia.gif
Спасибо за работу!
По Кинопоиску 439 серий всего числится, будет обновляться раздача?

_________________

... Music is my life your know, I will never let it go ...
Показать сообщения:   
Начать новую тему   Ответить на тему    Торрент-трекер NNM-Club -> Мультфильмы -> Отечественные Мультсериалы Часовой пояс: GMT + 3
Страница 1 из 1