Классический форум-трекер
canvas not supported
Нас вместе: 4 093 654

Испытание верности (1954) DVD5


 
 
RSS
Начать новую тему   Ответить на тему    Торрент-трекер NNM-Club -> Классика кино и Старые фильмы до 90-х -> Отечественная Классика (DVD)
Автор Сообщение
nnmclub0112 ®
Стаж: 8 лет 1 мес.
Сообщений: 3905
Ratio: 89,293
Поблагодарили: 251452
100%
Испытание верности (1954) DVD5
Год выпуска: 1954
Жанр: Драма

Описание фильма: Кинодрама о непростых человеческих судьбах, о любви и разлуке, измене и преданности, об умении простить ошибку и не бросить близкого человека в беде…
Последняя совместная работа в кино Марины Ладыниной и Ивана Пырьева.

Режиссер: Иван Пырьев
Актеры: Марина Ладынина, Сергей Ромоданов, Василий Торопков, M. Anastasyeva, Станислав Чекан, Леонид Галлис, Олег Голубицкий, Нина Гребешкова, Юрий Медведев, Александр Михайлов

Продолжительность: 01:41:59
Качество видео: DVD5



Видеокодек: MPEG-2
Битрейт видео: ~ 4006 Кбит/сек
Размер кадра: 720x576
Аудиокодек: AC3, 2.0
Битрейт аудио: 192 Кбит/сек
Title: Испытание верности (1954) DVD5
Size: 3.44 Gb ( 3 608 482,00 KBytes ) - DVD-5
Enabled regions: 1, 2, 3, 4, 5, 6, 7, 8

VTS_01 :
Play Length: 00:00:40
Video: PAL 4:3 (720x576) VBR

VTS_02 :
Play Length: 01:51:49
Video: PAL 4:3 (720x576) VBR
Audio:
English (Dolby AC3, 2 ch)

* Menus Information *

VIDEO_TS Menu
Video:
PAL 4:3 (720x576) VBR
English Language Unit :
Title Menu

VTS_01 Menu
Video:
PAL 4:3 (720x576) VBR
Audio:
Not specified (Dolby AC3, 2 ch)
English Language Unit :
Root Menu

VTS_02 Menu
Video:
PAL 4:3 (720x576) VBR
English Language Unit :
Root Menu
Общее
Полное имя : W:\Интересно\Испытание верности\Испытание верности (1954) DVD5\VIDEO_TS\VTS_02_1.VOB
Формат : MPEG-PS
Размер файла : 1024 Мбайт
Продолжительность : 33 м.
Режим общего битрейта : Переменный
Общий поток : 4284 Кбит/сек

Видео
Идентификатор : 224 (0xE0)
Формат : MPEG Video
Версия формата : Version 2
Профиль формата : Main@Main
Параметр BVOP формата : Да
Параметр матрицы формата : Выборочная
Параметр GOP формата : M=3, N=15
Продолжительность : 33 м.
Вид битрейта : Переменный
Битрейт : 4006 Кбит/сек
Максимальный битрейт : 6000 Кбит/сек
Ширина : 720 пикселей
Высота : 576 пикселей
Соотношение сторон : 4:3
Частота кадров : 25,000 кадров/сек
Стандарт вещания : PAL
Цветовое пространство : YUV
Субдискретизация насыщенности : 4:2:0
Битовая глубина : 8 бит
Тип развёртки : Чересстрочная
Порядок развёртки : Нижнее поле первое
Метод сжатия : С потерями
Бит/(Пиксели*Кадры) : 0.386
Временной код первого кадра : 00:00:00:00
Оригинал временного кода : Group of pictures header
Размер потока : 958 Мбайт (94%)

Аудио
Идентификатор : 189 (0xBD)-128 (0x80)
Формат : AC-3
Формат/Информация : Audio Coding 3
Расширение режима : CM (complete main)
Параметр Endianness формата : Big
Режим смешивания : DVD-Video
Продолжительность : 33 м.
Вид битрейта : Постоянный
Битрейт : 192 Кбит/сек
Каналы : 2 канала
Расположение каналов : Front: L R
Частота : 48,0 КГц
Битовая глубина : 16 бит
Метод сжатия : С потерями
Размер потока : 45,9 Мбайт (4%)

Меню
Скриншоты:







Время раздачи: С 09:00 до 23:00

Все релизы "Испытание верности (1954)" на NNM-CLUB
[NNM-Club.me]_Ispyitanie vernosti (1954) DVD5.torrent
 Торрент: Платиновая раздача  Зарегистрирован
 
Скачать


Примагнититься
 Зарегистрирован:   25 Окт 2013 15:31:14
 Размер:   3,44 GB  (
 Рейтинг:   4,5 (Голосов: 31)
 Поблагодарили:   76
 Проверка:   Оформление проверено модератором 26 Окт 2013 01:23:30
Как cкачать  ·  Как раздать  ·  Правильно оформить  ·  Поднять ратио!  
Показать сообщения:   
Начать новую тему   Ответить на тему    Торрент-трекер NNM-Club -> Классика кино и Старые фильмы до 90-х -> Отечественная Классика (DVD) Часовой пояс: GMT + 3
Страница 1 из 1