Классический форум-трекер
canvas not supported
Нас вместе: 4 079 191

Что такое хорошо и что такое плохо (1975) TVRip


 
 
RSS
Начать новую тему   Ответить на тему    Торрент-трекер NNM-Club -> Видео -> Отечественные Фильмы для детей
Автор Сообщение
nnmclub0112 ®
Стаж: 7 лет 9 мес.
Сообщений: 3894
Ratio: 96,717
Поблагодарили: 249682
100%
Что такое хорошо и что такое плохо (1975) TVRip
Год выпуска: 1975
Жанр: Детский, Короткометражный

Описание:
В фильмах, входящих в данный сборник, представлены постановочные сюжеты (короткометражные фильмы). Каждый фильм - это небольшая история, легко понятная даже для самых маленьких школьников. Цель каждого фильма, воспитать в детях чувства и навыки, которые будут им необходимы в жизни.

В серию входят фильмы:

1. "О смелости"
2. "Наши добрые дела"
3. "Настоящий товарищ"
4. "Честное слово"

Режиссер: Валентина Матвеева, Электра Владыкина
Актеры: Олег Ефремов (II), Герман Колушкин, Леонид Дьячков, Сергей Лосев

Продолжительность: 0:37:31
Качество видео: TVRip

Видеокодек: Xvid
Битрейт видео: ~1622 Кбит/сек
Размер кадра: 720х544
Аудиокодек: MP3, 2 ch
Битрейт аудио: 96,0 Кбит/сек
Общее
Полное имя : W:\Интересно\!Детские\Что такое хорошо и что такое плохо\Что такое хорошо и что такое плохо (1975) TVRip\Настоящий товарищ.avi
Формат : AVI
Формат/Информация : Audio Video Interleave
Размер файла : 120 Мбайт
Продолжительность : 9 м. 43 с.
Режим общего битрейта : Переменный
Общий поток : 1722 Кбит/сек
Программа кодирования : VirtualDubMod 1.5.4.1 (build 2178/release)
Библиотека кодирования : VirtualDubMod build 2178/release

Видео
Идентификатор : 0
Формат : MPEG-4 Visual
Профиль формата : Advanced Simple@L5
Параметр BVOP формата : 1
Параметр QPel формата : Нет
Параметр GMC формата : Без точки перехода
Параметр матрицы формата : Выборочная
Идентификатор кодека : XVID
Идентификатор кодека/Подсказка : XviD
Продолжительность : 9 м. 43 с.
Битрейт : 1622 Кбит/сек
Ширина : 720 пикселей
Высота : 544 пикселя
Соотношение сторон : 4:3
Частота кадров : 25,000 кадров/сек
Цветовое пространство : YUV
Субдискретизация насыщенности : 4:2:0
Битовая глубина : 8 бит
Тип развёртки : Прогрессивная
Метод сжатия : С потерями
Бит/(Пиксели*Кадры) : 0.166
Размер потока : 113 Мбайт (94%)
Библиотека кодирования : XviD 1.2.1 (UTC 2008-12-04)

Аудио
Идентификатор : 1
Формат : MPEG Audio
Версия формата : Version 1
Профиль формата : Layer 3
Режим : Joint stereo
Расширение режима : MS Stereo
Идентификатор кодека : 55
Идентификатор кодека/Подсказка : MP3
Продолжительность : 9 м. 43 с.
Вид битрейта : Переменный
Битрейт : 89,5 Кбит/сек
Номинальный битрейт : 96,0 Кбит/сек
Каналы : 2 канала
Частота : 32,0 КГц
Метод сжатия : С потерями
Размер потока : 6,22 Мбайт (5%)
Выравнивание : Соединение по промежуткам
Продолжительность промежутка : 36 мс. (0,90 видеокадр)
Время предзагрузки промежутка : 463 мс.
Библиотека кодирования : LAME3.98r
Настройки программы : -m j -V 4 -q 2 -lowpass 15.1 --abr 96
Скриншоты:


Время раздачи: С 10:00 до 23:00
[NNM-Club.me]_CHto takoe horosho i chto takoe ploho (1975) TVRip.torrent
 Торрент: Платиновая раздача  Зарегистрирован
 
Скачать


Примагнититься
 Зарегистрирован:   25 Окт 2013 22:17:10
 Размер:   479 MB  (
 Рейтинг:   4,6 (Голосов: 77)
 Поблагодарили:   258
 Проверка:   Оформление проверено модератором 26 Окт 2013 00:28:41
Как cкачать  ·  Как раздать  ·  Правильно оформить  ·  Поднять ратио!  
Показать сообщения:   
Начать новую тему   Ответить на тему    Торрент-трекер NNM-Club -> Видео -> Отечественные Фильмы для детей Часовой пояс: GMT + 3
Страница 1 из 1