Классический форум-трекер
canvas not supported
Нас вместе: 4 093 643

ZZ Top - Afterburner (1985) [FLAC 2.0 24/192|tracks (Vinyl-Rip)]<Blues Rock, Boogie Rock>


 
 
RSS
Начать новую тему   Ответить на тему    Торрент-трекер NNM-Club -> HD Audio и Многоканальная Музыка -> Vinyl-Rip и Hand-Made
Автор Сообщение
poseydonbond ®
Стаж: 9 лет 4 мес.
Сообщений: 1834
Ratio: 1882,506
Раздал: 49,26 TB
Поблагодарили: 41525
100%
Откуда: Владимир Конкретно: Доброе
pirates.png
ZZ Top - Afterburner (1985)
Год: 1985
Жанр: Blues Rock, Boogie Rock
Продолжительность: 00:37:36
Лейбл: Warner Bros Records (925 342-1)
Формат: Vinyl, LP, Album
Страна: Germany Press
Сканы: Full
Автор оцифровки: Titura

Кодек: FLAC 2.0
Формат записи: 32/192
Формат раздачи: 24/192
Тип рипа: tracks

Треклист:
A1. Sleeping Bag [4:07]
A2. Stages [3:35]
A3. Woke Up With Wood [3:50]
A4. Rough Boy [4:52]
A5. Can't Stop Rockin' [3:03]
B1. Planet Of Women [4:07]
B2. I Got The Message [3:30]
B3. Velcro Fly [3:33]
B4. Dipping Low (In The Lap Of Luxury) [3:15]
B5. Delirious [3:44]


Код: выделить все

General
Complete name                            : D:\ZZ Top\ZZ Top - 1985 - Afterburner (Germany Warner Bros. 925 342-1)\01 - Sleeping Bag.flac
Format                                   : FLAC
Format/Info                              : Free Lossless Audio Codec
File size                                : 159 MiB
Duration                                 : 4mn 6s
Overall bit rate mode                    : Variable
Overall bit rate                         : 5 391 Kbps
Album                                    : Afterburner
Track name                               : Sleeping Bag
Track name/Position                      : 01
Track name/Total                         : 10
Performer                                : ZZ Top
Producer                                 : Warner Bros. Records / Warner Bros. Records
Genre                                    : Rock / Pop
Recorded date                            : 1985
DISCOGS_ARTIST_LINK                      : ZZ%20Top
DISCOGS_CATALOG                          : 925 342-1 / WX 27
DISCOGS_COUNTRY                          : UK & Europe
DISCOGS_LABEL_LINK                       : Warner%20Bros.%20Records
DISCOGS_ORIGINAL_TRACK_NUMBER            : 01
DISCOGS_RELEASE_ID                       : 1491291
DISCOGS_RELEASE_MONTH                    : 10
DISCOGS_RELEASED                         : 28 Oct 1985
STYLE                                    : Blues Rock / Pop Rock

Audio
Format                                   : FLAC
Format/Info                              : Free Lossless Audio Codec
Duration                                 : 4mn 6s
Bit rate mode                            : Variable
Bit rate                                 : 5 391 Kbps
Channel(s)                               : 2 channels
Sampling rate                            : 192 KHz
Bit depth                                : 24 bits
Stream size                              : 159 MiB (100%)
Writing library                          : libFLAC 1.2.1 (UTC 2007-09-17)

General
Complete name                            : D:\ZZ Top\ZZ Top - 1985 - Afterburner (Germany Warner Bros. 925 342-1)\02 - Stages.flac
Format                                   : FLAC
Format/Info                              : Free Lossless Audio Codec
File size                                : 141 MiB
Duration                                 : 3mn 35s
Overall bit rate mode                    : Variable
Overall bit rate                         : 5 518 Kbps
Album                                    : Afterburner
Track name                               : Stages
Track name/Position                      : 02
Track name/Total                         : 10
Performer                                : ZZ Top
Producer                                 : Warner Bros. Records / Warner Bros. Records
Genre                                    : Rock / Pop
Recorded date                            : 1985
DISCOGS_ARTIST_LINK                      : ZZ%20Top
DISCOGS_CATALOG                          : 925 342-1 / WX 27
DISCOGS_COUNTRY                          : UK & Europe
DISCOGS_LABEL_LINK                       : Warner%20Bros.%20Records
DISCOGS_ORIGINAL_TRACK_NUMBER            : 02
DISCOGS_RELEASE_ID                       : 1491291
DISCOGS_RELEASE_MONTH                    : 10
DISCOGS_RELEASED                         : 28 Oct 1985
STYLE                                    : Blues Rock / Pop Rock

Audio
Format                                   : FLAC
Format/Info                              : Free Lossless Audio Codec
Duration                                 : 3mn 35s
Bit rate mode                            : Variable
Bit rate                                 : 5 518 Kbps
Channel(s)                               : 2 channels
Sampling rate                            : 192 KHz
Bit depth                                : 24 bits
Stream size                              : 141 MiB (100%)
Writing library                          : libFLAC 1.2.1 (UTC 2007-09-17)

General
Complete name                            : D:\ZZ Top\ZZ Top - 1985 - Afterburner (Germany Warner Bros. 925 342-1)\03 - Woke Up With Wood.flac
Format                                   : FLAC
Format/Info                              : Free Lossless Audio Codec
File size                                : 151 MiB
Duration                                 : 3mn 49s
Overall bit rate mode                    : Variable
Overall bit rate                         : 5 520 Kbps
Album                                    : Afterburner
Track name                               : Woke Up With Wood
Track name/Position                      : 03
Track name/Total                         : 10
Performer                                : ZZ Top
Producer                                 : Warner Bros. Records / Warner Bros. Records
Genre                                    : Rock / Pop
Recorded date                            : 1985
DISCOGS_ARTIST_LINK                      : ZZ%20Top
DISCOGS_CATALOG                          : 925 342-1 / WX 27
DISCOGS_COUNTRY                          : UK & Europe
DISCOGS_LABEL_LINK                       : Warner%20Bros.%20Records
DISCOGS_ORIGINAL_TRACK_NUMBER            : 03
DISCOGS_RELEASE_ID                       : 1491291
DISCOGS_RELEASE_MONTH                    : 10
DISCOGS_RELEASED                         : 28 Oct 1985
STYLE                                    : Blues Rock / Pop Rock

Audio
Format                                   : FLAC
Format/Info                              : Free Lossless Audio Codec
Duration                                 : 3mn 49s
Bit rate mode                            : Variable
Bit rate                                 : 5 520 Kbps
Channel(s)                               : 2 channels
Sampling rate                            : 192 KHz
Bit depth                                : 24 bits
Stream size                              : 151 MiB (100%)
Writing library                          : libFLAC 1.2.1 (UTC 2007-09-17)

General
Complete name                            : D:\ZZ Top\ZZ Top - 1985 - Afterburner (Germany Warner Bros. 925 342-1)\04 - Rough Boy.flac
Format                                   : FLAC
Format/Info                              : Free Lossless Audio Codec
File size                                : 182 MiB
Duration                                 : 4mn 52s
Overall bit rate mode                    : Variable
Overall bit rate                         : 5 221 Kbps
Album                                    : Afterburner
Track name                               : Rough Boy
Track name/Position                      : 04
Track name/Total                         : 10
Performer                                : ZZ Top
Producer                                 : Warner Bros. Records / Warner Bros. Records
Genre                                    : Rock / Pop
Recorded date                            : 1985
DISCOGS_ARTIST_LINK                      : ZZ%20Top
DISCOGS_CATALOG                          : 925 342-1 / WX 27
DISCOGS_COUNTRY                          : UK & Europe
DISCOGS_LABEL_LINK                       : Warner%20Bros.%20Records
DISCOGS_ORIGINAL_TRACK_NUMBER            : 04
DISCOGS_RELEASE_ID                       : 1491291
DISCOGS_RELEASE_MONTH                    : 10
DISCOGS_RELEASED                         : 28 Oct 1985
STYLE                                    : Blues Rock / Pop Rock

Audio
Format                                   : FLAC
Format/Info                              : Free Lossless Audio Codec
Duration                                 : 4mn 52s
Bit rate mode                            : Variable
Bit rate                                 : 5 221 Kbps
Channel(s)                               : 2 channels
Sampling rate                            : 192 KHz
Bit depth                                : 24 bits
Stream size                              : 182 MiB (100%)
Writing library                          : libFLAC 1.2.1 (UTC 2007-09-17)

General
Complete name                            : D:\ZZ Top\ZZ Top - 1985 - Afterburner (Germany Warner Bros. 925 342-1)\05 - Can't Stop Rockin'.flac
Format                                   : FLAC
Format/Info                              : Free Lossless Audio Codec
File size                                : 124 MiB
Duration                                 : 3mn 3s
Overall bit rate mode                    : Variable
Overall bit rate                         : 5 688 Kbps
Album                                    : Afterburner
Track name                               : Can't Stop Rockin'
Track name/Position                      : 05
Track name/Total                         : 10
Performer                                : ZZ Top
Producer                                 : Warner Bros. Records / Warner Bros. Records
Genre                                    : Rock / Pop
Recorded date                            : 1985
DISCOGS_ARTIST_LINK                      : ZZ%20Top
DISCOGS_CATALOG                          : 925 342-1 / WX 27
DISCOGS_COUNTRY                          : UK & Europe
DISCOGS_LABEL_LINK                       : Warner%20Bros.%20Records
DISCOGS_ORIGINAL_TRACK_NUMBER            : 05
DISCOGS_RELEASE_ID                       : 1491291
DISCOGS_RELEASE_MONTH                    : 10
DISCOGS_RELEASED                         : 28 Oct 1985
STYLE                                    : Blues Rock / Pop Rock

Audio
Format                                   : FLAC
Format/Info                              : Free Lossless Audio Codec
Duration                                 : 3mn 3s
Bit rate mode                            : Variable
Bit rate                                 : 5 688 Kbps
Channel(s)                               : 2 channels
Sampling rate                            : 192 KHz
Bit depth                                : 24 bits
Stream size                              : 124 MiB (100%)
Writing library                          : libFLAC 1.2.1 (UTC 2007-09-17)

General
Complete name                            : D:\ZZ Top\ZZ Top - 1985 - Afterburner (Germany Warner Bros. 925 342-1)\06 - Planet Of Women.flac
Format                                   : FLAC
Format/Info                              : Free Lossless Audio Codec
File size                                : 163 MiB
Duration                                 : 4mn 6s
Overall bit rate mode                    : Variable
Overall bit rate                         : 5 542 Kbps
Album                                    : Afterburner
Track name                               : Planet Of Women
Track name/Position                      : 06
Track name/Total                         : 10
Performer                                : ZZ Top
Producer                                 : Warner Bros. Records / Warner Bros. Records
Genre                                    : Rock / Pop
Recorded date                            : 1985
DISCOGS_ARTIST_LINK                      : ZZ%20Top
DISCOGS_CATALOG                          : 925 342-1 / WX 27
DISCOGS_COUNTRY                          : UK & Europe
DISCOGS_LABEL_LINK                       : Warner%20Bros.%20Records
DISCOGS_ORIGINAL_TRACK_NUMBER            : 06
DISCOGS_RELEASE_ID                       : 1491291
DISCOGS_RELEASE_MONTH                    : 10
DISCOGS_RELEASED                         : 28 Oct 1985
STYLE                                    : Blues Rock / Pop Rock

Audio
Format                                   : FLAC
Format/Info                              : Free Lossless Audio Codec
Duration                                 : 4mn 6s
Bit rate mode                            : Variable
Bit rate                                 : 5 542 Kbps
Channel(s)                               : 2 channels
Sampling rate                            : 192 KHz
Bit depth                                : 24 bits
Stream size                              : 163 MiB (100%)
Writing library                          : libFLAC 1.2.1 (UTC 2007-09-17)

General
Complete name                            : D:\ZZ Top\ZZ Top - 1985 - Afterburner (Germany Warner Bros. 925 342-1)\07 - I Got The Message.flac
Format                                   : FLAC
Format/Info                              : Free Lossless Audio Codec
File size                                : 137 MiB
Duration                                 : 3mn 30s
Overall bit rate mode                    : Variable
Overall bit rate                         : 5 471 Kbps
Album                                    : Afterburner
Track name                               : I Got The Message
Track name/Position                      : 07
Track name/Total                         : 10
Performer                                : ZZ Top
Producer                                 : Warner Bros. Records / Warner Bros. Records
Genre                                    : Rock / Pop
Recorded date                            : 1985
DISCOGS_ARTIST_LINK                      : ZZ%20Top
DISCOGS_CATALOG                          : 925 342-1 / WX 27
DISCOGS_COUNTRY                          : UK & Europe
DISCOGS_LABEL_LINK                       : Warner%20Bros.%20Records
DISCOGS_ORIGINAL_TRACK_NUMBER            : 07
DISCOGS_RELEASE_ID                       : 1491291
DISCOGS_RELEASE_MONTH                    : 10
DISCOGS_RELEASED                         : 28 Oct 1985
STYLE                                    : Blues Rock / Pop Rock

Audio
Format                                   : FLAC
Format/Info                              : Free Lossless Audio Codec
Duration                                 : 3mn 30s
Bit rate mode                            : Variable
Bit rate                                 : 5 471 Kbps
Channel(s)                               : 2 channels
Sampling rate                            : 192 KHz
Bit depth                                : 24 bits
Stream size                              : 137 MiB (100%)
Writing library                          : libFLAC 1.2.1 (UTC 2007-09-17)

General
Complete name                            : D:\ZZ Top\ZZ Top - 1985 - Afterburner (Germany Warner Bros. 925 342-1)\08 - Velcro Fly.flac
Format                                   : FLAC
Format/Info                              : Free Lossless Audio Codec
File size                                : 140 MiB
Duration                                 : 3mn 32s
Overall bit rate mode                    : Variable
Overall bit rate                         : 5 516 Kbps
Album                                    : Afterburner
Track name                               : Velcro Fly
Track name/Position                      : 08
Track name/Total                         : 10
Performer                                : ZZ Top
Producer                                 : Warner Bros. Records / Warner Bros. Records
Genre                                    : Rock / Pop
Recorded date                            : 1985
DISCOGS_ARTIST_LINK                      : ZZ%20Top
DISCOGS_CATALOG                          : 925 342-1 / WX 27
DISCOGS_COUNTRY                          : UK & Europe
DISCOGS_LABEL_LINK                       : Warner%20Bros.%20Records
DISCOGS_ORIGINAL_TRACK_NUMBER            : 08
DISCOGS_RELEASE_ID                       : 1491291
DISCOGS_RELEASE_MONTH                    : 10
DISCOGS_RELEASED                         : 28 Oct 1985
STYLE                                    : Blues Rock / Pop Rock

Audio
Format                                   : FLAC
Format/Info                              : Free Lossless Audio Codec
Duration                                 : 3mn 32s
Bit rate mode                            : Variable
Bit rate                                 : 5 516 Kbps
Channel(s)                               : 2 channels
Sampling rate                            : 192 KHz
Bit depth                                : 24 bits
Stream size                              : 140 MiB (100%)
Writing library                          : libFLAC 1.2.1 (UTC 2007-09-17)

General
Complete name                            : D:\ZZ Top\ZZ Top - 1985 - Afterburner (Germany Warner Bros. 925 342-1)\09 - Dipping Low (In The Lap Of Luxury).flac
Format                                   : FLAC
Format/Info                              : Free Lossless Audio Codec
File size                                : 129 MiB
Duration                                 : 3mn 15s
Overall bit rate mode                    : Variable
Overall bit rate                         : 5 553 Kbps
Album                                    : Afterburner
Track name                               : Dipping Low (In The Lap Of Luxury)
Track name/Position                      : 09
Track name/Total                         : 10
Performer                                : ZZ Top
Producer                                 : Warner Bros. Records / Warner Bros. Records
Genre                                    : Rock / Pop
Recorded date                            : 1985
DISCOGS_ARTIST_LINK                      : ZZ%20Top
DISCOGS_CATALOG                          : 925 342-1 / WX 27
DISCOGS_COUNTRY                          : UK & Europe
DISCOGS_LABEL_LINK                       : Warner%20Bros.%20Records
DISCOGS_ORIGINAL_TRACK_NUMBER            : 09
DISCOGS_RELEASE_ID                       : 1491291
DISCOGS_RELEASE_MONTH                    : 10
DISCOGS_RELEASED                         : 28 Oct 1985
STYLE                                    : Blues Rock / Pop Rock

Audio
Format                                   : FLAC
Format/Info                              : Free Lossless Audio Codec
Duration                                 : 3mn 15s
Bit rate mode                            : Variable
Bit rate                                 : 5 553 Kbps
Channel(s)                               : 2 channels
Sampling rate                            : 192 KHz
Bit depth                                : 24 bits
Stream size                              : 129 MiB (100%)
Writing library                          : libFLAC 1.2.1 (UTC 2007-09-17)

General
Complete name                            : D:\ZZ Top\ZZ Top - 1985 - Afterburner (Germany Warner Bros. 925 342-1)\10 - Delirious.flac
Format                                   : FLAC
Format/Info                              : Free Lossless Audio Codec
File size                                : 154 MiB
Duration                                 : 3mn 43s
Overall bit rate mode                    : Variable
Overall bit rate                         : 5 760 Kbps
Album                                    : Afterburner
Track name                               : Delirious
Track name/Position                      : 10
Track name/Total                         : 10
Performer                                : ZZ Top
Producer                                 : Warner Bros. Records / Warner Bros. Records
Genre                                    : Rock / Pop
Recorded date                            : 1985
DISCOGS_ARTIST_LINK                      : ZZ%20Top
DISCOGS_CATALOG                          : 925 342-1 / WX 27
DISCOGS_COUNTRY                          : UK & Europe
DISCOGS_LABEL_LINK                       : Warner%20Bros.%20Records
DISCOGS_ORIGINAL_TRACK_NUMBER            : 10
DISCOGS_RELEASE_ID                       : 1491291
DISCOGS_RELEASE_MONTH                    : 10
DISCOGS_RELEASED                         : 28 Oct 1985
STYLE                                    : Blues Rock / Pop Rock

Audio
Format                                   : FLAC
Format/Info                              : Free Lossless Audio Codec
Duration                                 : 3mn 43s
Bit rate mode                            : Variable
Bit rate                                 : 5 760 Kbps
Channel(s)                               : 2 channels
Sampling rate                            : 192 KHz
Bit depth                                : 24 bits
Stream size                              : 154 MiB (100%)
Writing library                          : libFLAC 1.2.1 (UTC 2007-09-17)
Код: выделить все

foobar2000 1.2.6 / Dynamic Range Meter 1.1.1
log date: 2013-11-03 20:50:53

--------------------------------------------------------------------------------
Analyzed: ZZ Top / Afterburner
--------------------------------------------------------------------------------

DR         Peak         RMS     Duration Track
--------------------------------------------------------------------------------
DR15      -0.40 dB   -16.82 dB      4:07 01-Sleeping Bag
DR13      -1.02 dB   -16.11 dB      3:35 02-Stages
DR13      -1.24 dB   -17.03 dB      3:50 03-Woke Up With Wood
DR13      -3.84 dB   -18.85 dB      4:52 04-Rough Boy
DR14      -0.54 dB   -16.19 dB      3:03 05-Can't Stop Rockin'
DR13      -0.63 dB   -15.18 dB      4:07 06-Planet Of Women
DR14       0.00 dB   -15.81 dB      3:30 07-I Got The Message
DR14      -1.11 dB   -16.61 dB      3:33 08-Velcro Fly
DR14      -0.17 dB   -15.89 dB      3:15 09-Dipping Low (In The Lap Of Luxury)
DR14      -1.07 dB   -15.84 dB      3:44 10-Delirious
--------------------------------------------------------------------------------

Number of tracks:  10
Official DR value: DR14

Samplerate:        192000 Hz
Channels:          2
Bits per sample:   24
Bitrate:           5760 kbps
Codec:             FLAC
================================================================================
Код класса состояния винила: Mint
Устройство воспроизведения: Kenwood KD 770D
Головка звукоснимателя: AT 150 MLX
Предварительный усилитель: Creek OBH-8SE
АЦП: E-MU 0404 USB
Программа-оцифровщик: Adobe Audition 3.0
Обработка: Подчищены клики в паузах

Время раздачи: Круглосуточно (до первых сидов, далее по возможности)
[NNM-Club.me]_ZZ Top - 1985 - Afterburner (Germany Warner Bros. 925 342-1).torrent
 Торрент: Платиновая раздача  Зарегистрирован
 
Скачать


Примагнититься
 Зарегистрирован:   22 Янв 2020 15:38:48
 Размер:   1,45 GB  (
 Рейтинг:   5 (Голосов: 42)
 Поблагодарили:   191
 Проверка:   Оформление проверено модератором 22 Янв 2020 15:39:23
Как cкачать  ·  Как раздать  ·  Правильно оформить  ·  Поднять ратио!  
NorthOn
 
Админ
Стаж: 13 лет 6 мес.
Сообщений: 13307
Ratio: 1096,308
Поблагодарили: 14451
100%
nnm-club.gif
Торрент обновлен в рамках акции Включаем DHT в древних раздачах
Теперь вам нужно его скачать и открыть в торрент-клиенте, указав в качестве места сохранения раздаваемый файл или папку.

_________________
Либо я найду путь, либо проложу его...
MARCUS800
Стаж: 4 года 11 мес.
Сообщений: 485
Ratio: 1,121
100%
ukraine.gif
:клево: Спасибо огромное! Качество Супер!
Показать сообщения:   
Начать новую тему   Ответить на тему    Торрент-трекер NNM-Club -> HD Audio и Многоканальная Музыка -> Vinyl-Rip и Hand-Made Часовой пояс: GMT + 3
Страница 1 из 1