Классический форум-трекер
canvas not supported
Нас вместе: 4 076 722

Геном неандертальцев / Decoding Neanderthals (2013) HDTVRip [720p]


 
 
RSS
Начать новую тему   Ответить на тему    Торрент-трекер NNM-Club -> Зарубежные TV-бренды -> Доисторический мир
Автор Сообщение
Crong ®
Стаж: 9 лет 8 мес.
Сообщений: 313
Ratio: 36,864
Поблагодарили: 848
100%
Геном неандертальцев / Decoding Neanderthals (2013) HDTVRip [720p]
Режиссер: Ник Кларк Пауэлл (Nick Clarke Powell)
Год выпуска: 2013
Жанр: Документальный
Выпущено: США, WGBH Educational Foundation, NOVA

Описание: Сложившиеся представления о неандертальцах как о диких обитателях пещер - ошибочны. Последние открытия в археологии и генетике по-новому раскрывают традиционный образ неандертальца. Специалисты расшифровали геном неандертальца и установили, что он являлся важным инструментом выживания современных людей.


Участники: Фредерик Кулидж (Frederick Coolidge), Мэтин Эрен (Metin Eren), Эд Грин (Ed Green)

Продолжительность: 00:52:09
Качество видео: HDTVRip 720p

Перевод: Двухголосый закадровый, профессиональный

Видеокодек: Xvid
Битрейт видео: ~3628 Кбит/с
Размер кадра: 1280x720
Аудиокодек: AC3 2.0
Битрейт аудио: 192 Кбит/с
Аудио#1: Russian, AC3 2.0, 48 кГц, 192 Кбит/с
Аудио#2: English, AC3 2.0, 48 кГц, 192 Кбит/с

Семпл: Скачать
General
Unique ID : 196975809780784916957899538586286180354 (0x94302939C3D653D9919641178EAC4802)
Complete name : ...\PBS.Nova.Decoding.Neanderthals.2013.HDTVRip.720p.mkv
Format : Matroska
Format version : Version 4 / Version 2
File size : 1.49 GiB
Duration : 52mn 9s
Overall bit rate : 4 093 Kbps
Encoded date : UTC 2013-11-07 16:37:39
Writing application : mkvmerge v6.5.0 ('Isn't she lovely') built on Oct 20 2013 12:50:05
Writing library : libebml v1.3.0 + libmatroska v1.4.1
Video #1
ID : 1
Format : xvid
Codec ID : V_MS/VFW/FOURCC / xvid
Duration : 52mn 9s
Bit rate : 3 628 Kbps
Width : 1 280 pixels
Height : 720 pixels
Display aspect ratio : 16:9
Frame rate mode : Constant
Frame rate : 29.970 fps
Bits/(Pixel*Frame) : 0.131
Stream size : 1.32 GiB (89%)
Default : Yes
Forced : No
Audio #2
ID : 2
Format : AC-3
Format/Info : Audio Coding 3
Mode extension : CM (complete main)
Format settings, Endianness : Big
Codec ID : A_AC3
Duration : 52mn 9s
Bit rate mode : Constant
Bit rate : 192 Kbps
Channel count : 2 channels
Channel positions : Front: L R
Sampling rate : 48.0 KHz
Bit depth : 16 bits
Compression mode : Lossy
Stream size : 71.6 MiB (5%)
Title : Rassian
Language : Russian
Default : Yes
Forced : No
Audio #3
ID : 3
Format : AC-3
Format/Info : Audio Coding 3
Mode extension : CM (complete main)
Format settings, Endianness : Big
Codec ID : A_AC3
Duration : 52mn 9s
Bit rate mode : Constant
Bit rate : 192 Kbps
Channel count : 2 channels
Channel positions : Front: L R
Sampling rate : 48.0 KHz
Bit depth : 16 bits
Compression mode : Lossy
Stream size : 71.6 MiB (5%)
Title : English
Language : English
Default : No
Forced : No
Скриншоты:




Время раздачи: с 00:00 до 10:00

Ссылка на другие раздачи "Геном неандертальцев / Decoding Neanderthals" на NoNaMe Club
[NNM-Club.me]_PBS.Nova.Decoding.Neanderthals.2013.HDTVRip.720p.mkv.torrent
 Торрент: Платиновая раздача  Зарегистрирован
 
Скачать


Примагнититься
 Зарегистрирован:   08 Ноя 2013 01:02:01
 Размер:   1,49 GB  (
 Рейтинг:   4,8 (Голосов: 34)
 Поблагодарили:   153
 Проверка:   Оформление проверено модератором 09 Ноя 2013 22:35:05
Как cкачать  ·  Как раздать  ·  Правильно оформить  ·  Поднять ратио!  
k_rik
Стаж: 9 лет 2 мес.
Сообщений: 1368
Ratio: 13,867
Поблагодарили: 17152
100%
pirates.png
На постере походу Шварц в Конане, только подфотошопленный )
Показать сообщения:   
Начать новую тему   Ответить на тему    Торрент-трекер NNM-Club -> Зарубежные TV-бренды -> Доисторический мир Часовой пояс: GMT + 3
Страница 1 из 1