Классический форум-трекер
canvas not supported
Нас вместе: 4 079 141

Симпсоны / The Simpsons [Season 14, Series 1-22 (22)] (2002) 720p BDRip


 
 
RSS
Начать новую тему   Ответить на тему    Торрент-трекер NNM-Club -> Мультфильмы -> Зарубежные Мультсериалы
Автор Сообщение
matthew_2006 ®
Стаж: 10 лет
Сообщений: 21
Ratio: 295,599
Поблагодарили: 899
100%
russia.gif
Симпсоны / The Simpsons [Season 14]
Год выпуска: 2002
Жанр: Комедия, Рисованная анимация, Для взрослых

Язык: английский, русский

Описание:
Симпсоны — самый длинный мультсериал в истории американского телевидения, состоящий из 534 серий в 25 сезонах. Мультисериал в настоящее время знаком телезрителям более чем 100 стран. Это насыщенное сатирой (в том числе социальной) шоу высмеивает многие клише и стереотипы, в частности — стиль жизни «среднестатистического американца», особенности мировых культур в целом, знаменитостей и даже само телевидение и телеканал «Fox»; не стесняется затрагивать такие скользкие вопросы, как политика и религия: в частности, поднимались темы однополых браков, борьбы дарвинистов и креационистов, войны в Ираке. Журнал Time в 1998 году назвал «Симпсонов» лучшим телевизионным сериалом XX века.

Режиссер: Мэтт Гроунинг
Персонажи: Гомер Симпсон, Мардж Симпсон, Барт Симпсон, Лиза Симпсон, Мэгги Симпсон

Продолжительность: ~ 22 мин. серия
Качество видео: BDRip
Перевод: Двухголосый закадровый
Автор перевода: REN-TV
Язык субтитров: английский, русский
Вид субтитров: Вшитые, отключаемые

Видеокодек: MPEG-4 AVC/H.264
Битрейт видео: ~4033 kbps
Размер кадра: 960x720 at 23.976 fps
Аудиокодек: AC3
Битрейт Aудио#1: AC-3; 48 кГц; ~192.00 kbps; 2.0 ch (Русский)
Битрейт Aудио#2: DTS; 48.0 кГц; ~1510.00 kbps; 5.1 ch (Английский)
General
Complete name : The.Simpsons.S14.720p.BDRip.Rus.Eng\The.Simpsons.S14E01.720p.BDRip.Rus.Eng.mkv
Format : Matroska
Format version : Version 2
File size : 926 MiB
Duration : 22mn 35s
Overall bit rate : 5 733 Kbps
Movie name : The Simpsons [S14E01] Treehouse of Horror XIII
Encoded date : UTC 2011-12-06 15:38:31
Writing application : mkvmerge v5.1.0 ('And so it goes') built on Nov 28 2011 23:58:28
Writing library : libebml v1.2.3 + libmatroska v1.3.0

Video
ID : 1
Format : AVC
Format/Info : Advanced Video Codec
Format profile : High@L4.1
Format settings, CABAC : Yes
Format settings, ReFrames : 5 frames
Codec ID : V_MPEG4/ISO/AVC
Duration : 22mn 35s
Bit rate : 4 033 Kbps
Width : 960 pixels
Height : 720 pixels
Display aspect ratio : 4:3
Frame rate : 23.976 fps
Color space : YUV
Chroma subsampling : 4:2:0
Bit depth : 8 bits
Scan type : Progressive
Bits/(Pixel*Frame) : 0.243
Stream size : 633 MiB (68%)
Title : S14E01
Writing library : x264 core 119 r2106 07efeb4
Encoding settings : cabac=1 / ref=5 / deblock=1:0:0 / analyse=0x3:0x133 / me=umh / subme=7 / psy=1 / psy_rd=1.00:0.00 / mixed_ref=1 / me_range=16 / chroma_me=1 / trellis=1 / 8x8dct=1 / cqm=0 / deadzone=21,11 / fast_pskip=0 / chroma_qp_offset=-2 / threads=12 / sliced_threads=0 / nr=0 / decimate=1 / interlaced=0 / bluray_compat=0 / constrained_intra=0 / bframes=3 / b_pyramid=2 / b_adapt=2 / b_bias=0 / direct=1 / weightb=1 / open_gop=0 / weightp=2 / keyint=250 / keyint_min=23 / scenecut=40 / intra_refresh=0 / rc_lookahead=40 / rc=2pass / mbtree=1 / bitrate=4033 / ratetol=1.0 / qcomp=0.60 / qpmin=0 / qpmax=69 / qpstep=4 / cplxblur=20.0 / qblur=0.5 / ip_ratio=1.40 / aq=1:1.00
Language : English

Audio #1
ID : 2
Format : AC-3
Format/Info : Audio Coding 3
Mode extension : CM (complete main)
Codec ID : A_AC3
Duration : 22mn 35s
Bit rate mode : Constant
Bit rate : 192 Kbps
Channel(s) : 2 channels
Channel positions : Front: L R
Sampling rate : 48.0 KHz
Bit depth : 16 bits
Compression mode : Lossy
Stream size : 31.0 MiB (3%)
Title : RUS
Language : Russian

Audio #2
ID : 3
Format : DTS
Format/Info : Digital Theater Systems
Codec ID : A_DTS
Duration : 22mn 35s
Bit rate mode : Constant
Bit rate : 1 510 Kbps
Channel(s) : 6 channels
Channel positions : Front: L C R, Side: L R, LFE
Sampling rate : 48.0 KHz
Bit depth : 24 bits
Compression mode : Lossy
Stream size : 244 MiB (26%)
Title : ENG
Language : English

Text #1
ID : 4
Format : UTF-8
Codec ID : S_TEXT/UTF8
Codec ID/Info : UTF-8 Plain Text
Title : RUS
Language : Russian

Text #2
ID : 5
Format : UTF-8
Codec ID : S_TEXT/UTF8
Codec ID/Info : UTF-8 Plain Text
Title : ENG
Language : English
01 - Treehouse of Horror XIII
02 - How I Spent My Strummer Vacation
03 - Bart vs. Lisa vs. the Third Grade
04 - Large Marge
05 - Helter Shelter
06 - The Great Louse Detective
07 - Special Edna
08 - The Dad Who Knew Too Little
09 - Strong Arms of the Ma
10 - Pray Anything
11 - Barting Over
12 - I'm Spelling as Fast as I Can
13 - A Star Is Born-Again
14 - Mr. Spritz Goes to Washington
15 - C.E. D'oh
16 - Scuse Me While I Miss the Sky
17 - Three Gays of the Condo
18 - Dude, Where's My Ranch?
19 - Old Yeller Belly
20 - Brake My Wife, Please
21 - The Bart of War
22 - Moe Baby Blues
Скриншоты:


Время раздачи: до первых 3-х сидов

Симпсоны / The Simpsons [Season 14] на NNM-club
[NNM-Club.me]_Simpsons - 14 Sezon.torrent
 Торрент: Платиновая раздача  Зарегистрирован
 
Скачать


Примагнититься
 Зарегистрирован:   14 Ноя 2013 09:47:08
 Размер:   19,9 GB  (
 Рейтинг:   4,8 (Голосов: 18)
 Поблагодарили:   60
 Проверка:   Оформление проверено модератором 16 Ноя 2013 11:31:03
Как cкачать  ·  Как раздать  ·  Правильно оформить  ·  Поднять ратио!  
Загрузка...
Bugman
RG Всё лучшее - детям!
Модератор детского Видео
 
Стаж: 7 лет 2 мес.
Сообщений: 1188
Ratio: 137,915
Поблагодарили: 48770
100%
Профессиональный (двухголосый, закадровый) REN-TV
Ошибка в описании.
Показать сообщения:   
Начать новую тему   Ответить на тему    Торрент-трекер NNM-Club -> Мультфильмы -> Зарубежные Мультсериалы Часовой пояс: GMT + 3
Страница 1 из 1