Классический форум-трекер
canvas not supported
Нас вместе: 4 079 234

Месть ниндзя / Revenge of the Ninja (1983) BDRip [H.264/1080р-LQ] [Hi10P]


 
 
RSS
Начать новую тему   Ответить на тему    Торрент-трекер NNM-Club -> Классика кино и Старые фильмы до 90-х -> Старые Зарубежные Фильмы (HD*Rip/LQ, DVDRip, SATRip, VHSRip)
Автор Сообщение
School_Boy ®
Стаж: 8 лет 5 мес.
Сообщений: 667
Ratio: 37,509
Раздал: 17,08 TB
Поблагодарили: 62027
100%
Месть ниндзя / Revenge of the Ninja (1983) BDRip [H.264/1080р-LQ] [Hi10P]
«400 years of training in the art of sudden death... unleashed on 20th century America»

Год выпуска: 1983
Производство: США
Жанр: Боевик, Драма
Перевод: Многоголосый закадровый (ТВ3), Авторский (Алексей Михалев), Оригинал
Субтитры: Отсутствуют

Режиссер: Сэм Фёрстенберг
Актеры: Сё Косуги, Кит Витали, Вёрджил Фрай, Артур Робертс, Марио Галло, Грэйс Осита, Эшли Ферраре, Кейн Косуги, Джон ЛаМотта, Мэл Хэмптон

Описание фильма:
Мастер искуства ниндзютцу Чо по прозвищу Черный ниндзя вместе с сыном переезжает в США и начинает новую жизнь на чужбине, после того как в Японии группа ниндзя убивает почти всех членов его семьи.

Чо открывает магазин игрушек, не подозревая, что его нечистый на руку партнер провозит контрабандой героин, набивая им кукол. Осознание того, что партнер и друг предал его, становится последней каплей в чаше терпения Черного ниндзя.

Рейтинг R - Детям до 17 лет обязательно присутствие родителей!
Дата мировой премьеры: 7 сентября 1983
Продолжительность: 01:30:03
Качество видео: BDRip 1080p

Видеокодек: MPEG4-AVC/H.264
Битрейт видео: 6565 kbps
Размер кадра: 1920x1040
Аудио #1: AC3, 2.0, 48,0 КГц, 192 kbps | MVO [ТВ3] [Русский]
Аудио #2: AC3, 2.0, 48,0 КГц, 192 kbps | Авторский [Алексей Михалев] [Русский]
Дополнительно: *Сохранены оригинальные чаптеры как на Blu Ray
Код: выделить все

Формат                                   : Matroska
Версия формата                           : Version 2
Размер файла                             : 4,37 Гбайт
Продолжительность                        : 1 ч. 30 м.
Общий поток                              : 6949 Кбит/сек
Дата кодирования                         : UTC 2012-07-24 11:18:38
Программа кодирования                    : mkvmerge v5.7.0 ('The Whirlwind') built on Jul  8 2012 20:08:51
Библиотека кодирования                   : libebml v1.2.3 + libmatroska v1.3.0

Видео
Идентификатор                            : 1
Формат                                   : AVC
Формат/Информация                        : Advanced Video Codec
Профиль формата                          : High 10@L5.1
Параметр CABAC формата                   : Да
Параметр ReFrames формата                : 16 кадров
Идентификатор кодека                     : V_MPEG4/ISO/AVC
Продолжительность                        : 1 ч. 30 м.
Битрейт                                  : 6565 Кбит/сек
Ширина                                   : 1920 пикселей
Высота                                   : 1040 пикселей
Соотношение сторон                       : 1,85:1
Режим частоты кадров                     : Постоянный
Частота кадров                           : 23,976 кадра/сек
Цветовое пространство                    : YUV
Субдискретизация насыщенности            : 4:2:0
Битовая глубина                          : 10 бит
Тип развёртки                            : Прогрессивная
Бит/(Пиксели*Кадры)                      : 0.137
Размер потока                            : 4,04 Гбайт (92%)
Библиотека кодирования                   : x264 core 125 r2208+677+32 26f090e tMod [10-bit@all X86_64]
Настройки программы                      : cabac=1 / ref=16 / deblock=1:-3:-2 / analyse=0x3:0x133 / me=umh / subme=11 / psy=1 / fade_compensate=0.00 / psy_rd=1.15:0.30 / mixed_ref=1 / me_range=64 / chroma_me=1 / trellis=2 / 8x8dct=1 / cqm=0 / deadzone=21,11 / fast_pskip=0 / chroma_qp_offset=-4 / threads=12 / lookahead_threads=2 / sliced_threads=0 / nr=0 / decimate=1 / interlaced=0 / bluray_compat=0 / constrained_intra=0 / fgo=0 / bframes=9 / b_pyramid=2 / b_adapt=2 / b_bias=0 / direct=3 / weightb=1 / open_gop=0 / weightp=2 / keyint=240 / keyint_min=24 / scenecut=40 / intra_refresh=0 / rc_lookahead=0 / rc=2pass / mbtree=0 / bitrate=6565 / ratetol=1.0 / qcomp=1.00 / qpmin=0 / qpmax=48 / qpstep=4 / cplxblur=20.0 / qblur=0.5 / vbv_maxrate=240000 / vbv_bufsize=240000 / nal_hrd=none / ip_ratio=1.40 / pb_ratio=1.30 / aq=4:0.80
Default                                  : Да
Forced                                   : Нет
Основные цвета                           : BT.709
Характеристики трансфера                 : BT.709
Коэффициенты матрицы                     : BT.709

Аудио #1
Идентификатор                            : 2
Формат                                   : AC-3
Формат/Информация                        : Audio Coding 3
Расширение режима                        : CM (complete main)
Параметр Endianness формата              : Big
Идентификатор кодека                     : A_AC3
Продолжительность                        : 1 ч. 30 м.
Вид битрейта                             : Постоянный
Битрейт                                  : 192 Кбит/сек
Каналы                                   : 2 канала
Расположение каналов                     : Front: L R
Частота                                  : 48,0 КГц
Битовая глубина                          : 16 бит
Метод сжатия                             : С потерями
Размер потока                            : 124 Мбайт (3%)
Заголовок                                : MVO (ТВ3)
Язык                                     : Russian
Default                                  : Да
Forced                                   : Нет

Аудио #2
Идентификатор                            : 3
Формат                                   : AC-3
Формат/Информация                        : Audio Coding 3
Расширение режима                        : CM (complete main)
Параметр Endianness формата              : Big
Идентификатор кодека                     : A_AC3
Продолжительность                        : 1 ч. 30 м.
Вид битрейта                             : Постоянный
Битрейт                                  : 192 Кбит/сек
Каналы                                   : 2 канала
Расположение каналов                     : Front: L R
Частота                                  : 48,0 КГц
Битовая глубина                          : 16 бит
Метод сжатия                             : С потерями
Размер потока                            : 124 Мбайт (3%)
Заголовок                                : AVO (Алексей Мехалев)
Язык                                     : Russian
Default                                  : Нет
Forced                                   : Нет

Меню
00:00:00.000                             : :01
00:11:04.288                             : :02
00:18:47.835                             : :03
00:24:40.353                             : :04
00:29:46.659                             : :05
00:36:06.080                             : :06
00:42:23.165                             : :07
00:50:07.421                             : :08
01:00:39.969                             : :09
01:10:38.274                             : :10
01:16:16.863                             : :11
01:23:49.064                             : :12
Примечание: Рип в High 10 Profile, в настоящее время не поддерживается большинством аппаратных проигрывателей, поэтому предназначен исключительно для воспроизведения на ПК. Для корректного воспроизведения может потребоваться обновление ПО.
Скриншоты:




Оформление - Arrow®

Месть Ниндзя на NNM-club
Время раздачи: 24/7
[NNM-Club.me]_Mest' Nindzya.BDRip 1080p-Hi10P.mkv.torrent
 Торрент: Платиновая раздача  Зарегистрирован
 
Скачать


Примагнититься
 Зарегистрирован:   16 Ноя 2013 00:12:01
 Размер:   4,37 GB  (
 Рейтинг:   4,6 (Голосов: 26)
 Поблагодарили:   95
 Проверка:   Оформление проверено модератором 16 Ноя 2013 22:14:53
Как cкачать  ·  Как раздать  ·  Правильно оформить  ·  Поднять ратио!  
SubМарина
Uploader 300+
Стаж: 9 лет
Сообщений: 703
Ratio: 2201,494
Раздал: 302,5 TB
100%
Откуда: Севастополь
ussr.gif
Да что ж вы творите, демоны? Повторяться не буду, вот ссылочка Месть ниндзя / Revenge of the Ninja (1983) BDRip [H.264]
Всё равно, Спасибо!

_________________
Показать сообщения:   
Начать новую тему   Ответить на тему    Торрент-трекер NNM-Club -> Классика кино и Старые фильмы до 90-х -> Старые Зарубежные Фильмы (HD*Rip/LQ, DVDRip, SATRip, VHSRip) Часовой пояс: GMT + 3
Страница 1 из 1