Классический форум-трекер
canvas not supported
Нас вместе: 4 104 007

Glass no Clair - Ginga Tetsudo 999 / Claire of the Glass: Galaxy Express 999 / Галактический экспресс 999: Стеклянная Клэйр [1980, MV] BDRip 720p Hi10P raw


 
 
RSS
Начать новую тему   Ответить на тему    Торрент-трекер NNM-Club -> Аниме с субтитрами -> Аниме (HD)
Автор Сообщение
loki ®
Стаж: 9 лет 2 мес.
Сообщений: 4729
Ratio: 62,856
Поблагодарили: 37393
100%
Откуда: Днепр
roody.gif

Glass no Clair - Ginga Tetsudo 999
Claire of the Glass: Galaxy Express 999
Галактический экспресс 999: Стеклянная Клэйр

Жанр: фантастика, драма, приключения
Тип: короткометражный фильм
Продолжительность: 1 эп., 15 мин.
Дата премьеры / период выхода: 15.03.1980
Производство/студия: Toei Animation
Автор оригинала: Мацумото Лэйдзи
Режиссер: Нисидзава Нобутака
Снято по манге: Ginga Tetsudou 999
Качество видео: BDRip
Контейнер: MKV
Видео: MPEG4/AVC (Hi10P)
Битрейт видео: 2053 Kbps
Размер кадра: 1256x720
Аудио:
JAP; AC3; 48.0 KHz; 2ch; 384 Kbps
Субтитры:
RUS; Niji (перевод); AlexMalkavian (редактура); Mats G-L (оформление) ASS (ext)
Описание:
Короткометражный кинофильм является ремейком третьей серии оригинального ТВ-сериала, повествующего о встрече Тэцуро с официанткой Клэйр - эпизод, получивший также отражение в полнометражном кинофильме 1979 года.
© world-art
• 01 Галактический экспресс 999 [ТВ] - ТВ (113 эп.), адаптация манги, 1978
• 02 Галактический экспресс 999 - Фильм - п/ф, адаптация манги, 1979
• 03 Glass no Clair - Ginga Tetsudo 999 - к/ф, ремейк 3-го эп. оригинального сериала, 1980
• 04 Ginga Tetsudou 999: Kimi wa Senshi no You ni Ikirareru ka!! - ТВ-спэшл (1 эп.), ремейк 12-13 эп. оригинального сериала, 1979
• 05 Ginga Tetsudo 999: Eien no Tabibito Emeraldas - ТВ-спэшл (1 эп.), ремейк 22-го эп. оригинального сериала, 1980
• 06 Ginga Tetsudo 999: Kimi wa Haha no You ni Aiseru ka!! - ТВ-спэшл (1 эп.), ремейк 51-52 эп. оригинального сериала, 1980
• 07 Sayonara Ginga Tetsudou 999: Andromeda Shuuchakueki - п/ф, продолжение оригинального сериала, 1981
• 08 Галактический экспресс 999: Вечная фантазия - к/ф, продолжение, 1998
• 09 Kasei Ryoudan DNA Sights 999.9 - к/ф, предыстория оригинального сериала, 1998
• 10 Галактические Железные Дороги [ТВ-1] - ТВ (26 эп.), продолжение оригинального сериала, 2003
• 11 Галактические Железные Дороги OVA - OVA (4 эп.), продолжение, 2007
• 12 Галактические Железные Дороги [ТВ-2] - ТВ (24 эп.), продолжение, 2006
• 13 Ginga Tetsudou 999: Diamond Ring no Kanata e - к/ф, дополнение, 2009
Код:
Общее
Уникальный идентификатор                 : 204074314558812282406505049239685397036 (0x998748883E5998F18989E1F11E5F7A2C)
Полное имя                               : Ginga Tetsudou 999 - Glass no Clair.mkv
Формат                                   : Matroska
Версия формата                           : Version 4 / Version 2
Размер файла                             : 272 Мбайт
Продолжительность                        : 15 м.
Общий поток                              : 2471 Кбит/сек
Дата кодирования                         : UTC 2013-11-16 18:18:27
Программа кодирования                    : mkvmerge v6.2.0 ('Promised Land') built on Apr 28 2013 12:22:01
Библиотека кодирования                   : libebml v1.3.0 + libmatroska v1.4.0
Attachment                               : Yes / Yes / Yes / Yes / Yes / Yes / Yes / Yes / Yes / Yes / Yes / Yes / Yes

Видео
Идентификатор                            : 1
Формат                                   : AVC
Формат/Информация                        : Advanced Video Codec
Профиль формата                          : High 10@L4.0
Параметр CABAC формата                   : Да
Параметр ReFrames формата                : 9 кадров
Идентификатор кодека                     : V_MPEG4/ISO/AVC
Продолжительность                        : 15 м.
Битрейт                                  : 2038 Кбит/сек
Ширина                                   : 1256 пикселей
Высота                                   : 720 пикселей
Соотношение сторон                       : 16:9
Режим частоты кадров                     : Постоянный
Частота кадров                           : 23,976 кадра/сек
Цветовое пространство                    : YUV
Субдискретизация насыщенности            : 4:2:0
Битовая глубина                          : 10 бит
Тип развёртки                            : Прогрессивная
Бит/(Пиксели*Кадры)                      : 0.094
Размер потока                            : 225 Мбайт (82%)
Библиотека кодирования                   : x264 core 138 r2358kMod 9e941d1
Настройки программы                      : cabac=1 / ref=9 / deblock=1:0:0 / analyse=0x3:0x133 / me=umh / subme=10 / psy=1 / fade_compensate=0.00 / psy_rd=1.00:0.00 / mixed_ref=1 / me_range=24 / chroma_me=1 / trellis=2 / 8x8dct=1 / cqm=0 / deadzone=21,11 / fast_pskip=0 / chroma_qp_offset=-2 / threads=12 / lookahead_threads=2 / sliced_threads=0 / nr=0 / decimate=0 / interlaced=0 / bluray_compat=0 / constrained_intra=0 / bframes=8 / b_pyramid=2 / b_adapt=2 / b_bias=0 / direct=3 / weightb=1 / open_gop=0 / weightp=2 / keyint=250 / keyint_min=23 / scenecut=40 / intra_refresh=0 / rc_lookahead=60 / rc=crf / mbtree=1 / crf=18.0000 / qcomp=0.60 / qpmin=0 / qpmax=81 / qpstep=4 / ip_ratio=1.40 / aq=1:1.00
Язык                                     : Japanese
Default                                  : Да
Forced                                   : Нет
Коэффициенты матрицы                     : BT.709

Аудио
Идентификатор                            : 2
Формат                                   : AC-3
Формат/Информация                        : Audio Coding 3
Расширение режима                        : CM (complete main)
Параметр Endianness формата              : Big
Идентификатор кодека                     : A_AC3
Продолжительность                        : 15 м.
Вид битрейта                             : Постоянный
Битрейт                                  : 384 Кбит/сек
Каналы                                   : 2 канала
Расположение каналов                     : Front: L R
Частота                                  : 48,0 КГц
Битовая глубина                          : 16 бит
Метод сжатия                             : С потерями
Размер потока                            : 42,3 Мбайт (16%)
Заголовок                                : Original
Язык                                     : Japanese
Default                                  : Да
Forced                                   : Нет

Текст #1
Идентификатор                            : 3
Формат                                   : ASS
Идентификатор кодека                     : S_TEXT/ASS
Идентификатор кодека/Информация          : Advanced Sub Station Alpha
Метод сжатия                             : Без потерь
Заголовок                                : Niji|AlexMalkavian|Mats G-L
Язык                                     : Russian
Default                                  : Да
Forced                                   : Нет

Текст #2
Идентификатор                            : 4
Формат                                   : ASS
Идентификатор кодека                     : S_TEXT/ASS
Идентификатор кодека/Информация          : Advanced Sub Station Alpha
Метод сжатия                             : Без потерь
Заголовок                                : Live-eviL
Язык                                     : English
Default                                  : Нет
Forced                                   : Нет

Меню
00:00:00.000                             : en:Toei logo
00:00:13.972                             : en:Intro
00:01:34.011                             : en:Main part
00:14:13.812                             : en:Credits

Вселенная Мацумото Лэйдзи


Official page || ANN || AniDB || MAL || World Art



Время раздачи: 24/7
[NNM-Club.me]_Ginga Tetsudou 999 - Glass no Clair.mkv.torrent
 Торрент: Платиновая раздача  Зарегистрирован
 
Скачать


Примагнититься
 Зарегистрирован:   16 Ноя 2013 21:39:14
 Размер:   272 MB  (
 Рейтинг:   4,7 (Голосов: 14)
 Поблагодарили:   24
 Проверка:   Оформление проверено модератором 16 Ноя 2013 21:56:23
Как cкачать  ·  Как раздать  ·  Правильно оформить  ·  Поднять ратио!  
loki ®
Стаж: 9 лет 2 мес.
Сообщений: 4729
Ratio: 62,856
Поблагодарили: 37393
100%
Откуда: Днепр
roody.gif
Осталась лишь последняя короткометражка, но я даже видео не смог найти не говоря уже об ансабе.
Показать сообщения:   
Начать новую тему   Ответить на тему    Торрент-трекер NNM-Club -> Аниме с субтитрами -> Аниме (HD) Часовой пояс: GMT + 3
Страница 1 из 1