Классический форум-трекер
canvas not supported
Нас вместе: 4 114 840

Алексей Полевский | Быстрый заработок в Яндекс.Директ (2013) [PCRec]


 
 
RSS
Начать новую тему   Ответить на тему    Торрент-трекер NNM-Club -> Обучающие видеоматериалы -> Бизнес
Автор Сообщение
dron9741 ®
RG Книги
 
Стаж: 9 лет 5 мес.
Сообщений: 717
Ratio: 48,045
Поблагодарили: 213278
100%
Откуда: Солнечная Башкирия
russia.gif
Алексей Полевский | Быстрый заработок в Яндекс.Директ (2013) [PCRec]
Автор (режиссер): Алексей Полевский
Название: Быстрый заработок в Яндекс.Директ
Год выпуска: 2013
Жанр: Вебинар
Продолжительность: 00:48:45
Качество видео: PCRec
Видеокодек: Windows Media Video
Битрейт видео: ~15fps 89kbps
Размер кадра: 1316x640
Аудиокодек: WMA
Битрейт аудио: 44100Hz stereo 96kbps

Описание:
Вебинар от специалиста в создании рекламы и заработка в Яндекс.Директе инфо-бизнесмена Алексея Полевского, автора курсов "Заработок в Яндекс.Директ", "Заработок на партнерках", "Мощный Яндекс.Директ" др.
Общее
Полное имя : D:\Андрей\полевский.wmv
Формат : Windows Media
Размер файла : 65,9 Мбайт

Режим общего битрейта : Переменный
Общий поток : 189 Кбит/сек
Максимальный общий битрейт : 382 Кбит/сек
Дата кодирования : UTC 2013-11-14 10:56:43.936

Видео
Идентификатор : 2
Формат : WMV1
Идентификатор кодека : WMV1
Идентификатор кодека/Информация : Windows Media Video 7
Описание кодека : Windows Media Video V7
Вид битрейта : Переменный
Битрейт : 89,0 Кбит/сек
Ширина : 1316 пикселей
Высота : 640 пикселей
Соотношение сторон : 2,056
Частота кадров : 15,000 кадров/сек
Битовая глубина : 8 бит
Бит/(Пиксели*Кадры) : 0.007
Размер потока : 31,0 Мбайт (47%)
Язык : English (US)

Аудио
Идентификатор : 1
Формат : WMA
Версия формата : Version 2
Идентификатор кодека : 161
Идентификатор кодека/Информация : Windows Media Audio
Описание кодека : Windows Media Audio 9.2 - 96 kbps, 44 kHz, stereo 1-pass CBR
Вид битрейта : Постоянный
Битрейт : 96,0 Кбит/сек
Каналы : 2 канала
Частота : 44,1 КГц
Битовая глубина : 16 бит
Размер потока : 33,5 Мбайт (51%)
Язык : English (US)
Скриншоты:


Время раздачи: 24/7 (круглосуточно)
[NNM-Club.me]_polevskiy.wmv.torrent
 Торрент: Платиновая раздача  Зарегистрирован
 
Скачать


Примагнититься
 Зарегистрирован:   19 Ноя 2013 23:41:12
 Размер:   65,9 MB  (
 Рейтинг:   4,5 (Голосов: 63)
 Поблагодарили:   218
 Проверка:   Оформление проверено модератором 27 Ноя 2013 15:10:52
Как cкачать  ·  Как раздать  ·  Правильно оформить  ·  Поднять ратио!  
winnermax
Стаж: 9 лет 1 мес.
Сообщений: 33
Ratio: 10,212
7.65%
Откуда: Одесса
ukraine.gif
полный бред! жевание соплей 50 минут...
какой то клоун бред несёт...

_________________
Я всегда буду против...!!
derini
 
Стаж: 13 лет 3 мес.
Сообщений: 1236
Ratio: 6,02
Поблагодарили: 4701
100%
comoros.gif
winnermax
Ну так.. Написано же - "инфо-бизнесмен". Эта публика ничего кроме информационного мусора не генерирует.
Показать сообщения:   
Начать новую тему   Ответить на тему    Торрент-трекер NNM-Club -> Обучающие видеоматериалы -> Бизнес Часовой пояс: GMT + 3
Страница 1 из 1