Классический форум-трекер
canvas not supported
Нас вместе: 4 095 038

Верность матери (1966) SATRip


 
 
RSS
Начать новую тему   Ответить на тему    Торрент-трекер NNM-Club -> Классика кино и Старые фильмы до 90-х -> Старые Отечественные Фильмы (HD*Rip/LQ, DVDRip, SATRip, VHSRip)
Автор Сообщение
nnmclub0112 ®
Стаж: 8 лет 1 мес.
Сообщений: 3907
Ratio: 88,493
Поблагодарили: 251505
100%
Верность матери (1966) VHSRip
Производство: киностудия имени М. Горького
Жанр: Исторический, Биографический
Релиз группы: Феникс

Описание: Второй фильм дилогии ("Сердце матери", "Верность матери") о семье Ульяновых охватывает период 1900-1917 годов.
Действие фильма охватывает период 1900-1917 годов. Исторические события - русско-японская война, 9-е января и другие -показаны как бы глазами матери, которая начинает убеждаться, что у её детей много единомышленников, последователей, и она, благодаря этому, приходит к мысли об осуществимости тех идеалов, которым принес себя в жертву ее старший сын. Только сознание того, что дело его не безнадежно, что оно осуществимо, близко к победе, вселяет в нее мужество, способность перенести расставания с близкими и скитания.

Режиссер: Марк Донской

Актеры: Мария Александровна Ульянова - Елена Фадеева,
Eе дети: Анна - Нина Меньшикова,
Владимир - Родион Нахапетов,
Александр - Геннадий Чертов,
Дмитрий - Юрий Соломин,
Мария - Тамара Логинова,
Елизавета Васильевна Крупская - Александра Москалева,
Надежда Крупская - Эльмира Капустина,
Прасковья Осьмихина - Надежда Федосова,
Павел Осьмихин - Виктор Шахов,
Марк Елизаров - Георгий Цинман,
Полковкин - Владимир Емельянов,
Управляющий - Павел Тарасов

Продолжительность: 01:23:35
Качество видео: SATRip



Видеокодек: XviD
Битрейт видео: ~2055 Кбит/сек
Размер кадра: 608x256
Аудиокодек: AC3, 2 ch
Битрейт аудио: 256 Кбит/сек
Общее
Полное имя : E:\Интересно\!Подг\Лениниана\Верность матери\Верность матери (1966) VHSRip.avi
Формат : AVI
Формат/Информация : Audio Video Interleave
Размер файла : 1,37 Гбайт
Продолжительность : 1 ч. 24 м.
Общий поток : 2318 Кбит/сек
Программа кодирования : VirtualDubMod 1.5.4.1 (build 2178/release)
Библиотека кодирования : VirtualDubMod build 2178/release

Видео
Идентификатор : 0
Формат : MPEG-4 Visual
Профиль формата : Advanced Simple@L5
Параметр BVOP формата : 1
Параметр QPel формата : Нет
Параметр GMC формата : Без точки перехода
Параметр матрицы формата : Выборочная
Идентификатор кодека : XVID
Идентификатор кодека/Подсказка : XviD
Продолжительность : 1 ч. 24 м.
Битрейт : 2055 Кбит/сек
Ширина : 608 пикселей
Высота : 256 пикселей
Соотношение сторон : 2,40:1
Частота кадров : 25,000 кадров/сек
Цветовое пространство : YUV
Субдискретизация насыщенности : 4:2:0
Битовая глубина : 8 бит
Тип развёртки : Прогрессивная
Метод сжатия : С потерями
Бит/(Пиксели*Кадры) : 0.528
Размер потока : 1,21 Гбайт (89%)
Библиотека кодирования : XviD 1.3.0.dev55

Аудио
Идентификатор : 1
Формат : AC-3
Формат/Информация : Audio Coding 3
Расширение режима : CM (complete main)
Параметр Endianness формата : Big
Идентификатор кодека : 2000
Продолжительность : 1 ч. 24 м.
Вид битрейта : Постоянный
Битрейт : 256 Кбит/сек
Каналы : 2 канала
Расположение каналов : Front: L R
Частота : 48,0 КГц
Битовая глубина : 16 бит
Метод сжатия : С потерями
Размер потока : 155 Мбайт (11%)
Выравнивание : Разделение по промежуткам
Продолжительность промежутка : 96 мс. (2,40 видеокадра)
Время предзагрузки промежутка : 96 мс.
Скриншоты:
Скриншоты:


Время раздачи: С 10:00 до 23:00

Фильм первый "Сердце матери (1965)" на NNM-CLUB
[NNM-Club.me]_Vernost' materi (1966) VHSRip.avi.torrent
 Торрент: Платиновая раздача  Зарегистрирован
 
Скачать


Примагнититься
 Зарегистрирован:   25 Ноя 2013 08:48:00
 Размер:   1,37 GB  (
 Рейтинг:   3,9 (Голосов: 16)
 Поблагодарили:   42
 Проверка:   Оформление проверено модератором 25 Ноя 2013 20:44:55
Как cкачать  ·  Как раздать  ·  Правильно оформить  ·  Поднять ратио!  
Показать сообщения:   
Начать новую тему   Ответить на тему    Торрент-трекер NNM-Club -> Классика кино и Старые фильмы до 90-х -> Старые Отечественные Фильмы (HD*Rip/LQ, DVDRip, SATRip, VHSRip) Часовой пояс: GMT + 3
Страница 1 из 1