Классический форум-трекер
canvas not supported
Нас вместе: 4 079 116

Bak XIII - 12 Albums (2003-2013) [MP3|128-320 kbps] <Ebm / Industrial / Synthpop / Futurepop / Electronic>


 
 
RSS
Начать новую тему   Ответить на тему    Торрент-трекер NNM-Club -> Electronic -> Industrial, EBM, Dark Electro
Автор Сообщение
Блейн Моно ®
Реставратор Клуба
Стаж: 8 лет 7 мес.
Сообщений: 3555
Ratio: 628,918
Поблагодарили: 6025
100%
Откуда: Эмпатика
antiguabarbuda.gif
Bak XIII - 12 альбомов (2003-2013)

Описание:
Год: 2003-2013
Страна: Швейцария
Жанр: Ebm / Industrial / Synthpop / Futurepop / Electronic
Продолжительность: 09:02:30

Кодек: MP3
Битрейт: 128-320 kbps
Тип битрейта: CBR , VBR

Треклист:
Лэйбл: Urgence Disk Records ‎
Каталог №: Kab 013
Битрейт: 192 kbps CBR
Прoдолжительность: 00:45:27
Треклист:

01. Good Old Time (03:34)
02. Remember (03:16)
03. Are Friends Electric? (03:57)
04. 80's Are Back Forever (03:39)
05. Voice In My Head (04:02)
06. Happy Slave (04:33)
07. She Knows (03:03)
08. Trashedy (03:45)
09. Paradise (04:05)
10. Perfect Survivor (03:51)
11. Lost In Darkness (04:10)
12. Torture (03:26)
Лэйбл: Urgence Disk Records ‎
Каталог №: KAB039
Битрейт: 320 kbps CBR
Прoдолжительность: 00:59:39
Треклист:

01. Things Will Never Change (04:16)
02. Weak (03:54)
03. Dead Again (04:11)
04. VSKMR (03:58)
05. Spiegeltanz (03:45)
06. Storms (03:43)
07. Story Of The Dragon (03:11)
08. Electroshock (03:55)
09. Slow Motion (03:45)
10. Disco Armageddon (03:48)
11. Miracles Of Love (04:00)
12. Insane (03:54)
13. Dance And Die / Manifeste (13:13)
Лэйбл: Urgence Disk Records ‎
Каталог №: Kab 026
Битрейт: 192 kbps CBR
Прoдолжительность: 00:58:14
Треклист:

01. Dance And Die (03:40)
02. Lost (04:00)
03. Homodisco (03:41)
04. Black And White (03:19)
05. Lost In Darkness (Guitar Mix) (04:13)
06. 80's Are Back Forever (Auto-Remix) (03:13)
07. Dance And Die (Autodafe Remix) (03:53)
08. Lost In Darkness (Mimetic Remix) (06:51)
09. Lost In Darkness (Self-Remix) (04:18)
10. Lost In Darkness (HIV+ Remix) (06:02)
11. Lost In Darkness (Spies Remix) (06:40)
12. Lost In Darkness (Idlo Remix) (04:07)
13. F*ck You And Dance (Nada Vs Bak XIII) (04:10)
Лэйбл: Urgence Disk Records ‎
Каталог №: KAB 052
Битрейт: 256 kbps CBR
Прoдолжительность: 00:56:47
Треклист:

01. Media Control (04:40)
02. Welcome To The Void (02:50)
03. Sadness (04:02)
04. Another Dream (03:24)
05. New Wave Party (03:39)
06. Lady Strange (03:30)
07. Final Solution (04:30)
08. Brothers Of The Coast (03:46)
09. Spiegeltanz (Plastique De Rêve Remix) (07:40)
10. VSKMR (Drop Remix) (04:16)
11. Spiegeltanz (Ambassador 21 Remix) (03:36)
12. VSKMR ( Frank Wolf Remix) (05:53)
13. Fade Into You (04:56)
Лэйбл: Urgence Disk Records ‎
Каталог №: KAB065
Битрейт: 128-218 kbps VBR , CBR
Прoдолжительность: 00:58:39
Треклист:

01. Open The Borders (04:01)
02. Body Religion (03:25)
03. Nothing Left To Believe (04:28)
04. Hey You (02:51)
05. Where's The Party? (03:47)
06. A Simple Day (03:45)
07. Vengeance (04:03)
08. The Lady In The Rain (04:25)
09. Ghouls And Ghosts (04:21)
10. The End Is Near (06:05)
11. Minute Men (03:24)
12. Children Of The Night (04:07)
13. The Queen Of Flowers (06:05)
14. I Love My C64 (03:45)
Код:

Общее
Полное имя                               : F:\pravka\BAK XIII\Albums\BAK XIII - 2008 - Ultima Ratio Regum\01. Bak XIII - Open The Borders.mp3
Формат                                   : MPEG Audio
Размер файла                             : 5,20 Мбайт
Продолжительность                        : 4 м. 1 с.
Режим общего битрейта                    : Переменный
Общий поток                              : 178 Кбит/сек
Альбом                                   : Ultima Ratio Regum
Трек                                     : Open The Borders
Трек/Положение                           : 01
Трек/Всего                               : 14
Исполнитель                              : Bak XIII
Кодирование произвёл                     : I'm Too Lame To Change The Default Settings
Издатель                                 : Urgence Disk Records
Жанр                                     : Electronic
Дата записи                              : 2008
Библиотека кодирования                   : LAME3.97
Примечание                               : Lbl:Death Watch Asia C:KAB07
DISCOGS_CATALOG                          : Kab 065
DISCOGS_COUNTRY                          : Switzerland
STYLE                                    : EBM
DISCOGS_RELEASED                         : 2008
DISCOGS_ARTIST_LINK                      : Bak%20XIII
DISCOGS_LABEL_LINK                       : Urgence%20Disk%20Records
DISCOGS_RELEASE_ID                       : 1404936
DISCOGS_ORIGINAL_TRACK_NUMBER            : 01

Аудио
Формат                                   : MPEG Audio
Версия формата                           : Version 1
Профиль формата                          : Layer 3
Режим                                    : Joint stereo
Расширение режима                        : MS Stereo
Продолжительность                        : 4 м. 1 с.
Вид битрейта                             : Переменный
Битрейт                                  : 178 Кбит/сек
Минимальный битрейт                      : 32,0 Кбит/сек
Каналы                                   : 2 канала
Частота                                  : 44,1 КГц
Метод сжатия                             : С потерями
Размер потока                            : 5,14 Мбайт (99%)
Библиотека кодирования                   : LAME3.97
Настройки программы                      : -m j -V 2 -q 3 -lowpass 18.6 --vbr-new -b 32
Язык                                     : English

Общее
Полное имя                               : F:\pravka\BAK XIII\Albums\BAK XIII - 2008 - Ultima Ratio Regum\02. Bak XIII - Body Religion.mp3
Формат                                   : MPEG Audio
Размер файла                             : 4,39 Мбайт
Продолжительность                        : 3 м. 25 с.
Режим общего битрейта                    : Переменный
Общий поток                              : 177 Кбит/сек
Альбом                                   : Ultima Ratio Regum
Трек                                     : Body Religion
Трек/Положение                           : 02
Трек/Всего                               : 14
Исполнитель                              : Bak XIII
Кодирование произвёл                     : I'm Too Lame To Change The Default Settings
Издатель                                 : Urgence Disk Records
Жанр                                     : Electronic
Дата записи                              : 2008
Библиотека кодирования                   : LAME3.97
Примечание                               : Lbl:Death Watch Asia C:KAB07
DISCOGS_CATALOG                          : Kab 065
DISCOGS_COUNTRY                          : Switzerland
STYLE                                    : EBM
DISCOGS_RELEASED                         : 2008
DISCOGS_ARTIST_LINK                      : Bak%20XIII
DISCOGS_LABEL_LINK                       : Urgence%20Disk%20Records
DISCOGS_RELEASE_ID                       : 1404936
DISCOGS_ORIGINAL_TRACK_NUMBER            : 02

Аудио
Формат                                   : MPEG Audio
Версия формата                           : Version 1
Профиль формата                          : Layer 3
Режим                                    : Joint stereo
Расширение режима                        : MS Stereo
Продолжительность                        : 3 м. 25 с.
Вид битрейта                             : Переменный
Битрейт                                  : 177 Кбит/сек
Минимальный битрейт                      : 32,0 Кбит/сек
Каналы                                   : 2 канала
Частота                                  : 44,1 КГц
Метод сжатия                             : С потерями
Размер потока                            : 4,33 Мбайт (99%)
Библиотека кодирования                   : LAME3.97
Настройки программы                      : -m j -V 2 -q 3 -lowpass 18.6 --vbr-new -b 32
Язык                                     : English

Общее
Полное имя                               : F:\pravka\BAK XIII\Albums\BAK XIII - 2008 - Ultima Ratio Regum\03. Bak XIII - Nothing Left To Believe.mp3
Формат                                   : MPEG Audio
Размер файла                             : 7,04 Мбайт
Продолжительность                        : 4 м. 28 с.
Режим общего битрейта                    : Переменный
Общий поток                              : 218 Кбит/сек
Альбом                                   : Ultima Ratio Regum
Трек                                     : Nothing Left To Believe
Трек/Положение                           : 03
Трек/Всего                               : 14
Исполнитель                              : Bak XIII
Кодирование произвёл                     : I'm Too Lame To Change The Default Settings
Издатель                                 : Urgence Disk Records
Жанр                                     : Electronic
Дата записи                              : 2008
Библиотека кодирования                   : LAME3.97
Примечание                               : Lbl:Death Watch Asia C:KAB07
DISCOGS_CATALOG                          : Kab 065
DISCOGS_COUNTRY                          : Switzerland
STYLE                                    : EBM
DISCOGS_RELEASED                         : 2008
DISCOGS_ARTIST_LINK                      : Bak%20XIII
DISCOGS_LABEL_LINK                       : Urgence%20Disk%20Records
DISCOGS_RELEASE_ID                       : 1404936
DISCOGS_ORIGINAL_TRACK_NUMBER            : 03

Аудио
Формат                                   : MPEG Audio
Версия формата                           : Version 1
Профиль формата                          : Layer 3
Режим                                    : Joint stereo
Продолжительность                        : 4 м. 28 с.
Вид битрейта                             : Переменный
Битрейт                                  : 218 Кбит/сек
Минимальный битрейт                      : 32,0 Кбит/сек
Каналы                                   : 2 канала
Частота                                  : 44,1 КГц
Метод сжатия                             : С потерями
Размер потока                            : 6,98 Мбайт (99%)
Библиотека кодирования                   : LAME3.97
Настройки программы                      : -m j -V 2 -q 3 -lowpass 18.6 --vbr-new -b 32
Язык                                     : English

Общее
Полное имя                               : F:\pravka\BAK XIII\Albums\BAK XIII - 2008 - Ultima Ratio Regum\04. Bak XIII - Hey You.mp3
Формат                                   : MPEG Audio
Размер файла                             : 2,68 Мбайт
Продолжительность                        : 2 м. 51 с.
Режим общего битрейта                    : Постоянный
Общий поток                              : 128 Кбит/сек
Альбом                                   : Ultima Ratio Regum
Альбом/Исполнитель                       : BAK XIII
Трек                                     : Hey You
Трек/Положение                           : 04
Трек/Всего                               : 14
Исполнитель                              : Bak XIII
Издатель                                 : Urgence Disk Records
Жанр                                     : Electronic
Дата записи                              : 2008
Библиотека кодирования                   : LAME3.82
DISCOGS_CATALOG                          : Kab 065
DISCOGS_COUNTRY                          : Switzerland
STYLE                                    : EBM
DISCOGS_RELEASED                         : 2008
DISCOGS_ARTIST_LINK                      : Bak%20XIII
DISCOGS_LABEL_LINK                       : Urgence%20Disk%20Records
DISCOGS_RELEASE_ID                       : 1404936
DISCOGS_ORIGINAL_TRACK_NUMBER            : 04

Аудио
Формат                                   : MPEG Audio
Версия формата                           : Version 1
Профиль формата                          : Layer 3
Режим                                    : Joint stereo
Расширение режима                        : MS Stereo
Продолжительность                        : 2 м. 52 с.
Вид битрейта                             : Постоянный
Битрейт                                  : 128 Кбит/сек
Каналы                                   : 2 канала
Частота                                  : 44,1 КГц
Метод сжатия                             : С потерями
Размер потока                            : 2,62 Мбайт (98%)
Библиотека кодирования                   : LAME3.82

Общее
Полное имя                               : F:\pravka\BAK XIII\Albums\BAK XIII - 2008 - Ultima Ratio Regum\05. Bak XIII - Where's The Party.mp3
Формат                                   : MPEG Audio
Размер файла                             : 3,52 Мбайт
Продолжительность                        : 3 м. 47 с.
Режим общего битрейта                    : Постоянный
Общий поток                              : 128 Кбит/сек
Альбом                                   : Ultima Ratio Regum
Альбом/Исполнитель                       : BAK XIII
Трек                                     : Where's The Party?
Трек/Положение                           : 05
Трек/Всего                               : 14
Исполнитель                              : Bak XIII
Издатель                                 : Urgence Disk Records
Жанр                                     : Electronic
Дата записи                              : 2008
Библиотека кодирования                   : LAME3.82
DISCOGS_CATALOG                          : Kab 065
DISCOGS_COUNTRY                          : Switzerland
STYLE                                    : EBM
DISCOGS_RELEASED                         : 2008
DISCOGS_ARTIST_LINK                      : Bak%20XIII
DISCOGS_LABEL_LINK                       : Urgence%20Disk%20Records
DISCOGS_RELEASE_ID                       : 1404936
DISCOGS_ORIGINAL_TRACK_NUMBER            : 05

Аудио
Формат                                   : MPEG Audio
Версия формата                           : Version 1
Профиль формата                          : Layer 3
Режим                                    : Joint stereo
Расширение режима                        : MS Stereo
Продолжительность                        : 3 м. 47 с.
Вид битрейта                             : Постоянный
Битрейт                                  : 128 Кбит/сек
Каналы                                   : 2 канала
Частота                                  : 44,1 КГц
Метод сжатия                             : С потерями
Размер потока                            : 3,47 Мбайт (99%)
Библиотека кодирования                   : LAME3.82

Общее
Полное имя                               : F:\pravka\BAK XIII\Albums\BAK XIII - 2008 - Ultima Ratio Regum\06. Bak XIII - A Simple Day.mp3
Формат                                   : MPEG Audio
Размер файла                             : 3,49 Мбайт
Продолжительность                        : 3 м. 45 с.
Режим общего битрейта                    : Постоянный
Общий поток                              : 128 Кбит/сек
Альбом                                   : Ultima Ratio Regum
Альбом/Исполнитель                       : BAK XIII
Трек                                     : A Simple Day
Трек/Положение                           : 06
Трек/Всего                               : 14
Исполнитель                              : Bak XIII
Издатель                                 : Urgence Disk Records
Жанр                                     : Electronic
Дата записи                              : 2008
Библиотека кодирования                   : LAME3.82
DISCOGS_CATALOG                          : Kab 065
DISCOGS_COUNTRY                          : Switzerland
STYLE                                    : EBM
DISCOGS_RELEASED                         : 2008
DISCOGS_ARTIST_LINK                      : Bak%20XIII
DISCOGS_LABEL_LINK                       : Urgence%20Disk%20Records
DISCOGS_RELEASE_ID                       : 1404936
DISCOGS_ORIGINAL_TRACK_NUMBER            : 06

Аудио
Формат                                   : MPEG Audio
Версия формата                           : Version 1
Профиль формата                          : Layer 3
Режим                                    : Joint stereo
Расширение режима                        : MS Stereo
Продолжительность                        : 3 м. 46 с.
Вид битрейта                             : Постоянный
Битрейт                                  : 128 Кбит/сек
Каналы                                   : 2 канала
Частота                                  : 44,1 КГц
Метод сжатия                             : С потерями
Размер потока                            : 3,44 Мбайт (99%)
Библиотека кодирования                   : LAME3.82

Общее
Полное имя                               : F:\pravka\BAK XIII\Albums\BAK XIII - 2008 - Ultima Ratio Regum\07. Bak XIII - Vengeance.mp3
Формат                                   : MPEG Audio
Размер файла                             : 3,77 Мбайт
Продолжительность                        : 4 м. 3 с.
Режим общего битрейта                    : Постоянный
Общий поток                              : 128 Кбит/сек
Альбом                                   : Ultima Ratio Regum
Альбом/Исполнитель                       : BAK XIII
Трек                                     : Vengeance
Трек/Положение                           : 07
Трек/Всего                               : 14
Исполнитель                              : Bak XIII
Издатель                                 : Urgence Disk Records
Жанр                                     : Electronic
Дата записи                              : 2008
Библиотека кодирования                   : LAME3.82
DISCOGS_CATALOG                          : Kab 065
DISCOGS_COUNTRY                          : Switzerland
STYLE                                    : EBM
DISCOGS_RELEASED                         : 2008
DISCOGS_ARTIST_LINK                      : Bak%20XIII
DISCOGS_LABEL_LINK                       : Urgence%20Disk%20Records
DISCOGS_RELEASE_ID                       : 1404936
DISCOGS_ORIGINAL_TRACK_NUMBER            : 07

Аудио
Формат                                   : MPEG Audio
Версия формата                           : Version 1
Профиль формата                          : Layer 3
Режим                                    : Joint stereo
Расширение режима                        : MS Stereo
Продолжительность                        : 4 м. 4 с.
Вид битрейта                             : Постоянный
Битрейт                                  : 128 Кбит/сек
Каналы                                   : 2 канала
Частота                                  : 44,1 КГц
Метод сжатия                             : С потерями
Размер потока                            : 3,72 Мбайт (99%)
Библиотека кодирования                   : LAME3.82

Общее
Полное имя                               : F:\pravka\BAK XIII\Albums\BAK XIII - 2008 - Ultima Ratio Regum\08. Bak XIII - The Lady In The Rain.mp3
Формат                                   : MPEG Audio
Размер файла                             : 4,11 Мбайт
Продолжительность                        : 4 м. 25 с.
Режим общего битрейта                    : Постоянный
Общий поток                              : 128 Кбит/сек
Альбом                                   : Ultima Ratio Regum
Альбом/Исполнитель                       : BAK XIII
Трек                                     : The Lady In The Rain
Трек/Положение                           : 08
Трек/Всего                               : 14
Исполнитель                              : Bak XIII
Издатель                                 : Urgence Disk Records
Жанр                                     : Electronic
Дата записи                              : 2008
Библиотека кодирования                   : LAME3.82
DISCOGS_CATALOG                          : Kab 065
DISCOGS_COUNTRY                          : Switzerland
STYLE                                    : EBM
DISCOGS_RELEASED                         : 2008
DISCOGS_ARTIST_LINK                      : Bak%20XIII
DISCOGS_LABEL_LINK                       : Urgence%20Disk%20Records
DISCOGS_RELEASE_ID                       : 1404936
DISCOGS_ORIGINAL_TRACK_NUMBER            : 08

Аудио
Формат                                   : MPEG Audio
Версия формата                           : Version 1
Профиль формата                          : Layer 3
Режим                                    : Joint stereo
Расширение режима                        : MS Stereo
Продолжительность                        : 4 м. 26 с.
Вид битрейта                             : Постоянный
Битрейт                                  : 128 Кбит/сек
Каналы                                   : 2 канала
Частота                                  : 44,1 КГц
Метод сжатия                             : С потерями
Размер потока                            : 4,06 Мбайт (99%)
Библиотека кодирования                   : LAME3.82

Общее
Полное имя                               : F:\pravka\BAK XIII\Albums\BAK XIII - 2008 - Ultima Ratio Regum\09. Bak XIII - Ghouls And Ghosts.mp3
Формат                                   : MPEG Audio
Размер файла                             : 5,28 Мбайт
Продолжительность                        : 4 м. 21 с.
Режим общего битрейта                    : Переменный
Общий поток                              : 167 Кбит/сек
Альбом                                   : Ultima Ratio Regum
Трек                                     : Ghouls And Ghosts
Трек/Положение                           : 09
Трек/Всего                               : 14
Исполнитель                              : Bak XIII
Кодирование произвёл                     : I'm Too Lame To Change The Default Settings
Издатель                                 : Urgence Disk Records
Жанр                                     : Electronic
Дата записи                              : 2008
Библиотека кодирования                   : LAME3.97
Примечание                               : Lbl:Death Watch Asia C:KAB07
DISCOGS_CATALOG                          : Kab 065
DISCOGS_COUNTRY                          : Switzerland
STYLE                                    : EBM
DISCOGS_RELEASED                         : 2008
DISCOGS_ARTIST_LINK                      : Bak%20XIII
DISCOGS_LABEL_LINK                       : Urgence%20Disk%20Records
DISCOGS_RELEASE_ID                       : 1404936
DISCOGS_ORIGINAL_TRACK_NUMBER            : 09

Аудио
Формат                                   : MPEG Audio
Версия формата                           : Version 1
Профиль формата                          : Layer 3
Режим                                    : Joint stereo
Расширение режима                        : MS Stereo
Продолжительность                        : 4 м. 21 с.
Вид битрейта                             : Переменный
Битрейт                                  : 167 Кбит/сек
Минимальный битрейт                      : 32,0 Кбит/сек
Каналы                                   : 2 канала
Частота                                  : 44,1 КГц
Метод сжатия                             : С потерями
Размер потока                            : 5,22 Мбайт (99%)
Библиотека кодирования                   : LAME3.97
Настройки программы                      : -m j -V 2 -q 3 -lowpass 18.6 --vbr-new -b 32
Язык                                     : English

Общее
Полное имя                               : F:\pravka\BAK XIII\Albums\BAK XIII - 2008 - Ultima Ratio Regum\10. Bak XIII - The End Is Near.mp3
Формат                                   : MPEG Audio
Размер файла                             : 5,62 Мбайт
Продолжительность                        : 6 м. 5 с.
Режим общего битрейта                    : Постоянный
Общий поток                              : 128 Кбит/сек
Альбом                                   : Ultima Ratio Regum
Альбом/Исполнитель                       : BAK XIII
Трек                                     : The End Is Near
Трек/Положение                           : 10
Трек/Всего                               : 14
Исполнитель                              : Bak XIII
Издатель                                 : Urgence Disk Records
Жанр                                     : Electronic
Дата записи                              : 2008
Библиотека кодирования                   : LAME3.82
DISCOGS_CATALOG                          : Kab 065
DISCOGS_COUNTRY                          : Switzerland
STYLE                                    : EBM
DISCOGS_RELEASED                         : 2008
DISCOGS_ARTIST_LINK                      : Bak%20XIII
DISCOGS_LABEL_LINK                       : Urgence%20Disk%20Records
DISCOGS_RELEASE_ID                       : 1404936
DISCOGS_ORIGINAL_TRACK_NUMBER            : 10

Аудио
Формат                                   : MPEG Audio
Версия формата                           : Version 1
Профиль формата                          : Layer 3
Режим                                    : Joint stereo
Расширение режима                        : MS Stereo
Продолжительность                        : 6 м. 6 с.
Вид битрейта                             : Постоянный
Битрейт                                  : 128 Кбит/сек
Каналы                                   : 2 канала
Частота                                  : 44,1 КГц
Метод сжатия                             : С потерями
Размер потока                            : 5,57 Мбайт (99%)
Библиотека кодирования                   : LAME3.82

Общее
Полное имя                               : F:\pravka\BAK XIII\Albums\BAK XIII - 2008 - Ultima Ratio Regum\11. Bak XIII - Minute Men.mp3
Формат                                   : MPEG Audio
Размер файла                             : 3,19 Мбайт
Продолжительность                        : 3 м. 24 с.
Режим общего битрейта                    : Постоянный
Общий поток                              : 128 Кбит/сек
Альбом                                   : Ultima Ratio Regum
Альбом/Исполнитель                       : BAK XIII
Трек                                     : Minute Men
Трек/Положение                           : 11
Трек/Всего                               : 14
Исполнитель                              : Bak XIII
Издатель                                 : Urgence Disk Records
Жанр                                     : Electronic
Дата записи                              : 2008
Библиотека кодирования                   : LAME3.82
DISCOGS_CATALOG                          : Kab 065
DISCOGS_COUNTRY                          : Switzerland
STYLE                                    : EBM
DISCOGS_RELEASED                         : 2008
DISCOGS_ARTIST_LINK                      : Bak%20XIII
DISCOGS_LABEL_LINK                       : Urgence%20Disk%20Records
DISCOGS_RELEASE_ID                       : 1404936
DISCOGS_ORIGINAL_TRACK_NUMBER            : 11

Аудио
Формат                                   : MPEG Audio
Версия формата                           : Version 1
Профиль формата                          : Layer 3
Режим                                    : Joint stereo
Расширение режима                        : MS Stereo
Продолжительность                        : 3 м. 24 с.
Вид битрейта                             : Постоянный
Битрейт                                  : 128 Кбит/сек
Каналы                                   : 2 канала
Частота                                  : 44,1 КГц
Метод сжатия                             : С потерями
Размер потока                            : 3,12 Мбайт (98%)
Библиотека кодирования                   : LAME3.82

Общее
Полное имя                               : F:\pravka\BAK XIII\Albums\BAK XIII - 2008 - Ultima Ratio Regum\12. Bak XIII - Children Of The Night.mp3
Формат                                   : MPEG Audio
Размер файла                             : 3,83 Мбайт
Продолжительность                        : 4 м. 7 с.
Режим общего битрейта                    : Постоянный
Общий поток                              : 128 Кбит/сек
Альбом                                   : Ultima Ratio Regum
Альбом/Исполнитель                       : BAK XIII
Трек                                     : Children Of The Night
Трек/Положение                           : 12
Трек/Всего                               : 14
Исполнитель                              : Bak XIII
Издатель                                 : Urgence Disk Records
Жанр                                     : Electronic
Дата записи                              : 2008
Библиотека кодирования                   : LAME3.82
DISCOGS_CATALOG                          : Kab 065
DISCOGS_COUNTRY                          : Switzerland
STYLE                                    : EBM
DISCOGS_RELEASED                         : 2008
DISCOGS_ARTIST_LINK                      : Bak%20XIII
DISCOGS_LABEL_LINK                       : Urgence%20Disk%20Records
DISCOGS_RELEASE_ID                       : 1404936
DISCOGS_ORIGINAL_TRACK_NUMBER            : 12

Аудио
Формат                                   : MPEG Audio
Версия формата                           : Version 1
Профиль формата                          : Layer 3
Режим                                    : Joint stereo
Расширение режима                        : MS Stereo
Продолжительность                        : 4 м. 8 с.
Вид битрейта                             : Постоянный
Битрейт                                  : 128 Кбит/сек
Каналы                                   : 2 канала
Частота                                  : 44,1 КГц
Метод сжатия                             : С потерями
Размер потока                            : 3,78 Мбайт (99%)
Библиотека кодирования                   : LAME3.82

Общее
Полное имя                               : F:\pravka\BAK XIII\Albums\BAK XIII - 2008 - Ultima Ratio Regum\13. Bak XIII - The Queen Of Flowers.mp3
Формат                                   : MPEG Audio
Размер файла                             : 5,64 Мбайт
Продолжительность                        : 6 м. 5 с.
Режим общего битрейта                    : Постоянный
Общий поток                              : 128 Кбит/сек
Альбом                                   : Ultima Ratio Regum
Альбом/Исполнитель                       : BAK XIII
Трек                                     : The Queen Of Flowers
Трек/Положение                           : 13
Трек/Всего                               : 14
Исполнитель                              : Bak XIII
Издатель                                 : Urgence Disk Records
Жанр                                     : Electronic
Дата записи                              : 2008
Библиотека кодирования                   : LAME3.82
DISCOGS_CATALOG                          : Kab 065
DISCOGS_COUNTRY                          : Switzerland
STYLE                                    : EBM
DISCOGS_RELEASED                         : 2008
DISCOGS_ARTIST_LINK                      : Bak%20XIII
DISCOGS_LABEL_LINK                       : Urgence%20Disk%20Records
DISCOGS_RELEASE_ID                       : 1404936
DISCOGS_ORIGINAL_TRACK_NUMBER            : 13

Аудио
Формат                                   : MPEG Audio
Версия формата                           : Version 1
Профиль формата                          : Layer 3
Режим                                    : Joint stereo
Расширение режима                        : MS Stereo
Продолжительность                        : 6 м. 6 с.
Вид битрейта                             : Постоянный
Битрейт                                  : 128 Кбит/сек
Каналы                                   : 2 канала
Частота                                  : 44,1 КГц
Метод сжатия                             : С потерями
Размер потока                            : 5,58 Мбайт (99%)
Библиотека кодирования                   : LAME3.82

Общее
Полное имя                               : F:\pravka\BAK XIII\Albums\BAK XIII - 2008 - Ultima Ratio Regum\14. Bak XIII - I Love My C64 (Bonus Track).mp3
Формат                                   : MPEG Audio
Размер файла                             : 3,49 Мбайт
Продолжительность                        : 3 м. 45 с.
Режим общего битрейта                    : Постоянный
Общий поток                              : 128 Кбит/сек
Альбом                                   : Ultima Ratio Regum
Альбом/Исполнитель                       : BAK XIII
Трек                                     : I Love My C64
Трек/Положение                           : 14
Трек/Всего                               : 14
Исполнитель                              : Bak XIII
Издатель                                 : Urgence Disk Records
Жанр                                     : Electronic
Дата записи                              : 2008
Библиотека кодирования                   : LAME3.82
DISCOGS_CATALOG                          : Kab 065
DISCOGS_COUNTRY                          : Switzerland
STYLE                                    : EBM
DISCOGS_RELEASED                         : 2008
DISCOGS_ARTIST_LINK                      : Bak%20XIII
DISCOGS_LABEL_LINK                       : Urgence%20Disk%20Records
DISCOGS_RELEASE_ID                       : 1404936
DISCOGS_ORIGINAL_TRACK_NUMBER            : 14

Аудио
Формат                                   : MPEG Audio
Версия формата                           : Version 1
Профиль формата                          : Layer 3
Режим                                    : Joint stereo
Расширение режима                        : MS Stereo
Продолжительность                        : 3 м. 46 с.
Вид битрейта                             : Постоянный
Битрейт                                  : 128 Кбит/сек
Каналы                                   : 2 канала
Частота                                  : 44,1 КГц
Метод сжатия                             : С потерями
Размер потока                            : 3,44 Мбайт (99%)
Библиотека кодирования                   : LAME3.82

Общее
Полное имя                               : F:\pravka\BAK XIII\Albums\BAK XIII - 2008 - Ultima Ratio Regum\back.jpeg
Формат                                   : JPEG
Размер файла                             : 77,4 Кбайт

Изображения
Формат                                   : JPEG
Ширина                                   : 494 пикселя
Высота                                   : 492 пикселя
Цветовое пространство                    : YUV
Субдискретизация насыщенности            : 4:2:0
Битовая глубина                          : 8 бит
Метод сжатия                             : С потерями
Размер потока                            : 77,4 Кбайт (100%)

Общее
Полное имя                               : F:\pravka\BAK XIII\Albums\BAK XIII - 2008 - Ultima Ratio Regum\cover.jpeg
Формат                                   : JPEG
Размер файла                             : 33,5 Кбайт

Изображения
Формат                                   : JPEG
Ширина                                   : 496 пикселей
Высота                                   : 490 пикселей
Цветовое пространство                    : YUV
Субдискретизация насыщенности            : 4:2:0
Битовая глубина                          : 8 бит
Метод сжатия                             : С потерями
Размер потока                            : 33,5 Кбайт (100%)

Лэйбл: Urgence Disk Records ‎
Каталог №: KAB091
Битрейт: 320 kbps CBR
Прoдолжительность: 00:58:17
Треклист:

01. We Are Alive (03:40)
02. Nothing To Fear (03:21)
03. Make My Day (04:35)
04. Destroy Fashion (04:30)
05. Gay Beat (03:14)
06. Twilight Prayer (05:23)
07. The Vanguard (02:53)
08. Natural Process (03:53)
09. Saturday Night (04:07)
10. In The Name Of Industry (05:12)
11. Yes We Can't (04:00)
12. Where Is My Joy? (03:44)
13. You Kill Me From The Inside (04:35)
14. ... (00:43)
15. The World Ends Here (04:19)
Лэйбл: Urgence Disk Records ‎
Битрейт: 192 kbps CBR
Прoдолжительность: 00:56:15
Треклист:

01. Le Chant Du Cygne (05:21)
02. Oh No! (03:37)
03. Happy As F*ck (03:08)
04. Eternal Joy (04:07)
05. We Are Alone (04:20)
06. The Game (03:37)
07. Falling (04:12)
08. Radio Star (03:47)
09. Headbanger (03:25)
10. In The Name Of Religion (03:36)
11. The New Punk (04:37)
12. The Hard Way (03:26)
13. Old Time Depression (04:56)
14. The Fool (Bonus Track) (03:57)
Image
Лэйбл: Urgence Disk Records ‎
Каталог №: KAB050
Битрейт: 256 kbps CBR
Прoдолжительность: 00:18:40
Треклист:

01. Dead Again (Album Version) (04:11)
02. Dead Again (Ringel-S Remix) (04:16)
03. Dead Again (Implant Remix) (05:58)
04. Dead Again (Another Version) (04:13)
Image
Лэйбл: Urgence Disk Records ‎
Каталог №: KAB090
Битрейт: 256 kbps CBR
Прoдолжительность: 00:28:55
Треклист:

01. We Are Alive (03:43)
02. Let's Go (03:16)
03. We Are Alive (Self Remix) (03:35)
04. Open The Borders (Wäks Remix) (05:12)
05. Open The Borders (Dolls Of Pain Remix) (03:44)
06. Ghouls And Ghosts (Deadcell Remix) (04:32)
07. Open The Borders (X-mouth Syndrome Remix) (04:50)
Лэйбл: SonicAngel
Битрейт: 256 kbps CBR
Прoдолжительность: 00:09:58
Треклист:

01. Tant Mieux! (03:21)
02. Tant Mieux! (Head Kick Remix) (03:42)
03. Tant Mieux! (Retro Remix) (02:55)
Лэйбл: Urgence Disk Records ‎
Битрейт: 320 kbps CBR
Прoдолжительность: 00:14:11
Треклист:

01. Tant Mieux! (03:19)
02. Weak 2011 (03:54)
03. 80's Are Back Forever 2011 (03:28)
04. Until The End (03:28)
Image
Битрейт: 151-218 kbps VBR
Прoдолжительность: 01:17:22
Треклист:

01. Things Will Never Change (04:17)
02. Open The Borders (04:01)
03. Media Control (04:41)
04. 80's Are Back Forever (03:24)
05. Lost In Darkness (Guitar Mix) (04:14)
06. Ghouls And Ghosts (04:21)
07. Dance And Die (03:37)
08. Disco Armageddon (03:49)
09. Homo Disco (03:39)
10. Sad Song (02:56)
11. New Wave Party (03:39)
12. VSKMR (04:01)
13. Welcome To The Void (02:51)
14. Body Religion (03:25)
15. Lost (04:00)
16. Dead Again (04:13)
17. Nothing Left To Believe (04:28)
18. Where's The Party? (03:44)
19. F*ck You And Dance (04:09)
20. Manifeste (03:44)
Код:
Общее
Полное имя                               : F:\pravka\BAK XIII\Compilations\BAK XIII - 2009 - Best Of BAK XIII (Japanese Limited Edition)\01. Bak XIII - Things Will Never Change.mp3
Формат                                   : MPEG Audio
Размер файла                             : 6,10 Мбайт
Продолжительность                        : 4 м. 17 с.
Режим общего битрейта                    : Переменный
Общий поток                              : 199 Кбит/сек
Альбом                                   : Best Of Bak XIII
Трек                                     : Things Will Never Change
Трек/Положение                           : 01
Трек/Всего                               : 20
Исполнитель                              : Bak XIII
Кодирование произвёл                     : I'm Too Lame To Change The Default Settings
Жанр                                     : Electronic
Дата записи                              : 2009
Библиотека кодирования                   : LAME3.97
Примечание                               : Lbl:Death Watch Asia C:KAB07
PUBLISHER                                : Urgence Disk Records
DISCOGS_CATALOG                          : KAB-078
DISCOGS_COUNTRY                          : Japan
STYLE                                    : EBM
DISCOGS_RELEASED                         : 08 Aug 2009
DISCOGS_RELEASE_MONTH                    : 08
DISCOGS_ARTIST_LINK                      : Bak%20XIII
DISCOGS_LABEL_LINK                       : Urgence%20Disk%20Records
DISCOGS_RELEASE_ID                       : 2383229
DISCOGS_ORIGINAL_TRACK_NUMBER            : 01

Аудио
Формат                                   : MPEG Audio
Версия формата                           : Version 1
Профиль формата                          : Layer 3
Режим                                    : Joint stereo
Расширение режима                        : MS Stereo
Продолжительность                        : 4 м. 17 с.
Вид битрейта                             : Переменный
Битрейт                                  : 199 Кбит/сек
Минимальный битрейт                      : 32,0 Кбит/сек
Каналы                                   : 2 канала
Частота                                  : 44,1 КГц
Метод сжатия                             : С потерями
Размер потока                            : 6,10 Мбайт (100%)
Библиотека кодирования                   : LAME3.97
Настройки программы                      : -m j -V 2 -q 3 -lowpass 18.6 --vbr-new -b 32
Язык                                     : English

Общее
Полное имя                               : F:\pravka\BAK XIII\Compilations\BAK XIII - 2009 - Best Of BAK XIII (Japanese Limited Edition)\02. Bak XIII - Open The Borders.mp3
Формат                                   : MPEG Audio
Размер файла                             : 5,14 Мбайт
Продолжительность                        : 4 м. 1 с.
Режим общего битрейта                    : Переменный
Общий поток                              : 178 Кбит/сек
Альбом                                   : Best Of Bak XIII
Трек                                     : Open The Borders
Трек/Положение                           : 02
Трек/Всего                               : 20
Исполнитель                              : Bak XIII
Кодирование произвёл                     : I'm Too Lame To Change The Default Settings
Жанр                                     : Electronic
Дата записи                              : 2009
Библиотека кодирования                   : LAME3.97
Примечание                               : Lbl:Death Watch Asia C:KAB07
PUBLISHER                                : Urgence Disk Records
DISCOGS_CATALOG                          : KAB-078
DISCOGS_COUNTRY                          : Japan
STYLE                                    : EBM
DISCOGS_RELEASED                         : 08 Aug 2009
DISCOGS_RELEASE_MONTH                    : 08
DISCOGS_ARTIST_LINK                      : Bak%20XIII
DISCOGS_LABEL_LINK                       : Urgence%20Disk%20Records
DISCOGS_RELEASE_ID                       : 2383229
DISCOGS_ORIGINAL_TRACK_NUMBER            : 02

Аудио
Формат                                   : MPEG Audio
Версия формата                           : Version 1
Профиль формата                          : Layer 3
Режим                                    : Joint stereo
Расширение режима                        : MS Stereo
Продолжительность                        : 4 м. 1 с.
Вид битрейта                             : Переменный
Битрейт                                  : 178 Кбит/сек
Минимальный битрейт                      : 32,0 Кбит/сек
Каналы                                   : 2 канала
Частота                                  : 44,1 КГц
Метод сжатия                             : С потерями
Размер потока                            : 5,14 Мбайт (100%)
Библиотека кодирования                   : LAME3.97
Настройки программы                      : -m j -V 2 -q 3 -lowpass 18.6 --vbr-new -b 32
Язык                                     : English

Общее
Полное имя                               : F:\pravka\BAK XIII\Compilations\BAK XIII - 2009 - Best Of BAK XIII (Japanese Limited Edition)\03. Bak XIII - Media Control.mp3
Формат                                   : MPEG Audio
Размер файла                             : 6,25 Мбайт
Продолжительность                        : 4 м. 41 с.
Режим общего битрейта                    : Переменный
Общий поток                              : 186 Кбит/сек
Альбом                                   : Best Of Bak XIII
Трек                                     : Media Control
Трек/Положение                           : 03
Трек/Всего                               : 20
Исполнитель                              : Bak XIII
Кодирование произвёл                     : I'm Too Lame To Change The Default Settings
Жанр                                     : Electronic
Дата записи                              : 2009
Библиотека кодирования                   : LAME3.97
Примечание                               : Lbl:Death Watch Asia C:KAB07
PUBLISHER                                : Urgence Disk Records
DISCOGS_CATALOG                          : KAB-078
DISCOGS_COUNTRY                          : Japan
STYLE                                    : EBM
DISCOGS_RELEASED                         : 08 Aug 2009
DISCOGS_RELEASE_MONTH                    : 08
DISCOGS_ARTIST_LINK                      : Bak%20XIII
DISCOGS_LABEL_LINK                       : Urgence%20Disk%20Records
DISCOGS_RELEASE_ID                       : 2383229
DISCOGS_ORIGINAL_TRACK_NUMBER            : 03

Аудио
Формат                                   : MPEG Audio
Версия формата                           : Version 1
Профиль формата                          : Layer 3
Режим                                    : Joint stereo
Расширение режима                        : MS Stereo
Продолжительность                        : 4 м. 41 с.
Вид битрейта                             : Переменный
Битрейт                                  : 186 Кбит/сек
Минимальный битрейт                      : 32,0 Кбит/сек
Каналы                                   : 2 канала
Частота                                  : 44,1 КГц
Метод сжатия                             : С потерями
Размер потока                            : 6,25 Мбайт (100%)
Библиотека кодирования                   : LAME3.97
Настройки программы                      : -m j -V 2 -q 3 -lowpass 18.6 --vbr-new -b 32
Язык                                     : English

Общее
Полное имя                               : F:\pravka\BAK XIII\Compilations\BAK XIII - 2009 - Best Of BAK XIII (Japanese Limited Edition)\04. Bak XIII - 80's Are Back Forever.mp3
Формат                                   : MPEG Audio
Размер файла                             : 4,38 Мбайт
Продолжительность                        : 3 м. 24 с.
Режим общего битрейта                    : Переменный
Общий поток                              : 180 Кбит/сек
Альбом                                   : Best Of Bak XIII
Трек                                     : 80's Are Back Forever
Трек/Положение                           : 04
Трек/Всего                               : 20
Исполнитель                              : Bak XIII
Кодирование произвёл                     : I'm Too Lame To Change The Default Settings
Жанр                                     : Electronic
Дата записи                              : 2009
Библиотека кодирования                   : LAME3.97
Примечание                               : Lbl:Death Watch Asia C:KAB07
PUBLISHER                                : Urgence Disk Records
DISCOGS_CATALOG                          : KAB-078
DISCOGS_COUNTRY                          : Japan
STYLE                                    : EBM
DISCOGS_RELEASED                         : 08 Aug 2009
DISCOGS_RELEASE_MONTH                    : 08
DISCOGS_ARTIST_LINK                      : Bak%20XIII
DISCOGS_LABEL_LINK                       : Urgence%20Disk%20Records
DISCOGS_RELEASE_ID                       : 2383229
DISCOGS_ORIGINAL_TRACK_NUMBER            : 04

Аудио
Формат                                   : MPEG Audio
Версия формата                           : Version 1
Профиль формата                          : Layer 3
Режим                                    : Joint stereo
Продолжительность                        : 3 м. 24 с.
Вид битрейта                             : Переменный
Битрейт                                  : 180 Кбит/сек
Минимальный битрейт                      : 32,0 Кбит/сек
Каналы                                   : 2 канала
Частота                                  : 44,1 КГц
Метод сжатия                             : С потерями
Размер потока                            : 4,38 Мбайт (100%)
Библиотека кодирования                   : LAME3.97
Настройки программы                      : -m j -V 2 -q 3 -lowpass 18.6 --vbr-new -b 32
Язык                                     : English

Общее
Полное имя                               : F:\pravka\BAK XIII\Compilations\BAK XIII - 2009 - Best Of BAK XIII (Japanese Limited Edition)\05. Bak XIII - Lost In Darkness (Guitar Mix).mp3
Формат                                   : MPEG Audio
Размер файла                             : 5,19 Мбайт
Продолжительность                        : 4 м. 14 с.
Режим общего битрейта                    : Переменный
Общий поток                              : 171 Кбит/сек
Альбом                                   : Best Of Bak XIII
Трек                                     : Lost In Darkness (Guitar Mix)
Трек/Положение                           : 05
Трек/Всего                               : 20
Исполнитель                              : Bak XIII
Кодирование произвёл                     : I'm Too Lame To Change The Default Settings
Жанр                                     : Electronic
Дата записи                              : 2009
Библиотека кодирования                   : LAME3.97
Примечание                               : Lbl:Death Watch Asia C:KAB07
PUBLISHER                                : Urgence Disk Records
DISCOGS_CATALOG                          : KAB-078
DISCOGS_COUNTRY                          : Japan
STYLE                                    : EBM
DISCOGS_RELEASED                         : 08 Aug 2009
DISCOGS_RELEASE_MONTH                    : 08
DISCOGS_ARTIST_LINK                      : Bak%20XIII
DISCOGS_LABEL_LINK                       : Urgence%20Disk%20Records
DISCOGS_RELEASE_ID                       : 2383229
DISCOGS_ORIGINAL_TRACK_NUMBER            : 05

Аудио
Формат                                   : MPEG Audio
Версия формата                           : Version 1
Профиль формата                          : Layer 3
Режим                                    : Joint stereo
Расширение режима                        : MS Stereo
Продолжительность                        : 4 м. 14 с.
Вид битрейта                             : Переменный
Битрейт                                  : 171 Кбит/сек
Минимальный битрейт                      : 32,0 Кбит/сек
Каналы                                   : 2 канала
Частота                                  : 44,1 КГц
Метод сжатия                             : С потерями
Размер потока                            : 5,18 Мбайт (100%)
Библиотека кодирования                   : LAME3.97
Настройки программы                      : -m j -V 2 -q 3 -lowpass 18.6 --vbr-new -b 32
Язык                                     : English

Общее
Полное имя                               : F:\pravka\BAK XIII\Compilations\BAK XIII - 2009 - Best Of BAK XIII (Japanese Limited Edition)\06. Bak XIII - Ghouls And Ghosts.mp3
Формат                                   : MPEG Audio
Размер файла                             : 5,23 Мбайт
Продолжительность                        : 4 м. 21 с.
Режим общего битрейта                    : Переменный
Общий поток                              : 167 Кбит/сек
Альбом                                   : Best Of Bak XIII
Трек                                     : Ghouls And Ghosts
Трек/Положение                           : 06
Трек/Всего                               : 20
Исполнитель                              : Bak XIII
Кодирование произвёл                     : I'm Too Lame To Change The Default Settings
Жанр                                     : Electronic
Дата записи                              : 2009
Библиотека кодирования                   : LAME3.97
Примечание                               : Lbl:Death Watch Asia C:KAB07
PUBLISHER                                : Urgence Disk Records
DISCOGS_CATALOG                          : KAB-078
DISCOGS_COUNTRY                          : Japan
STYLE                                    : EBM
DISCOGS_RELEASED                         : 08 Aug 2009
DISCOGS_RELEASE_MONTH                    : 08
DISCOGS_ARTIST_LINK                      : Bak%20XIII
DISCOGS_LABEL_LINK                       : Urgence%20Disk%20Records
DISCOGS_RELEASE_ID                       : 2383229
DISCOGS_ORIGINAL_TRACK_NUMBER            : 06

Аудио
Формат                                   : MPEG Audio
Версия формата                           : Version 1
Профиль формата                          : Layer 3
Режим                                    : Joint stereo
Расширение режима                        : MS Stereo
Продолжительность                        : 4 м. 21 с.
Вид битрейта                             : Переменный
Битрейт                                  : 167 Кбит/сек
Минимальный битрейт                      : 32,0 Кбит/сек
Каналы                                   : 2 канала
Частота                                  : 44,1 КГц
Метод сжатия                             : С потерями
Размер потока                            : 5,22 Мбайт (100%)
Библиотека кодирования                   : LAME3.97
Настройки программы                      : -m j -V 2 -q 3 -lowpass 18.6 --vbr-new -b 32
Язык                                     : English

Общее
Полное имя                               : F:\pravka\BAK XIII\Compilations\BAK XIII - 2009 - Best Of BAK XIII (Japanese Limited Edition)\07. Bak XIII - Dance And Die.mp3
Формат                                   : MPEG Audio
Размер файла                             : 4,02 Мбайт
Продолжительность                        : 3 м. 37 с.
Режим общего битрейта                    : Переменный
Общий поток                              : 155 Кбит/сек
Альбом                                   : Best Of Bak XIII
Трек                                     : Dance And Die
Трек/Положение                           : 07
Трек/Всего                               : 20
Исполнитель                              : Bak XIII
Кодирование произвёл                     : I'm Too Lame To Change The Default Settings
Жанр                                     : Electronic
Дата записи                              : 2009
Библиотека кодирования                   : LAME3.97
Примечание                               : Lbl:Death Watch Asia C:KAB07
PUBLISHER                                : Urgence Disk Records
DISCOGS_CATALOG                          : KAB-078
DISCOGS_COUNTRY                          : Japan
STYLE                                    : EBM
DISCOGS_RELEASED                         : 08 Aug 2009
DISCOGS_RELEASE_MONTH                    : 08
DISCOGS_ARTIST_LINK                      : Bak%20XIII
DISCOGS_LABEL_LINK                       : Urgence%20Disk%20Records
DISCOGS_RELEASE_ID                       : 2383229
DISCOGS_ORIGINAL_TRACK_NUMBER            : 07

Аудио
Формат                                   : MPEG Audio
Версия формата                           : Version 1
Профиль формата                          : Layer 3
Режим                                    : Joint stereo
Расширение режима                        : MS Stereo
Продолжительность                        : 3 м. 37 с.
Вид битрейта                             : Переменный
Битрейт                                  : 155 Кбит/сек
Минимальный битрейт                      : 32,0 Кбит/сек
Каналы                                   : 2 канала
Частота                                  : 44,1 КГц
Метод сжатия                             : С потерями
Размер потока                            : 4,02 Мбайт (100%)
Библиотека кодирования                   : LAME3.97
Настройки программы                      : -m j -V 2 -q 3 -lowpass 18.6 --vbr-new -b 32
Язык                                     : English

Общее
Полное имя                               : F:\pravka\BAK XIII\Compilations\BAK XIII - 2009 - Best Of BAK XIII (Japanese Limited Edition)\08. Bak XIII - Disco Armageddon.mp3
Формат                                   : MPEG Audio
Размер файла                             : 4,67 Мбайт
Продолжительность                        : 3 м. 49 с.
Режим общего битрейта                    : Переменный
Общий поток                              : 171 Кбит/сек
Альбом                                   : Best Of Bak XIII
Трек                                     : Disco Armageddon
Трек/Положение                           : 08
Трек/Всего                               : 20
Исполнитель                              : Bak XIII
Кодирование произвёл                     : I'm Too Lame To Change The Default Settings
Жанр                                     : Electronic
Дата записи                              : 2009
Библиотека кодирования                   : LAME3.97
Примечание                               : Lbl:Death Watch Asia C:KAB07
PUBLISHER                                : Urgence Disk Records
DISCOGS_CATALOG                          : KAB-078
DISCOGS_COUNTRY                          : Japan
STYLE                                    : EBM
DISCOGS_RELEASED                         : 08 Aug 2009
DISCOGS_RELEASE_MONTH                    : 08
DISCOGS_ARTIST_LINK                      : Bak%20XIII
DISCOGS_LABEL_LINK                       : Urgence%20Disk%20Records
DISCOGS_RELEASE_ID                       : 2383229
DISCOGS_ORIGINAL_TRACK_NUMBER            : 08

Аудио
Формат                                   : MPEG Audio
Версия формата                           : Version 1
Профиль формата                          : Layer 3
Режим                                    : Joint stereo
Расширение режима                        : MS Stereo
Продолжительность                        : 3 м. 49 с.
Вид битрейта                             : Переменный
Битрейт                                  : 171 Кбит/сек
Минимальный битрейт                      : 32,0 Кбит/сек
Каналы                                   : 2 канала
Частота                                  : 44,1 КГц
Метод сжатия                             : С потерями
Размер потока                            : 4,66 Мбайт (100%)
Библиотека кодирования                   : LAME3.97
Настройки программы                      : -m j -V 2 -q 3 -lowpass 18.6 --vbr-new -b 32
Язык                                     : English

Общее
Полное имя                               : F:\pravka\BAK XIII\Compilations\BAK XIII - 2009 - Best Of BAK XIII (Japanese Limited Edition)\09. Bak XIII - Homo Disco.mp3
Формат                                   : MPEG Audio
Размер файла                             : 4,58 Мбайт
Продолжительность                        : 3 м. 39 с.
Режим общего битрейта                    : Переменный
Общий поток                              : 175 Кбит/сек
Альбом                                   : Best Of Bak XIII
Трек                                     : Homo Disco
Трек/Положение                           : 09
Трек/Всего                               : 20
Исполнитель                              : Bak XIII
Кодирование произвёл                     : I'm Too Lame To Change The Default Settings
Жанр                                     : Electronic
Дата записи                              : 2009
Библиотека кодирования                   : LAME3.97
Примечание                               : Lbl:Death Watch Asia C:KAB07
PUBLISHER                                : Urgence Disk Records
DISCOGS_CATALOG                          : KAB-078
DISCOGS_COUNTRY                          : Japan
STYLE                                    : EBM
DISCOGS_RELEASED                         : 08 Aug 2009
DISCOGS_RELEASE_MONTH                    : 08
DISCOGS_ARTIST_LINK                      : Bak%20XIII
DISCOGS_LABEL_LINK                       : Urgence%20Disk%20Records
DISCOGS_RELEASE_ID                       : 2383229
DISCOGS_ORIGINAL_TRACK_NUMBER            : 09

Аудио
Формат                                   : MPEG Audio
Версия формата                           : Version 1
Профиль формата                          : Layer 3
Режим                                    : Joint stereo
Расширение режима                        : MS Stereo
Продолжительность                        : 3 м. 39 с.
Вид битрейта                             : Переменный
Битрейт                                  : 175 Кбит/сек
Минимальный битрейт                      : 32,0 Кбит/сек
Каналы                                   : 2 канала
Частота                                  : 44,1 КГц
Метод сжатия                             : С потерями
Размер потока                            : 4,57 Мбайт (100%)
Библиотека кодирования                   : LAME3.97
Настройки программы                      : -m j -V 2 -q 3 -lowpass 18.6 --vbr-new -b 32
Язык                                     : English

Общее
Полное имя                               : F:\pravka\BAK XIII\Compilations\BAK XIII - 2009 - Best Of BAK XIII (Japanese Limited Edition)\10. Bak XIII - Sad Song.mp3
Формат                                   : MPEG Audio
Размер файла                             : 3,41 Мбайт
Продолжительность                        : 2 м. 56 с.
Режим общего битрейта                    : Переменный
Общий поток                              : 161 Кбит/сек
Альбом                                   : Best Of Bak XIII
Трек                                     : Sad Song
Трек/Положение                           : 10
Трек/Всего                               : 20
Исполнитель                              : Bak XIII
Кодирование произвёл                     : I'm Too Lame To Change The Default Settings
Жанр                                     : Electronic
Дата записи                              : 2009
Библиотека кодирования                   : LAME3.97
Примечание                               : Lbl:Death Watch Asia C:KAB07
PUBLISHER                                : Urgence Disk Records
DISCOGS_CATALOG                          : KAB-078
DISCOGS_COUNTRY                          : Japan
STYLE                                    : EBM
DISCOGS_RELEASED                         : 08 Aug 2009
DISCOGS_RELEASE_MONTH                    : 08
DISCOGS_ARTIST_LINK                      : Bak%20XIII
DISCOGS_LABEL_LINK                       : Urgence%20Disk%20Records
DISCOGS_RELEASE_ID                       : 2383229
DISCOGS_ORIGINAL_TRACK_NUMBER            : 10

Аудио
Формат                                   : MPEG Audio
Версия формата                           : Version 1
Профиль формата                          : Layer 3
Режим                                    : Joint stereo
Расширение режима                        : MS Stereo
Продолжительность                        : 2 м. 56 с.
Вид битрейта                             : Переменный
Битрейт                                  : 161 Кбит/сек
Минимальный битрейт                      : 32,0 Кбит/сек
Каналы                                   : 2 канала
Частота                                  : 44,1 КГц
Метод сжатия                             : С потерями
Размер потока                            : 3,40 Мбайт (100%)
Библиотека кодирования                   : LAME3.97
Настройки программы                      : -m j -V 2 -q 3 -lowpass 18.6 --vbr-new -b 32
Язык                                     : English

Общее
Полное имя                               : F:\pravka\BAK XIII\Compilations\BAK XIII - 2009 - Best Of BAK XIII (Japanese Limited Edition)\11. Bak XIII - New Wave Party.mp3
Формат                                   : MPEG Audio
Размер файла                             : 4,72 Мбайт
Продолжительность                        : 3 м. 39 с.
Режим общего битрейта                    : Переменный
Общий поток                              : 180 Кбит/сек
Альбом                                   : Best Of Bak XIII
Трек                                     : New Wave Party
Трек/Положение                           : 11
Трек/Всего                               : 20
Исполнитель                              : Bak XIII
Кодирование произвёл                     : I'm Too Lame To Change The Default Settings
Жанр                                     : Electronic
Дата записи                              : 2009
Библиотека кодирования                   : LAME3.97
Примечание                               : Lbl:Death Watch Asia C:KAB07
PUBLISHER                                : Urgence Disk Records
DISCOGS_CATALOG                          : KAB-078
DISCOGS_COUNTRY                          : Japan
STYLE                                    : EBM
DISCOGS_RELEASED                         : 08 Aug 2009
DISCOGS_RELEASE_MONTH                    : 08
DISCOGS_ARTIST_LINK                      : Bak%20XIII
DISCOGS_LABEL_LINK                       : Urgence%20Disk%20Records
DISCOGS_RELEASE_ID                       : 2383229
DISCOGS_ORIGINAL_TRACK_NUMBER            : 11

Аудио
Формат                                   : MPEG Audio
Версия формата                           : Version 1
Профиль формата                          : Layer 3
Режим                                    : Joint stereo
Расширение режима                        : MS Stereo
Продолжительность                        : 3 м. 39 с.
Вид битрейта                             : Переменный
Битрейт                                  : 180 Кбит/сек
Минимальный битрейт                      : 32,0 Кбит/сек
Каналы                                   : 2 канала
Частота                                  : 44,1 КГц
Метод сжатия                             : С потерями
Размер потока                            : 4,72 Мбайт (100%)
Библиотека кодирования                   : LAME3.97
Настройки программы                      : -m j -V 2 -q 3 -lowpass 18.6 --vbr-new -b 32
Язык                                     : English

Общее
Полное имя                               : F:\pravka\BAK XIII\Compilations\BAK XIII - 2009 - Best Of BAK XIII (Japanese Limited Edition)\12. Bak XIII - VSKMR.mp3
Формат                                   : MPEG Audio
Размер файла                             : 4,96 Мбайт
Продолжительность                        : 4 м. 1 с.
Режим общего битрейта                    : Переменный
Общий поток                              : 172 Кбит/сек
Альбом                                   : Best Of Bak XIII
Трек                                     : VSKMR
Трек/Положение                           : 12
Трек/Всего                               : 20
Исполнитель                              : Bak XIII
Кодирование произвёл                     : I'm Too Lame To Change The Default Settings
Жанр                                     : Electronic
Дата записи                              : 2009
Библиотека кодирования                   : LAME3.97
Примечание                               : Lbl:Death Watch Asia C:KAB07
PUBLISHER                                : Urgence Disk Records
DISCOGS_CATALOG                          : KAB-078
DISCOGS_COUNTRY                          : Japan
STYLE                                    : EBM
DISCOGS_RELEASED                         : 08 Aug 2009
DISCOGS_RELEASE_MONTH                    : 08
DISCOGS_ARTIST_LINK                      : Bak%20XIII
DISCOGS_LABEL_LINK                       : Urgence%20Disk%20Records
DISCOGS_RELEASE_ID                       : 2383229
DISCOGS_ORIGINAL_TRACK_NUMBER            : 12

Аудио
Формат                                   : MPEG Audio
Версия формата                           : Version 1
Профиль формата                          : Layer 3
Режим                                    : Joint stereo
Продолжительность                        : 4 м. 1 с.
Вид битрейта                             : Переменный
Битрейт                                  : 172 Кбит/сек
Минимальный битрейт                      : 32,0 Кбит/сек
Каналы                                   : 2 канала
Частота                                  : 44,1 КГц
Метод сжатия                             : С потерями
Размер потока                            : 4,95 Мбайт (100%)
Библиотека кодирования                   : LAME3.97
Настройки программы                      : -m j -V 2 -q 3 -lowpass 18.6 --vbr-new -b 32
Язык                                     : English

Общее
Полное имя                               : F:\pravka\BAK XIII\Compilations\BAK XIII - 2009 - Best Of BAK XIII (Japanese Limited Edition)\13. Bak XIII - Welcome To The Void.mp3
Формат                                   : MPEG Audio
Размер файла                             : 3,19 Мбайт
Продолжительность                        : 2 м. 51 с.
Режим общего битрейта                    : Переменный
Общий поток                              : 156 Кбит/сек
Альбом                                   : Best Of Bak XIII
Трек                                     : Welcome To The Void
Трек/Положение                           : 13
Трек/Всего                               : 20
Исполнитель                              : Bak XIII
Кодирование произвёл                     : I'm Too Lame To Change The Default Settings
Жанр                                     : Electronic
Дата записи                              : 2009
Библиотека кодирования                   : LAME3.97
Примечание                               : Lbl:Death Watch Asia C:KAB07
PUBLISHER                                : Urgence Disk Records
DISCOGS_CATALOG                          : KAB-078
DISCOGS_COUNTRY                          : Japan
STYLE                                    : EBM
DISCOGS_RELEASED                         : 08 Aug 2009
DISCOGS_RELEASE_MONTH                    : 08
DISCOGS_ARTIST_LINK                      : Bak%20XIII
DISCOGS_LABEL_LINK                       : Urgence%20Disk%20Records
DISCOGS_RELEASE_ID                       : 2383229
DISCOGS_ORIGINAL_TRACK_NUMBER            : 13

Аудио
Формат                                   : MPEG Audio
Версия формата                           : Version 1
Профиль формата                          : Layer 3
Режим                                    : Joint stereo
Расширение режима                        : MS Stereo
Продолжительность                        : 2 м. 51 с.
Вид битрейта                             : Переменный
Битрейт                                  : 156 Кбит/сек
Минимальный битрейт                      : 32,0 Кбит/сек
Каналы                                   : 2 канала
Частота                                  : 44,1 КГц
Метод сжатия                             : С потерями
Размер потока                            : 3,19 Мбайт (100%)
Библиотека кодирования                   : LAME3.97
Настройки программы                      : -m j -V 2 -q 3 -lowpass 18.6 --vbr-new -b 32
Язык                                     : English

Общее
Полное имя                               : F:\pravka\BAK XIII\Compilations\BAK XIII - 2009 - Best Of BAK XIII (Japanese Limited Edition)\14. Bak XIII - Body Religion.mp3
Формат                                   : MPEG Audio
Размер файла                             : 4,34 Мбайт
Продолжительность                        : 3 м. 25 с.
Режим общего битрейта                    : Переменный
Общий поток                              : 177 Кбит/сек
Альбом                                   : Best Of Bak XIII
Трек                                     : Body Religion
Трек/Положение                           : 14
Трек/Всего                               : 20
Исполнитель                              : Bak XIII
Кодирование произвёл                     : I'm Too Lame To Change The Default Settings
Жанр                                     : Electronic
Дата записи                              : 2009
Библиотека кодирования                   : LAME3.97
Примечание                               : Lbl:Death Watch Asia C:KAB07
PUBLISHER                                : Urgence Disk Records
DISCOGS_CATALOG                          : KAB-078
DISCOGS_COUNTRY                          : Japan
STYLE                                    : EBM
DISCOGS_RELEASED                         : 08 Aug 2009
DISCOGS_RELEASE_MONTH                    : 08
DISCOGS_ARTIST_LINK                      : Bak%20XIII
DISCOGS_LABEL_LINK                       : Urgence%20Disk%20Records
DISCOGS_RELEASE_ID                       : 2383229
DISCOGS_ORIGINAL_TRACK_NUMBER            : 14

Аудио
Формат                                   : MPEG Audio
Версия формата                           : Version 1
Профиль формата                          : Layer 3
Режим                                    : Joint stereo
Расширение режима                        : MS Stereo
Продолжительность                        : 3 м. 25 с.
Вид битрейта                             : Переменный
Битрейт                                  : 177 Кбит/сек
Минимальный битрейт                      : 32,0 Кбит/сек
Каналы                                   : 2 канала
Частота                                  : 44,1 КГц
Метод сжатия                             : С потерями
Размер потока                            : 4,33 Мбайт (100%)
Библиотека кодирования                   : LAME3.97
Настройки программы                      : -m j -V 2 -q 3 -lowpass 18.6 --vbr-new -b 32
Язык                                     : English

Общее
Полное имя                               : F:\pravka\BAK XIII\Compilations\BAK XIII - 2009 - Best Of BAK XIII (Japanese Limited Edition)\15. Bak XIII - Lost.mp3
Формат                                   : MPEG Audio
Размер файла                             : 4,65 Мбайт
Продолжительность                        : 4 м. 0 с.
Режим общего битрейта                    : Переменный
Общий поток                              : 162 Кбит/сек
Альбом                                   : Best Of Bak XIII
Трек                                     : Lost
Трек/Положение                           : 15
Трек/Всего                               : 20
Исполнитель                              : Bak XIII
Кодирование произвёл                     : I'm Too Lame To Change The Default Settings
Жанр                                     : Electronic
Дата записи                              : 2009
Библиотека кодирования                   : LAME3.97
Примечание                               : Lbl:Death Watch Asia C:KAB07
PUBLISHER                                : Urgence Disk Records
DISCOGS_CATALOG                          : KAB-078
DISCOGS_COUNTRY                          : Japan
STYLE                                    : EBM
DISCOGS_RELEASED                         : 08 Aug 2009
DISCOGS_RELEASE_MONTH                    : 08
DISCOGS_ARTIST_LINK                      : Bak%20XIII
DISCOGS_LABEL_LINK                       : Urgence%20Disk%20Records
DISCOGS_RELEASE_ID                       : 2383229
DISCOGS_ORIGINAL_TRACK_NUMBER            : 15

Аудио
Формат                                   : MPEG Audio
Версия формата                           : Version 1
Профиль формата                          : Layer 3
Режим                                    : Joint stereo
Продолжительность                        : 4 м. 0 с.
Вид битрейта                             : Переменный
Битрейт                                  : 162 Кбит/сек
Минимальный битрейт                      : 32,0 Кбит/сек
Каналы                                   : 2 канала
Частота                                  : 44,1 КГц
Метод сжатия                             : С потерями
Размер потока                            : 4,65 Мбайт (100%)
Библиотека кодирования                   : LAME3.97
Настройки программы                      : -m j -V 2 -q 3 -lowpass 18.6 --vbr-new -b 32
Язык                                     : English

Общее
Полное имя                               : F:\pravka\BAK XIII\Compilations\BAK XIII - 2009 - Best Of BAK XIII (Japanese Limited Edition)\16. Bak XIII - Dead Again.mp3
Формат                                   : MPEG Audio
Размер файла                             : 4,60 Мбайт
Продолжительность                        : 4 м. 13 с.
Режим общего битрейта                    : Переменный
Общий поток                              : 152 Кбит/сек
Альбом                                   : Best Of Bak XIII
Трек                                     : Dead Again
Трек/Положение                           : 16
Трек/Всего                               : 20
Исполнитель                              : Bak XIII
Кодирование произвёл                     : I'm Too Lame To Change The Default Settings
Жанр                                     : Electronic
Дата записи                              : 2009
Библиотека кодирования                   : LAME3.97
Примечание                               : Lbl:Death Watch Asia C:KAB07
PUBLISHER                                : Urgence Disk Records
DISCOGS_CATALOG                          : KAB-078
DISCOGS_COUNTRY                          : Japan
STYLE                                    : EBM
DISCOGS_RELEASED                         : 08 Aug 2009
DISCOGS_RELEASE_MONTH                    : 08
DISCOGS_ARTIST_LINK                      : Bak%20XIII
DISCOGS_LABEL_LINK                       : Urgence%20Disk%20Records
DISCOGS_RELEASE_ID                       : 2383229
DISCOGS_ORIGINAL_TRACK_NUMBER            : 16

Аудио
Формат                                   : MPEG Audio
Версия формата                           : Version 1
Профиль формата                          : Layer 3
Режим                                    : Joint stereo
Расширение режима                        : MS Stereo
Продолжительность                        : 4 м. 13 с.
Вид битрейта                             : Переменный
Битрейт                                  : 152 Кбит/сек
Минимальный битрейт                      : 32,0 Кбит/сек
Каналы                                   : 2 канала
Частота                                  : 44,1 КГц
Метод сжатия                             : С потерями
Размер потока                            : 4,59 Мбайт (100%)
Библиотека кодирования                   : LAME3.97
Настройки программы                      : -m j -V 2 -q 3 -lowpass 18.6 --vbr-new -b 32
Язык                                     : English

Общее
Полное имя                               : F:\pravka\BAK XIII\Compilations\BAK XIII - 2009 - Best Of BAK XIII (Japanese Limited Edition)\17. Bak XIII - Nothing Left To Believe.mp3
Формат                                   : MPEG Audio
Размер файла                             : 6,98 Мбайт
Продолжительность                        : 4 м. 28 с.
Режим общего битрейта                    : Переменный
Общий поток                              : 218 Кбит/сек
Альбом                                   : Best Of Bak XIII
Трек                                     : Nothing Left To Believe
Трек/Положение                           : 17
Трек/Всего                               : 20
Исполнитель                              : Bak XIII
Кодирование произвёл                     : I'm Too Lame To Change The Default Settings
Жанр                                     : Electronic
Дата записи                              : 2009
Библиотека кодирования                   : LAME3.97
Примечание                               : Lbl:Death Watch Asia C:KAB07
PUBLISHER                                : Urgence Disk Records
DISCOGS_CATALOG                          : KAB-078
DISCOGS_COUNTRY                          : Japan
STYLE                                    : EBM
DISCOGS_RELEASED                         : 08 Aug 2009
DISCOGS_RELEASE_MONTH                    : 08
DISCOGS_ARTIST_LINK                      : Bak%20XIII
DISCOGS_LABEL_LINK                       : Urgence%20Disk%20Records
DISCOGS_RELEASE_ID                       : 2383229
DISCOGS_ORIGINAL_TRACK_NUMBER            : 17

Аудио
Формат                                   : MPEG Audio
Версия формата                           : Version 1
Профиль формата                          : Layer 3
Режим                                    : Joint stereo
Продолжительность                        : 4 м. 28 с.
Вид битрейта                             : Переменный
Битрейт                                  : 218 Кбит/сек
Минимальный битрейт                      : 32,0 Кбит/сек
Каналы                                   : 2 канала
Частота                                  : 44,1 КГц
Метод сжатия                             : С потерями
Размер потока                            : 6,98 Мбайт (100%)
Библиотека кодирования                   : LAME3.97
Настройки программы                      : -m j -V 2 -q 3 -lowpass 18.6 --vbr-new -b 32
Язык                                     : English

Общее
Полное имя                               : F:\pravka\BAK XIII\Compilations\BAK XIII - 2009 - Best Of BAK XIII (Japanese Limited Edition)\18. Bak XIII - Where's The Party.mp3
Формат                                   : MPEG Audio
Размер файла                             : 4,70 Мбайт
Продолжительность                        : 3 м. 44 с.
Режим общего битрейта                    : Переменный
Общий поток                              : 175 Кбит/сек
Альбом                                   : Best Of Bak XIII
Трек                                     : Where's The Party?
Трек/Положение                           : 18
Трек/Всего                               : 20
Исполнитель                              : Bak XIII
Кодирование произвёл                     : I'm Too Lame To Change The Default Settings
Жанр                                     : Electronic
Дата записи                              : 2009
Библиотека кодирования                   : LAME3.97
Примечание                               : Lbl:Death Watch Asia C:KAB07
PUBLISHER                                : Urgence Disk Records
DISCOGS_CATALOG                          : KAB-078
DISCOGS_COUNTRY                          : Japan
STYLE                                    : EBM
DISCOGS_RELEASED                         : 08 Aug 2009
DISCOGS_RELEASE_MONTH                    : 08
DISCOGS_ARTIST_LINK                      : Bak%20XIII
DISCOGS_LABEL_LINK                       : Urgence%20Disk%20Records
DISCOGS_RELEASE_ID                       : 2383229
DISCOGS_ORIGINAL_TRACK_NUMBER            : 18

Аудио
Формат                                   : MPEG Audio
Версия формата                           : Version 1
Профиль формата                          : Layer 3
Режим                                    : Joint stereo
Расширение режима                        : MS Stereo
Продолжительность                        : 3 м. 44 с.
Вид битрейта                             : Переменный
Битрейт                                  : 175 Кбит/сек
Минимальный битрейт                      : 32,0 Кбит/сек
Каналы                                   : 2 канала
Частота                                  : 44,1 КГц
Метод сжатия                             : С потерями
Размер потока                            : 4,70 Мбайт (100%)
Библиотека кодирования                   : LAME3.97
Настройки программы                      : -m j -V 2 -q 3 -lowpass 18.6 --vbr-new -b 32
Язык                                     : English

Общее
Полное имя                               : F:\pravka\BAK XIII\Compilations\BAK XIII - 2009 - Best Of BAK XIII (Japanese Limited Edition)\19. Bak XIII - [censored] You And Dance.mp3
Формат                                   : MPEG Audio
Размер файла                             : 6,24 Мбайт
Продолжительность                        : 4 м. 9 с.
Режим общего битрейта                    : Переменный
Общий поток                              : 210 Кбит/сек
Альбом                                   : Best Of Bak XIII
Трек                                     : [censored] You And Dance
Трек/Положение                           : 19
Трек/Всего                               : 20
Исполнитель                              : Bak XIII
Кодирование произвёл                     : I'm Too Lame To Change The Default Settings
Жанр                                     : Electronic
Дата записи                              : 2009
Библиотека кодирования                   : LAME3.97
Примечание                               : Lbl:Death Watch Asia C:KAB07
PUBLISHER                                : Urgence Disk Records
DISCOGS_CATALOG                          : KAB-078
DISCOGS_COUNTRY                          : Japan
STYLE                                    : EBM
DISCOGS_RELEASED                         : 08 Aug 2009
DISCOGS_RELEASE_MONTH                    : 08
DISCOGS_ARTIST_LINK                      : Bak%20XIII
DISCOGS_LABEL_LINK                       : Urgence%20Disk%20Records
DISCOGS_RELEASE_ID                       : 2383229
DISCOGS_ORIGINAL_TRACK_NUMBER            : 19

Аудио
Формат                                   : MPEG Audio
Версия формата                           : Version 1
Профиль формата                          : Layer 3
Режим                                    : Joint stereo
Расширение режима                        : MS Stereo
Продолжительность                        : 4 м. 9 с.
Вид битрейта                             : Переменный
Битрейт                                  : 210 Кбит/сек
Минимальный битрейт                      : 32,0 Кбит/сек
Каналы                                   : 2 канала
Частота                                  : 44,1 КГц
Метод сжатия                             : С потерями
Размер потока                            : 6,23 Мбайт (100%)
Библиотека кодирования                   : LAME3.97
Настройки программы                      : -m j -V 2 -q 3 -lowpass 18.6 --vbr-new -b 32
Язык                                     : English

Общее
Полное имя                               : F:\pravka\BAK XIII\Compilations\BAK XIII - 2009 - Best Of BAK XIII (Japanese Limited Edition)\20. Bak XIII - Manifeste.mp3
Формат                                   : MPEG Audio
Размер файла                             : 4,18 Мбайт
Продолжительность                        : 3 м. 44 с.
Режим общего битрейта                    : Переменный
Общий поток                              : 156 Кбит/сек
Альбом                                   : Best Of Bak XIII
Трек                                     : Manifeste
Трек/Положение                           : 20
Трек/Всего                               : 20
Исполнитель                              : Bak XIII
Кодирование произвёл                     : I'm Too Lame To Change The Default Settings
Жанр                                     : Electronic
Дата записи                              : 2009
Библиотека кодирования                   : LAME3.97
Примечание                               : Lbl:Death Watch Asia C:KAB07
PUBLISHER                                : Urgence Disk Records
DISCOGS_CATALOG                          : KAB-078
DISCOGS_COUNTRY                          : Japan
STYLE                                    : EBM
DISCOGS_RELEASED                         : 08 Aug 2009
DISCOGS_RELEASE_MONTH                    : 08
DISCOGS_ARTIST_LINK                      : Bak%20XIII
DISCOGS_LABEL_LINK                       : Urgence%20Disk%20Records
DISCOGS_RELEASE_ID                       : 2383229
DISCOGS_ORIGINAL_TRACK_NUMBER            : 20

Аудио
Формат                                   : MPEG Audio
Версия формата                           : Version 1
Профиль формата                          : Layer 3
Режим                                    : Joint stereo
Расширение режима                        : MS Stereo
Продолжительность                        : 3 м. 44 с.
Вид битрейта                             : Переменный
Битрейт                                  : 156 Кбит/сек
Минимальный битрейт                      : 32,0 Кбит/сек
Каналы                                   : 2 канала
Частота                                  : 44,1 КГц
Метод сжатия                             : С потерями
Размер потока                            : 4,17 Мбайт (100%)
Библиотека кодирования                   : LAME3.97
Настройки программы                      : -m j -V 2 -q 3 -lowpass 18.6 --vbr-new -b 32
Язык                                     : English

Общее
Полное имя                               : F:\pravka\BAK XIII\Compilations\BAK XIII - 2009 - Best Of BAK XIII (Japanese Limited Edition)\cover.jpg
Формат                                   : JPEG
Размер файла                             : 39,0 Кбайт

Изображения
Формат                                   : JPEG
Ширина                                   : 300 пикселей
Высота                                   : 300 пикселей
Цветовое пространство                    : YUV
Субдискретизация насыщенности            : 4:2:2
Битовая глубина                          : 8 бит
Метод сжатия                             : С потерями
Размер потока                            : 39,0 Кбайт (100%)



Время раздачи: от 18:00 до 01:00
[NNM-Club.me]_BAK XIII.torrent
 Торрент: Платиновая раздача  Зарегистрирован
 
Скачать


Примагнититься
 Зарегистрирован:   27 Ноя 2013 00:30:47
 Размер:   892 MB  (
 Рейтинг:   4,9 (Голосов: 14)
 Поблагодарили:   51
 Проверка:   Оформление проверено модератором 27 Ноя 2013 00:32:22
Как cкачать  ·  Как раздать  ·  Правильно оформить  ·  Поднять ратио!  
ironi
Стаж: 12 лет 6 мес.
Сообщений: 131
Ratio: 16,377
Поблагодарили: 322
18.4%
barbados.gif
Супер группа!
Показать сообщения:   
Начать новую тему   Ответить на тему    Торрент-трекер NNM-Club -> Electronic -> Industrial, EBM, Dark Electro Часовой пояс: GMT + 3
Страница 1 из 1