Классический форум-трекер
canvas not supported
Нас вместе: 4 079 468

Сталинград (2013) BDRip [1080p] 3D [Вертикальная анаморфная стереопара]


Страницы:   Пред.  1, 2 
 
RSS
Начать новую тему   Ответить на тему    Торрент-трекер NNM-Club -> Отечественное кино -> Отечественные Фильмы (3D)
Автор Сообщение
igor nisan ®
RG Всё лучшее - детям!
 
Стаж: 8 лет
Сообщений: 740
Ratio: 50,895
Поблагодарили: 97992
100%
ukraine.gif
Сталинград (2013) BDRip
Год выпуска: 2013
Производство: Россия /Арт Пикчерс Студия, Нон-стоп Продакшн, Main Road Post
Жанр: Военный, Драма, Боевик
Перевод: Не требуется
Субтитры: Отсутствуют

Дата мировой премьеры: 10 октября 2013
Дата российской премьеры: 10 октября 2013, «WDSSPR»
Дата выхода DVD релиза: 4 декабря 2013, «Lizard Cinema Trade»
Дата выхода BLY-RAY релиза: 4 декабря 2013, «Lizard Cinema Trade»

Режиссер: Фёдор Бондарчук
Продюсер: Сергей Мелькумов, Антон Златопольский, Дмитрий Рудовский
Актеры: Мария Смольникова, Янина Студилина, Пётр Фёдоров, Томас Кречман, Сергей Бондарчук, Дмитрий Лысенков, Андрей Смоляков, Алексей Барабаш, Олег Волку, Хайнер Лаутербах, Полина Райкина, Анна Вон Аблер, Юрий Назаров

Описание фильма:
1942-й год. Сталинград. Советские войска планируют контрнаступление на немецкие части, занявшие правый берег Волги. Наступление сорвано. Лишь разведчикам под командованием капитана Громова удается перебраться на другой берег и закрепиться в одном из домов. Им дан приказ удержать его любой ценой. Кроме нескольких чудом уцелевших советских солдат они находят в доме его последнюю жительницу — 19-летнюю Катю.
Приказ отбить дом, захваченный противником, получает немецкий офицер Кан. На фоне одного из самых кровопролитных сражений в истории человечества разворачиваются истории любви и драматического противостояния характеров.


Возраст: Зрителям, достигшим 12 лет
Продолжительность: 02:10:48
Качество видео: BDRip

Видеокодек: MPEG-4 AVC/H.264
Битрейт видео: ~12,8 Мбит/сек
Размер кадра: 1920x1080
Аудио 1: AC3 5.1, 640 kbps [Русский]
Общее
Уникальный идентификатор : 188838400475286835371526378460301124283 (0x8E10F3F8A179B786B8DC1828C77662BB)
Полное имя : F:\my films\STALINGRAD_3D.mkv
Формат : Matroska
Версия формата : Version 2
Размер файла : 12,5 Гбайт
Продолжительность : 2 ч. 10 м.
Общий поток : 13,7 Мбит/сек
Название фильма : STALINGRAD_3D_CROP_O/U
Дата кодирования : UTC 2013-12-03 06:22:40
Программа кодирования : mkvmerge v5.7.0 ('The Whirlwind') built on Aug 7 2012 14:11:40
Библиотека кодирования : libebml v1.2.3 + libmatroska v1.3.0

Видео
Идентификатор : 1
Формат : AVC
Формат/Информация : Advanced Video Codec
Профиль формата : High@L4.1
Параметр CABAC формата : Да
Параметр ReFrames формата : 4 кадра
Идентификатор кодека : V_MPEG4/ISO/AVC
Продолжительность : 2 ч. 10 м.
Битрейт : 12,8 Мбит/сек
Ширина : 1920 пикселей
Высота : 1080 пикселей
Соотношение сторон : 16:9
Режим частоты кадров : Постоянный
Частота кадров : 23,976 кадра/сек
Цветовое пространство : YUV
Субдискретизация насыщенности : 4:2:0
Битовая глубина : 8 бит
Тип развёртки : Прогрессивная
Бит/(Пиксели*Кадры) : 0.257
Размер потока : 11,7 Гбайт (93%)
Заголовок : rip by I/N
Библиотека кодирования : x264 core 128 r2216M 198a7ea
Настройки программы : cabac=1 / ref=4 / deblock=1:-3:-3 / analyse=0x3:0x133 / me=umh / subme=10 / psy=1 / psy_rd=1.00:0.15 / mixed_ref=1 / me_range=32 / chroma_me=1 / trellis=2 / 8x8dct=1 / cqm=0 / deadzone=21,11 / fast_pskip=1 / chroma_qp_offset=-3 / threads=8 / lookahead_threads=1 / sliced_threads=0 / nr=0 / decimate=1 / interlaced=0 / bluray_compat=0 / constrained_intra=0 / bframes=6 / b_pyramid=2 / b_adapt=2 / b_bias=0 / direct=3 / weightb=1 / open_gop=0 / weightp=2 / keyint=230 / keyint_min=23 / scenecut=40 / intra_refresh=0 / rc_lookahead=60 / rc=crf / mbtree=1 / crf=17.0 / qcomp=0.60 / qpmin=0 / qpmax=69 / qpstep=4 / vbv_maxrate=40000 / vbv_bufsize=30000 / crf_max=30.0 / nal_hrd=none / ip_ratio=1.40 / aq=1:1.00
Default : Да
Forced : Нет

Аудио
Идентификатор : 2
Формат : AC-3
Формат/Информация : Audio Coding 3
Расширение режима : CM (complete main)
Параметр Endianness формата : Big
Идентификатор кодека : A_AC3
Продолжительность : 2 ч. 10 м.
Вид битрейта : Постоянный
Битрейт : 640 Кбит/сек
Каналы : 6 каналов
Расположение каналов : Front: L C R, Side: L R, LFE
Частота : 48,0 КГц
Битовая глубина : 16 бит
Метод сжатия : С потерями
Размер потока : 599 Мбайт (5%)
Заголовок : Original
Язык : Russian
Default : Да
Forced : Нет

Меню
00:00:00.000 : en:(01)00:00:00:000
00:15:37.436 : en:(02)00:15:37:436
00:31:59.334 : en:(03)00:31:59:334
00:46:05.888 : en:(04)00:46:05:888
01:03:22.048 : en:(05)01:03:22:048
01:20:44.840 : en:(06)01:20:44:840
01:35:53.164 : en:(07)01:35:53:164
01:51:11.790 : en:(08)01:51:11:790
02:10:48.674 : en:(09)02:10:48:674
Справа и слева у видеоряда обрезано по 258р, что дает возможность просмотра на полный экран (без черных полос) на телевизорах с соотношением сторон 16:9 без изменения пропорций. На мой взгляд плюсы данных рипов- это более глубокое восприятие 3D-эффектов (конечно там где они есть) К минусам отнесу- вынужденное обрезание кадра по бокам. Так-что господа- выбор за вами! Всем приятного просмотра!
Проверено на встроенном плейере ТВ Samsung-D6500
Скриншоты:



Время раздачи: 24/7 - круглосуточно до 10 скачавших
[NNM-Club.me]_STALINGRAD_3D.mkv.torrent
 Торрент: Платиновая раздача  Зарегистрирован
 
Скачать


Примагнититься
 Зарегистрирован:   03 Дек 2013 10:15:27
 Размер:   12,5 GB  (
 Рейтинг:   4,4 (Голосов: 348)
 Поблагодарили:   1310
 Проверка:   Оформление проверено модератором 04 Дек 2013 03:37:42
Как cкачать  ·  Как раздать  ·  Правильно оформить  ·  Поднять ратио!  
Alexkon1967
Стаж: 7 лет 10 мес.
Сообщений: 131
Ratio: 309,565
Поблагодарили: 203
100%
Откуда: Одинцово
russia.gif
YouTube YouTube

Сталинграду было бы лучше без Бондарчука.Общее впечатление от фильма "Сталинград": длинная муть, противоречащая всем нашим представлениям о Сталинградской битве. Сюрреалистическая фантазия на тему войны в исполнении бойцов времен Чеченской кампании. Нелепая драма отношений советского бойца с уцелевшей жительницей Сталинграда, развивающаяся параллельно с не менее нелепой драмой любви немецкого капитана к еще одной выжившей жительнице Сталинграда, отсиживающейся в полуразрушенном подвале. Странные слова в устах советских бойцов, странные поступки практически всех героев, невероятно затянутый монотонный сюжет, который не становится более живым даже во время нескольких редких попыток сходить в атаку. Два часа какой-то человеческой возни на фоне чуть ли не абсолютной тишины. И это во время Сталинградской битвы....
K_I_D
 
Стаж: 10 лет 2 мес.
Сообщений: 45
Ratio: 40,917
100%
Откуда: Moscow
russia.gif
zzz98

Спасибо!

Добавлено спустя 2 минуты 28 секунд:

BUB - DSC какая разница почему?!

_________________
Never get out of your car!
Champion
Стаж: 10 лет 3 мес.
Сообщений: 40
Ratio: 6,889
2.89%
Откуда: Новокузнецк
russia.gif
как скачать   бондарчука?
MaxZus
Стаж: 6 лет 5 мес.
Сообщений: 406
Ratio: 6,697
100%
ussr.gif
От же ж ГОВОФИЛЬМЕЦ
millerai
Стаж: 8 лет 11 мес.
Сообщений: 1
Ratio: 0,371
0%
Хм, а почему вес пишет 9.95, а заявлен 12,5?
vdota
Стаж: 8 лет 6 мес.
Сообщений: 1
Ratio: 12,044
25%
russia.gif
Спс за релиз
weather
 
Стаж: 8 лет 8 мес.
Сообщений: 989
Ratio: 16,274
Раздал: 65,73 TB
Поблагодарили: 3850
100%
kyrgyzstan.gif
iceru36 писал(а): Перейти к сообщению
Содержание данного фильма не соответствует названию и смыслу который был в рекламе (трейлере). Люди шли в кинотеатры (я то же ходил) посмотреть на Сталинградскую битву, ну или хотя бы на историю типа "сражение за дом "Павлова"", а попали на просмотр фильма под названием "Я, великий гений кинематографа, могу снять посредственное кино и продать его как Супер блокбастер". Фильм собран из сплошных штампов - ничего нового. Посмотреть можно 1 раз не больше. Еще одно хамство, которое совершил Бондарчук, по отношению к зрителю - это использование саундтрека "What A Wonderful World" в трейлере и отсутствие его в фильме (ждал до последних букв титров).
ИМХО - "Враг у ворот" круче.


Также полностью разочарован!
Качество 3D и звук в норме!
Показать сообщения:   
Начать новую тему   Ответить на тему    Торрент-трекер NNM-Club -> Отечественное кино -> Отечественные Фильмы (3D) Часовой пояс: GMT + 3
Страницы:   Пред.  1, 2
Страница 2 из 2