Классический форум-трекер
canvas not supported
Нас вместе: 4 079 177

Сталинград (2013) BDRip [1080p] 3D [Вертикальная анаморфная стереопара]


Страницы:   Пред.  1, 2, 3, 4, 5 
 
RSS
Начать новую тему   Ответить на тему    Торрент-трекер NNM-Club -> Отечественное кино -> Отечественные Фильмы (3D)
Автор Сообщение
Lelya_K ®
Стаж: 8 лет 6 мес.
Сообщений: 5538
Ratio: 7169,418
Раздал: 109,3 TB
Поблагодарили: 618961
100%
Откуда: Московская область
nnm-club.gif
Сталинград (2013) BDRip
«Между жизнью и смертью есть место любви и надежде»

Год выпуска: 2013
Производство: Россия / Арт Пикчерс Студия
Жанр: Военный, Драма, Боевик
Перевод: Не требуется (Русский язык)
Субтитры: Отсутствуют

Режиссер: Фёдор Бондарчук
Продюсер: Сергей Мелькумов, Антон Златопольский, Дмитрий Рудовский
Актеры: Мария Смольникова, Яна Студилина, Пётр Фёдоров, Томас Кречман, Сергей Бондарчук, Дмитрий Лысенков, Андрей Смоляков, Алексей Барабаш, Олег Волку, Хайнер Лаутербах

Описание фильма:
1942-й год. Сталинград. Советские войска планируют контрнаступление на немецкие части, занявшие правый берег Волги. Наступление сорвано. Лишь разведчикам под командованием капитана Громова удается перебраться на другой берег и закрепиться в одном из домов. Им дан приказ удержать его любой ценой. Кроме нескольких чудом уцелевших советских солдат они находят в доме его последнюю жительницу — 19-летнюю Катю. Приказ отбить дом, захваченный противником, получает немецкий офицер Кан. На фоне одного из самых кровопролитных сражений в истории человечества разворачиваются истории любви и драматического противостояния характеров.



Дата мировой премьеры: 10 октября 2013
Дата российской премьеры: 10 октября 2013, «WDSSPR»
Дата выхода DVD релиза: 4 декабря 2013, «Lizard Cinema Trade»
Дата выхода Blu-Ray релиза: 4 декабря 2013, «Lizard Cinema Trade»

Возраст: 12+

Продолжительность: 02:10:48
Качество видео: BDRip [Ash61]

Видео: MPEG4_AVC/H.264, 1920x1080, ~8533 kbps, 23.976 fps
Аудио 1: DTS 5.1, 1536 kbps, 48 kHz [Русский]
Аудио 2: AC3 5.1, 640 kbps, 48 kHz [Русский]
Полное имя : D:\Сталинград.(2013).BDRip.[1080p].3D.mkv
Формат : Matroska
Версия формата : Version 2
Размер файла : 9,96 Гбайт
Продолжительность : 2 ч. 10 м.
Общий поток : 10,9 Мбит/сек
Название фильма : Сталинград (2013) 3D
Дата кодирования : UTC 2013-12-04 01:27:09
Программа кодирования : mkvmerge v5.7.0 ('The Whirlwind') built on Aug 7 2012 14:11:40
Библиотека кодирования : libebml v1.2.3 + libmatroska v1.3.0

Видео
Идентификатор : 1
Формат : AVC
Формат/Информация : Advanced Video Codec
Профиль формата : High@L4.1
Параметр CABAC формата : Да
Параметр ReFrames формата : 4 кадра
Идентификатор кодека : V_MPEG4/ISO/AVC
Продолжительность : 2 ч. 10 м.
Битрейт : 8533 Кбит/сек
Ширина : 1920 пикселей
Высота : 1080 пикселей
Соотношение сторон : 16:9
Режим частоты кадров : Постоянный
Частота кадров : 23,976 кадра/сек
Цветовое пространство : YUV
Субдискретизация насыщенности : 4:2:0
Битовая глубина : 8 бит
Тип развёртки : Прогрессивная
Бит/(Пиксели*Кадры) : 0.172
Размер потока : 7,80 Гбайт (78%)
Библиотека кодирования : x264 core 129 r2245 bc13772
Настройки программы : cabac=1 / ref=4 / deblock=1:-3:-3 / analyse=0x3:0x113 / me=umh / subme=10 / psy=1 / psy_rd=1.00:0.15 / mixed_ref=1 / me_range=32 / chroma_me=1 / trellis=2 / 8x8dct=1 / cqm=0 / deadzone=21,11 / fast_pskip=1 / chroma_qp_offset=-3 / threads=12 / lookahead_threads=2 / sliced_threads=0 / nr=0 / decimate=1 / interlaced=0 / bluray_compat=0 / constrained_intra=0 / bframes=9 / b_pyramid=2 / b_adapt=2 / b_bias=0 / direct=3 / weightb=1 / open_gop=0 / weightp=2 / keyint=250 / keyint_min=23 / scenecut=40 / intra_refresh=0 / rc_lookahead=60 / rc=crf / mbtree=1 / crf=17.0 / qcomp=0.70 / qpmin=0 / qpmax=69 / qpstep=4 / vbv_maxrate=40000 / vbv_bufsize=30000 / crf_max=0.0 / nal_hrd=none / frame-packing=4 / ip_ratio=1.40 / aq=1:0.70
Язык : Russian
Default : Да
Forced : Нет

Аудио #1
Идентификатор : 2
Формат : DTS
Формат/Информация : Digital Theater Systems
Идентификатор кодека : A_DTS
Продолжительность : 2 ч. 10 м.
Вид битрейта : Постоянный
Битрейт : 1510 Кбит/сек
Каналы : 6 каналов
Расположение каналов : Front: L C R, Side: L R, LFE
Частота : 48,0 КГц
Битовая глубина : 24 бит
Метод сжатия : С потерями
Размер потока : 1,38 Гбайт (14%)
Заголовок : DTS 5.1 / 1536 kbps (Blu-Ray 3D RUS)
Язык : Russian
Default : Да
Forced : Нет

Аудио #2
Идентификатор : 3
Формат : AC-3
Формат/Информация : Audio Coding 3
Расширение режима : CM (complete main)
Параметр Endianness формата : Big
Идентификатор кодека : A_AC3
Продолжительность : 2 ч. 10 м.
Вид битрейта : Постоянный
Битрейт : 640 Кбит/сек
Каналы : 6 каналов
Расположение каналов : Front: L C R, Side: L R, LFE
Частота : 48,0 КГц
Битовая глубина : 16 бит
Метод сжатия : С потерями
Размер потока : 599 Мбайт (6%)
Заголовок : AC3 5.1 / 640 kbps (Blu-Ray 3D RUS)
Язык : Russian
Default : Нет
Forced : Нет

Меню
00:00:00.000 : en:00:00:00.000
00:15:37.436 : en:00:15:37.436
00:31:59.334 : en:00:31:59.334
00:46:05.888 : en:00:46:05.888
01:03:22.048 : en:01:03:22.048
01:20:44.840 : en:01:20:44.840
01:35:53.164 : en:01:35:53.164
01:51:11.790 : en:01:51:11.790
Скриншоты:


Время раздачи: 24/7 (до 10 скачавших)
»» Все релизы этого фильма на NNM-Club
[NNM-Club.me]_Stalingrad.(2013).BDRip.[1080p].3D.mkv.torrent
 Торрент: Платиновая раздача  Зарегистрирован
 
Скачать


Примагнититься
 Зарегистрирован:   04 Дек 2013 05:11:02
 Размер:   9,96 GB  (
 Рейтинг:   4,1 (Голосов: 262)
 Поблагодарили:   991
 Проверка:   Оформление проверено модератором 04 Дек 2013 06:45:51
Как cкачать  ·  Как раздать  ·  Правильно оформить  ·  Поднять ратио!  
Загрузка...
YuranTM
Стаж: 7 лет 8 мес.
Сообщений: 10
Ratio: 85,939
100%
russia.gif
maxus2008 писал(а): Перейти к сообщению
YuranTM писал(а): Перейти к сообщению
Привет, Всем!!! Ребята киньте файлик на ys-76 @ mail.ru


Жми на магнит над "скачать".


Спасибо!!! =)
stas 67
Стаж: 8 лет 6 мес.
Сообщений: 42
Ratio: 28,258
5.13%
Откуда: ЮРГА
russia.gif
что то я не догоняю ,зачем это здесь висит если скачать нельзя?????????????
Valyak
Стаж: 9 лет 8 мес.
Сообщений: 1161
Ratio: 23,104
34.3%
Откуда: г. Брянск
ussr.gif
stas 67 писал(а): Перейти к сообщению
что то я не догоняю ,зачем это здесь висит если скачать нельзя?????????????

Ну люди пишут, что они скачивают с помощью магнитной ссылки.
Меня больше другое удивляет, откуда столько людей взялось, которые съели это   и просто счастливы от восторга. И раз кто то ещё и скачать хочет, то видать и советуют другим его поесть..
Сергей Юг
Стаж: 6 лет 4 мес.
Сообщений: 65
Ratio: 7,659
3.95%
когда можно будет скачать?
Shvod
Стаж: 8 лет 7 мес.
Сообщений: 6
Ratio: 3,359
0%
Да вроде началось качаться... Посмотрим... что бы знать хаять или не хаять этот фильм.
igorlisovoy
Стаж: 10 лет 6 мес.
Сообщений: 23
Ratio: 0,911
1.15%
spain.gif
Рассуждать о шедевральности не буду - это излишне. А то что эсесовцев типа "людьми" показали - с этим не согласен. Так как любые нацисты и им подобные (националисты, религиозные фанатики и т.д.) - для меня людьми не являются и место им в "зоопарке". Подобные фильмы нельзя строить ни по какому другому принципу, кроме патриотического. Тем более, что подвиг народа был на лицо. Лгать - тоже не красиво. Но тогда уж лучше не строить фильмы так, что у нас больше плохого, чем хорошего. Впрочем, к этому фильму это отношения не имеет. А молодежи нужно напоминать, что "Я - русский! Какой восторг!" А то ведь превратиться в серую массу и заболеет всякой чушью... Я лично, живу в Европе и часто вижу разницу русской души и не русской (русская милее сердцу моему). Если это, конечно, душа, а не душенка...
niask
Стаж: 10 лет 5 мес.
Сообщений: 255
Ratio: 7,794
100%
Откуда: Калуга
russia.gif
Вот это хрень, дольше 20 минут не осилил. Горящие русские солдаты, несущиеся в бой - шедеврально! Браво, Фёдор, продолжай в том же духе! 1/10
Смотри лучше "28 панфиловцев", хороший добротный фильм о войне.
тимур500
Стаж: 8 лет 8 мес.
Сообщений: 10
Ratio: 4,004
Поблагодарили: 91
96.64%
witch.png
2013 Все уже посмотрели ,а я только телик купил 3D.
Показать сообщения:   
Начать новую тему   Ответить на тему    Торрент-трекер NNM-Club -> Отечественное кино -> Отечественные Фильмы (3D) Часовой пояс: GMT + 3
Страницы:   Пред.  1, 2, 3, 4, 5
Страница 5 из 5