Классический форум-трекер
canvas not supported
Нас вместе: 4 093 701

Доктор Кто / Doctor Who (2005-2010) [1080p] Blu-Ray (Сезон 1-4; 60 эпизодов) [EN]


 
 
RSS
Начать новую тему   Ответить на тему    Торрент-трекер NNM-Club -> Зарубежные сериалы -> Сериалы без перевода
Автор Сообщение
Koulf ®
Стаж: 7 лет 1 мес.
Сообщений: 15
Ratio: 1075,809
Поблагодарили: 314
100%
Доктор Кто / Doctor Who (2005-2010) [1080p] Blu-Ray (Сезон 1-4; 60 эпизодов) [EN]
Год выпуска: 2005-2010
Жанр: Фантастика, Комедия, Драма

Перевод: Отсутствует
Язык: Английский
Вид субтитров: Вшитые отключаемые
Язык субтитров: Английские


Дата мировой премьеры: 25.03.2005
Дата выхода DVD/Blu-Ray релиза: 4.11.2013

Режиссер: Юрос Лин, Джо Эхирн, Чарльз Палмер, Грем Харпер и др.
Актеры: Кристофер Экклстон, Дэвид Теннант, Билли Пайпер и др.

Описание фильма:
Семь сезонов обновленного британского научно-фантастического сериала "Доктор Кто" издали на Blu-Ray. И теперь оригинальные образы дисков доступны всем российским фанатам! Пока, правда, только первые 4 сезона и заключительные спецвыпуски с Дэвидом Теннантом, но и это немало!

Наличие дополнительных материалов: есть - дневники съемочной группы, бонусные серии
Эпизоды в раздаче:

«Rose»
«The End of the World»
«The Unquiet Dead»
«Aliens of London»
«World War Three»
«Dalek»
«The Long Game»
«Father's Day»
«The Empty Child»
«The Doctor Dances»
«Boom Town»
«Bad Wolf»
«The Parting of the Ways»

«The Christmas Invasion»
«New Earth»
«Tooth and Claw»
«School Reunion»
«The Girl in the Fireplace»
«Rise of the Cybermen»
«The Age of Steel»
«The Idiot's Lantern»
«The Impossible Planet»
«The Satan Pit»
«Love & Monsters»
«Fear Her»
«Army of Ghosts»
«Doomsday»

«The Runaway Bride»
«Smith and Jones»
«The Shakespeare Code»
«Gridlock»
«Daleks in Manhattan»
«Evolution of the Daleks»
«The Lazarus Experiment»
«42»
«Human Nature»
«The Family of Blood»
«Blink»
«Utopia»
«The Sound of Drums»
«Last of the Time Lords»

«Voyage of the Damned»
«Partners in Crime»
«The Fires of Pompeii»
«Planet of the Ood»
«The Sontaran Stratagem»
«The Poison Sky»
«The Doctor's Daughter»
«The Unicorn and the Wasp»
«Silence in the Library»
«Forest of the Dead»
«Midnight»
«Turn Left»
«The Stolen Earth»
«Journey's End»
«The Next Doctor»
«Planet of the Dead»
«The Waters of Mars»
«The End of Time»
Формат : BDAV
Формат/Информация : Blu-ray Video
Размер файла : 8,40 Гбайт
Продолжительность : 46 м.
Режим общего битрейта : Переменный
Общий поток : 26,0 Мбит/сек
Максимальный общий битрейт : 48,0 Мбит/сек

Видео
Идентификатор : 4113 (0x1011)
Идентификатор меню : 1 (0x1)
Формат : AVC
Формат/Информация : Advanced Video Codec
Профиль формата : High@L4.1
Параметр CABAC формата : Да
Параметр ReFrames формата : 4 кадра
Идентификатор кодека : 27
Продолжительность : 46 м.
Вид битрейта : Переменный
Битрейт : 23,1 Мбит/сек
Максимальный битрейт : 39,0 Мбит/сек
Ширина : 1920 пикселей
Высота : 1080 пикселей
Соотношение сторон : 16:9
Частота кадров : 23,976 кадра/сек
Цветовое пространство : YUV
Субдискретизация насыщенности : 4:2:0
Битовая глубина : 8 бит
Тип развёртки : Прогрессивная
Бит/(Пиксели*Кадры) : 0.465
Размер потока : 7,48 Гбайт (89%)

Аудио #1
Идентификатор : 4352 (0x1100)
Идентификатор меню : 1 (0x1)
Формат : DTS
Формат/Информация : Digital Theater Systems
Профиль формата : MA / Core
Режим смешивания : Stream extension
Идентификатор кодека : 134
Продолжительность : 46 м.
Вид битрейта : Переменный
Битрейт : 1561 Кбит/сек / 1510 Кбит/сек
Каналы : 6 каналов
Расположение каналов : Front: L C R, Side: L R, LFE
Частота : 48,0 КГц
Битовая глубина : 24 бит
Метод сжатия : Без потерь / Lossy

Аудио #2
Идентификатор : 4353 (0x1101)
Идентификатор меню : 1 (0x1)
Формат : AC-3
Формат/Информация : Audio Coding 3
Расширение режима : CM (complete main)
Параметр Endianness формата : Big
Идентификатор кодека : 129
Продолжительность : 46 м.
Вид битрейта : Постоянный
Битрейт : 256 Кбит/сек
Каналы : 2 канала
Расположение каналов : Front: L R
Частота : 48,0 КГц
Битовая глубина : 16 бит
Метод сжатия : С потерями
Размер потока : 84,8 Мбайт (1%)

Текст
Идентификатор : 4608 (0x1200)
Идентификатор меню : 1 (0x1)
Формат : PGS
Идентификатор кодека : 144
Формат : BDAV
Формат/Информация : Blu-ray Video
Размер файла : 7,72 Гбайт
Продолжительность : 46 м.
Режим общего битрейта : Переменный
Общий поток : 23,9 Мбит/сек
Максимальный общий битрейт : 48,0 Мбит/сек

Видео
Идентификатор : 4113 (0x1011)
Идентификатор меню : 1 (0x1)
Формат : AVC
Формат/Информация : Advanced Video Codec
Профиль формата : High@L4.1
Параметр CABAC формата : Да
Параметр ReFrames формата : 4 кадра
Идентификатор кодека : 27
Продолжительность : 46 м.
Вид битрейта : Переменный
Битрейт : 21,1 Мбит/сек
Максимальный битрейт : 39,0 Мбит/сек
Ширина : 1920 пикселей
Высота : 1080 пикселей
Соотношение сторон : 16:9
Частота кадров : 23,976 кадра/сек
Цветовое пространство : YUV
Субдискретизация насыщенности : 4:2:0
Битовая глубина : 8 бит
Тип развёртки : Прогрессивная
Бит/(Пиксели*Кадры) : 0.424
Размер потока : 6,82 Гбайт (88%)

Аудио #1
Идентификатор : 4352 (0x1100)
Идентификатор меню : 1 (0x1)
Формат : DTS
Формат/Информация : Digital Theater Systems
Профиль формата : MA / Core
Режим смешивания : Stream extension
Идентификатор кодека : 134
Продолжительность : 46 м.
Вид битрейта : Переменный
Битрейт : 1561 Кбит/сек / 1510 Кбит/сек
Каналы : 6 каналов
Расположение каналов : Front: L C R, Side: L R, LFE
Частота : 48,0 КГц
Битовая глубина : 24 бит
Метод сжатия : Без потерь / Lossy

Аудио #2
Идентификатор : 4353 (0x1101)
Идентификатор меню : 1 (0x1)
Формат : AC-3
Формат/Информация : Audio Coding 3
Расширение режима : CM (complete main)
Параметр Endianness формата : Big
Идентификатор кодека : 129
Продолжительность : 46 м.
Вид битрейта : Постоянный
Битрейт : 256 Кбит/сек
Каналы : 2 канала
Расположение каналов : Front: L R
Частота : 48,0 КГц
Битовая глубина : 16 бит
Метод сжатия : С потерями
Размер потока : 84,9 Мбайт (1%)

Текст
Идентификатор : 4608 (0x1200)
Идентификатор меню : 1 (0x1)
Формат : PGS
Идентификатор кодека : 144
Задержка видео : 1 с. 167 мс.
Формат : BDAV
Формат/Информация : Blu-ray Video
Размер файла : 2,60 Гбайт
Продолжительность : 59 м.
Режим общего битрейта : Переменный
Общий поток : 6282 Кбит/сек
Максимальный общий битрейт : 48,0 Мбит/сек

Видео
Идентификатор : 4113 (0x1011)
Идентификатор меню : 1 (0x1)
Формат : MPEG Video
Версия формата : Version 2
Профиль формата : Main@Main
Параметр BVOP формата : Да
Параметр матрицы формата : Выборочная
Идентификатор кодека : 2
Продолжительность : 59 м.
Вид битрейта : Переменный
Битрейт : 5831 Кбит/сек
Максимальный битрейт : 9800 Кбит/сек
Ширина : 720 пикселей
Высота : 576 пикселей
Соотношение сторон : 16:9
Частота кадров : 25,000 кадров/сек
Стандарт вещания : PAL
Цветовое пространство : YUV
Субдискретизация насыщенности : 4:2:0
Битовая глубина : 8 бит
Тип развёртки : Чересстрочная
Порядок развёртки : Верхнее поле первое
Метод сжатия : С потерями
Бит/(Пиксели*Кадры) : 0.562
Размер потока : 2,41 Гбайт (93%)

Аудио
Идентификатор : 4352 (0x1100)
Идентификатор меню : 1 (0x1)
Формат : AC-3
Формат/Информация : Audio Coding 3
Расширение режима : CM (complete main)
Параметр Endianness формата : Big
Идентификатор кодека : 129
Продолжительность : 59 м.
Вид битрейта : Постоянный
Битрейт : 192 Кбит/сек
Каналы : 2 канала
Расположение каналов : Front: L R
Частота : 48,0 КГц
Битовая глубина : 16 бит
Метод сжатия : С потерями
Размер потока : 81,3 Мбайт (3%)

Текст
Идентификатор : 4608 (0x1200)
Идентификатор меню : 1 (0x1)
Формат : PGS
Идентификатор кодека : 144
Задержка видео : 1 с. 280 мс.
Продолжительность: 00:45:00
Качество видео: Blu-Ray
Сэмпл: Скачать

Видеокодек: AVC / MPEG-2
Битрейт видео: ~33,3 Мбит/с / ~ 21,1 Мбит/сек / ~ 5831 Кбит/сек
Размер кадра: 1920x1080 / 1024x576
Аудио #1: DTS, 6 каналов, ~1510 кбит/сек — Английский
Аудио #2: AC-3, 2 канала, ~256 кбит/сек — Английский; 192 кбит/сек — Английский (доп. материалы)

Скриншоты:


Все релизы сериала "Доктор Кто"
Сезоны 5-7 на Blu-Ray

Время раздачи: 24/7 (круглосуточно)
[NNM-Club.me]_Doctor Who - The Complete Series 1-7 Blu-Ray British Box Set.torrent
 Торрент: Платиновая раздача  Зарегистрирован
 
Скачать


Примагнититься
 Зарегистрирован:   05 Дек 2013 15:47:45
 Размер:   735 GB  (
 Рейтинг:   4,9 (Голосов: 65)
 Поблагодарили:   161
 Проверка:   Оформление проверено модератором 28 Дек 2013 03:56:24
Как cкачать  ·  Как раздать  ·  Правильно оформить  ·  Поднять ратио!  
RoxMarty
Стаж: 9 лет 4 мес.
Сообщений: 22
Ratio: 17,375
100%
russia.gif
Koulf
Посмотрел немного первый диск, субтитров на аудиокомменты не нашёл. Жаль :(
yohohoso
Стаж: 8 лет 2 мес.
Сообщений: 12
Ratio: 8,104
1.04%
3 день не могу преодолеть порог 97%. Раньше было скачивание хоть до 1 мб, а сейчас до 15 кб упало. В чём проблема?

Ооо. Пошло!
RoxMarty
Стаж: 9 лет 4 мес.
Сообщений: 22
Ratio: 17,375
100%
russia.gif
yohohoso
Не знаю, я уже 436 гигов раздал и продолжаю, когда комп включён
Koulf ®
Стаж: 7 лет 1 мес.
Сообщений: 15
Ratio: 1075,809
Поблагодарили: 314
100%
Доктор Кто / Doctor Who (2010-2013) [1080i] Blu-Ray (Сезон 5-7; 42 эпизода) [EN]
Люди, налетаем на 5-7 сезоны!
DoctorXXX
Стаж: 8 лет 2 мес.
Сообщений: 57
Ratio: 17,796
Поблагодарили: 169
100%
ussr.gif
Автору раздачи мегареспект, вот бы русскую дорожку кто-то добавил, тогда можно за раздачу медаль давать (за невероятный вклад в развитие и популяризации одного из лучшего научно-фантастического сериала), а вот если, ещё в таком качестве, и классического доктора, когда-нибудь выпустят (пусть и не всего, т.к. 253 эпизода было утеряно, а точнее стерто видео, звук есть ко всем эпизодам, часть из них была восстановлена, по крайней мере частично, иногда слайдами, но 106 эпизодов утеряно совсем). Тогда можно смело памятник ставить за раздачу самого длинного научно-фантастического телесериала в HD качестве и смело отводить под это дело 7-10 Tb дискового пространства.

_________________
Errare humanum est
RoxMarty
Стаж: 9 лет 4 мес.
Сообщений: 22
Ratio: 17,375
100%
russia.gif
Цитата:
но 106 эпизодов утеряно совсем

Вроде недавно нашли случайно с десяток серий из этого списка
Koulf ®
Стаж: 7 лет 1 мес.
Сообщений: 15
Ratio: 1075,809
Поблагодарили: 314
100%
DoctorXXX, не перевелись ещё на Руси-матушке Маниловы!)))
mobizone
Стаж: 9 лет 7 мес.
Сообщений: 807
Ratio: 24,001
100%
russia.gif
есть в матроске почти все сезоны.. и по частям. с переводом.

а это монстрило куда? и без перевода.
рейтинг тока прокачивать))
Koulf ®
Стаж: 7 лет 1 мес.
Сообщений: 15
Ratio: 1075,809
Поблагодарили: 314
100%
mobizone, я тебя умоляю... ну какой рейтинг при free leech? А такие размеры нужны любителям максимального качества и коллекционерам.
KelDIm92
Стаж: 6 лет 6 мес.
Сообщений: 5
Ratio: 8,737
1.15%
Koulf, подскажите, а в раздаче присутствуют доп.материалы - выпуски Children in need (Первое появление Теннанта, Time Crash где 10-ый с 5-ым встречается?)
GarfieldX
Стаж: 8 лет 8 мес.
Сообщений: 1
Ratio: 633,022
100%
russia.gif
Неописуемо :)
StilesKT
Стаж: 4 года 9 мес.
Сообщений: 50
Ratio: 51K
Поблагодарили: 2219
100%
Вернитесь на раздачу пожалуйста, хоть кто-нибудь)
praym1
Стаж: 4 года 10 мес.
Сообщений: 21
Ratio: 0,656
100%
почему озвучки нет((
Показать сообщения:   
Начать новую тему   Ответить на тему    Торрент-трекер NNM-Club -> Зарубежные сериалы -> Сериалы без перевода Часовой пояс: GMT + 3
Страница 1 из 1