Классический форум-трекер
canvas not supported
Нас вместе: 4 079 381

Менталист / The Mentalist (2013-2014) WEB-DL [720p] (Сезон 6, серии 1-22 из 22) (Universal Russia)


 
 
RSS
Начать новую тему   Ответить на тему    Торрент-трекер NNM-Club -> Зарубежные сериалы -> Менталист / The Mentalist ; Теория Лжи / Lie To Me
Автор Сообщение
WOLF 80 ®
Uploader 100+
Стаж: 10 лет 2 мес.
Сообщений: 480
Ratio: 3902,785
Раздал: 156,9 TB
Поблагодарили: 30373
100%
Откуда: Санкт-Петербург
russia.gif
Менталист / The Mentalist
Год выпуска: 2013-2014
Жанр: Детектив

Перевод: Многоголосый закадровый, профессиональный - Universal Russia



Режиссер: Крис Лонг, Джон Шоуолтер, Чарльз Бисон
Актеры: Саймон Бейкер, Робин Танни, Тим Кенг, Овайн Йомэн, Аманда Риджетти, Онжаню Эллис, Грегори Итцин, Прюитт Тэйлор Винс, Майкл Гэстон, Эрик Винтер

Описание фильма: Патрик Джейн — детектив и независимый консультант из Калифорнийского Бюро Расследований (КБР), он использует свои отточенные, как лезвие, навыки наблюдения для раскрытия тяжких преступлений. В самом Бюро Джейн известен за частые нарушения протокола, а также за его звездное прошлое: он работал медиумом, однако теперь сам признает, что симулировал паранормальные способности. Роль Джейна в раскрытии целой серии загадочных преступлений высоко ценится коллегами. Но суровый старший агент Тереза Лисбон против того, чтоб Джейн работал с ее отрядом, и то вынужденно признает его успехи, то критикует его за театральность, нарциссизм и отсутствие границ.

Продолжительность: ~00:43:00 серия
Качество видео: WEB-DL 720p

Формат: MKV
Видеокодек: H.264
Битрейт видео: ~4000 Кбит/сек
Размер кадра: 1280x720 (16:9)
Аудио rus: AC-3, 192 Kbps 2 channels, 48.0 KHz - многоголосый закадровый (Universal Russia)
Аудио eng: AC-3, 384 Kbps 6 channels, 48.0 KHz - оригинальная дорожка
Общее
Уникальный идентификатор : 225751331968238614630568418112385434785 (0xA9D620017605841A8523BC748A79C4A1)
Полное имя : D:\UPLOADED\СЕРИАЛЫ\MENTALIST\The Mentalist 6 Universal Russia\The Mentalist 6 Universal Russia 720\01. Роза пустыни (The Desert Rose).mkv
Формат : Matroska
Версия формата : Version 4 / Version 2
Размер файла : 1,37 Гбайт
Продолжительность : 41 м.
Общий поток : 4691 Кбит/сек
Название фильма : 01. Роза пустыни (The Desert Rose)
Дата кодирования : UTC 2013-12-05 22:11:02
Программа кодирования : mkvmerge v6.3.0 ('You can't stop me!') built on Jul 19 2013 16:27:38
Библиотека кодирования : libebml v1.3.0 + libmatroska v1.4.1

Видео
Идентификатор : 1
Формат : AVC
Формат/Информация : Advanced Video Codec
Профиль формата : High@L3.1
Параметр CABAC формата : Нет
Параметр ReFrames формата : 2 кадра
Идентификатор кодека : V_MPEG4/ISO/AVC
Продолжительность : 41 м.
Битрейт : 4022 Кбит/сек
Ширина : 1280 пикселей
Высота : 720 пикселей
Соотношение сторон : 16:9
Режим частоты кадров : Постоянный
Частота кадров : 23,976 кадра/сек
Цветовое пространство : YUV
Субдискретизация насыщенности : 4:2:0
Битовая глубина : 8 бит
Тип развёртки : Прогрессивная
Бит/(Пиксели*Кадры) : 0.182
Размер потока : 1,17 Гбайт (86%)
Заголовок : 01. Роза пустыни (The Desert Rose)
Язык : English
Default : Да
Forced : Нет
Основные цвета : BT.709
Характеристики трансфера : BT.709
Коэффициенты матрицы : BT.709

Аудио #1
Идентификатор : 2
Формат : AC-3
Формат/Информация : Audio Coding 3
Расширение режима : CM (complete main)
Параметр Endianness формата : Big
Идентификатор кодека : A_AC3
Продолжительность : 41 м.
Вид битрейта : Постоянный
Битрейт : 192 Кбит/сек
Каналы : 2 канала
Расположение каналов : Front: L R
Частота : 48,0 КГц
Битовая глубина : 16 бит
Метод сжатия : С потерями
Размер потока : 57,3 Мбайт (4%)
Заголовок : Universal Russia
Язык : Russian
Default : Да
Forced : Да

Аудио #2
Идентификатор : 3
Формат : AC-3
Формат/Информация : Audio Coding 3
Расширение режима : CM (complete main)
Параметр Endianness формата : Big
Идентификатор кодека : A_AC3
Продолжительность : 41 м.
Вид битрейта : Постоянный
Битрейт : 384 Кбит/сек
Каналы : 6 каналов
Расположение каналов : Front: L C R, Side: L R, LFE
Частота : 48,0 КГц
Битовая глубина : 16 бит
Метод сжатия : С потерями
Размер потока : 115 Мбайт (8%)
Заголовок : Eng DD5.1
Язык : English
Default : Нет
Forced : Нет
01. Роза пустыни (The Desert Rose)
02. Чёрнокрылая красная птица (Black-Winged Redbird)
03. Свадьба в красном (Wedding in Red)
04. Кровавый список (Red-Listed)
05. Красная татуировка (The Red Tattoo)
06. Огонь и сера (Fire and Brimstone)
07. Великий красный дракон (The Great Red Dragon)
08. Красный Джон (Red John)
09. Под голубыми небесами (My Blue Heaven)
10. Зелёный палец (Green Thumb)
11. Белые линии (White Lines)
12. Золотой хаммер (The Golden Hammer)
13. Черные вертолеты (Black Helicopters)
14. Сточные воды (Grey Water)
15. Белый, как первый снег (White as the Driven Snow)
16. Фиалки (Violets)
17. Серебряные ветра времени (Silver Wings of Time)
18. Лесная зелень (Forest Green)
19. Кареглазые девчонки (Brown Eyed Girls)
20. Итальянский ресторан (Il Tavolo Bianco)
21. Чёрные Сердца (Black Hearts)
22. Синяя птица (Blue Bird)
iupiter - Запись звука
lehacom -Звуковые дорожки
Отдельное спасибо за русскую дорожку к 16 серии - MATAG

Места которые Universal вырезал из-за цензуры, дополнены озвучкой BaibaKo
"Менталист/The Mentalist" все раздачи сериала

Скриншоты:

Время Раздачи: 24/7 - круглосуточно
[NNM-Club.me]_The Mentalist 6 Universal Russia 720.torrent
 Торрент: Платиновая раздача  Зарегистрирован
 
Скачать


Примагнититься
 Зарегистрирован:   29 Июн 2014 10:01:34
 Размер:   30,3 GB  (
 Рейтинг:   4,7 (Голосов: 126)
 Поблагодарили:   433
 Проверка:   Оформление проверено модератором 29 Июн 2014 12:19:55
Как cкачать  ·  Как раздать  ·  Правильно оформить  ·  Поднять ратио!  

_________________
На первом месте у меня семья и дети, а хобби =>Мои РЕЛИЗЫ <= в свободное от них время
Magnit55
Стаж: 6 лет 5 мес.
Сообщений: 9
Ratio: 64,3
100%
С наступающим Новым Годом!
Clockwork​Bastard​
Стаж: 8 лет 10 мес.
Сообщений: 25
Ratio: 3,736
Раздал: 38,1 GB
100%
Спасибо NNM и Universal
12 Серию надо было перевести как Золотой Молот, потому что машина Хаммер пишется как Hummer, просто жужжалка :D
zxcvb1
Стаж: 5 лет 8 мес.
Сообщений: 1
Ratio: 4,364
90.32%
Благодарю!
italymafia
Стаж: 9 лет 4 мес.
Сообщений: 5
Ratio: 18,038
0.26%
WOLF 80
спасибо, ждем :)
JCorvin
Стаж: 6 лет 10 мес.
Сообщений: 46
Ratio: 44,779
100%
russia.gif
Релизеру спасибо.
(За имена файлов отдельный респект :beer:)

_________________
It can't rain all the time
UGman
Стаж: 7 лет 4 мес.
Сообщений: 20
Ratio: 17,274
4.55%
Извиняюсь если уже спрашивали: когда будет 6 сезон в дубляже от ТВ3?
b3n3d1kt
Стаж: 8 лет 7 мес.
Сообщений: 164
Ratio: 15,457
Раздал: 4,276 TB
100%
Откуда: Кострома
russia.gif
Ух ты нифига себе! Уже Universal озвучка есть?
КОЩУННИК
Стаж: 5 лет
Сообщений: 50
Ratio: 52,461
100%
russia.gif
Автору спасибо большое за релиз и перевод названия серий!
sinecure

Online
Стаж: 6 лет 4 мес.
Сообщений: 70
Ratio: 267,687
Раздал: 9,495 TB
Поблагодарили: 7
100%
Откуда: Siberia
mongolia.gif
Дорогие друзья, прошу помощи,
если конечно, заявленная концепция
придётся вам по душе, поддержите раздачу, а то снесут:
https://nnmclub.to/forum/viewtopic.php?t=1281796
Ваши комменты и обращения к модерам могут ей помочь
выйти из форума "Видео (temp)" и сохраниться на трекере.
Спасибо.

PS.
И проблема "какого-то ужасного эха" в раздаче
разрешилась сама собой,
самым естественным образом )
Показать сообщения:   
Начать новую тему   Ответить на тему    Торрент-трекер NNM-Club -> Зарубежные сериалы -> Менталист / The Mentalist ; Теория Лжи / Lie To Me Часовой пояс: GMT + 3
Страница 1 из 1