Классический форум-трекер
canvas not supported
Нас вместе: 4 079 289

Менталист / The Mentalist (2013-2014) WEB-DLRip (Сезон 6, серии 1-22 из 22) (Universal Russia)


Страницы:  1, 2, 3, 4, 5, 6, 7  След. 
 
RSS
Начать новую тему   Ответить на тему    Торрент-трекер NNM-Club -> Зарубежные сериалы -> Менталист / The Mentalist ; Теория Лжи / Lie To Me
Автор Сообщение
WOLF 80 ®
Uploader 100+
Стаж: 10 лет 2 мес.
Сообщений: 480
Ratio: 3902,785
Раздал: 156,9 TB
Поблагодарили: 30374
100%
Откуда: Санкт-Петербург
russia.gif
Менталист / The Mentalist
Год выпуска: 2013-2014
Жанр: Детектив

Перевод: Многоголосый закадровый, профессиональный - Universal Russia


Дата мировой премьеры: 29.09.2013

Режиссер: Крис Лонг, Джон Шоуолтер, Чарльз Бисон
Актеры: Саймон Бейкер, Робин Танни, Тим Кенг, Овайн Йомэн, Аманда Риджетти, Онжаню Эллис, Грегори Итцин, Прюитт Тэйлор Винс, Майкл Гэстон, Эрик Винтер

Описание фильма: Патрик Джейн — детектив и независимый консультант из Калифорнийского Бюро Расследований (КБР), он использует свои отточенные, как лезвие, навыки наблюдения для раскрытия тяжких преступлений. В самом Бюро Джейн известен за частые нарушения протокола, а также за его звездное прошлое: он работал медиумом, однако теперь сам признает, что симулировал паранормальные способности. Роль Джейна в раскрытии целой серии загадочных преступлений высоко ценится коллегами. Но суровый старший агент Тереза Лисбон против того, чтоб Джейн работал с ее отрядом, и то вынужденно признает его успехи, то критикует его за театральность, нарциссизм и отсутствие границ.

Продолжительность: ~00:43:00 серия
Качество видео: WEB-DLRip
Формат: Avi
Видеокодек: XviD
Битрейт видео: ~2000 Кбит/сек
Размер кадра: 720x400 (16:9)
Аудио rus: AC-3, 192 Kbps 2 channels, 48.0 KHz - Профессиональный многоголосый (Universal Russia)
Аудио eng: AC-3, 384 Kbps 6 channels, 48.0 KHz - оригинальная дорожка
Общее
Полное имя : D:\UPLOADED\СЕРИАЛЫ\MENTALIST\The Mentalist 6 Universal Russia\The Mentalist 6 Universal Russia 400\01. Роза пустыни (The Desert Rose).avi
Формат : AVI
Формат/Информация : Audio Video Interleave
Размер файла : 775 Мбайт
Продолжительность : 41 м.
Общий поток : 2595 Кбит/сек
Программа кодирования : VirtualDubMod 1.5.10.2 (build 2540/release)
Библиотека кодирования : VirtualDubMod build 2540/release

Видео
Идентификатор : 0
Формат : MPEG-4 Visual
Профиль формата : Advanced Simple@L5
Параметр BVOP формата : 1
Параметр QPel формата : Нет
Параметр GMC формата : Без точки перехода
Параметр матрицы формата : Default (MPEG)
Идентификатор кодека : XVID
Идентификатор кодека/Подсказка : XviD
Продолжительность : 41 м.
Битрейт : 2004 Кбит/сек
Ширина : 720 пикселей
Высота : 400 пикселей
Соотношение сторон : 16:9
Частота кадров : 23,976 кадра/сек
Цветовое пространство : YUV
Субдискретизация насыщенности : 4:2:0
Битовая глубина : 8 бит
Тип развёртки : Прогрессивная
Метод сжатия : С потерями
Бит/(Пиксели*Кадры) : 0.290
Размер потока : 599 Мбайт (77%)
Библиотека кодирования : XviD 65

Аудио #1
Идентификатор : 1
Формат : AC-3
Формат/Информация : Audio Coding 3
Расширение режима : CM (complete main)
Параметр Endianness формата : Big
Идентификатор кодека : 2000
Продолжительность : 41 м.
Вид битрейта : Постоянный
Битрейт : 192 Кбит/сек
Каналы : 2 канала
Расположение каналов : Front: L R
Частота : 48,0 КГц
Битовая глубина : 16 бит
Метод сжатия : С потерями
Размер потока : 57,3 Мбайт (7%)
Выравнивание : Разделение по промежуткам
Продолжительность промежутка : 42 мс. (1,00 видеокадр)
Время предзагрузки промежутка : 500 мс.

Аудио #2
Идентификатор : 2
Формат : AC-3
Формат/Информация : Audio Coding 3
Расширение режима : CM (complete main)
Параметр Endianness формата : Big
Идентификатор кодека : 2000
Продолжительность : 41 м.
Вид битрейта : Постоянный
Битрейт : 384 Кбит/сек
Каналы : 6 каналов
Расположение каналов : Front: L C R, Side: L R, LFE
Частота : 48,0 КГц
Битовая глубина : 16 бит
Метод сжатия : С потерями
Размер потока : 115 Мбайт (15%)
Выравнивание : Разделение по промежуткам
Продолжительность промежутка : 42 мс. (1,00 видеокадр)
Время предзагрузки промежутка : 500 мс.

01. Роза пустыни (The Desert Rose)
02. Чёрнокрылая красная птица (Black-Winged Redbird)
03. Свадьба в красном (Wedding in Red)
04. Кровавый список (Red-Listed)
05. Красная татуировка (The Red Tattoo)06. Огонь и сера (Fire and Brimstone)
07. Великий красный дракон (The Great Red Dragon)
08. Красный Джон (Red John)
09. Под голубыми небесами (My Blue Heaven)
10. Зелёный палец (Green Thumb)
11. Белые линии (White Lines)
12. Золотой хаммер (The Golden Hammer)
13. Черные вертолеты (Black Helicopters)
14. Сточные воды (Grey Water)
15. Белый, как первый снег (White as the Driven Snow)
16. Фиалки (Violets)
17. Серебряные ветра времени (Silver Wings of Time)
18. Лесная зелень (Forest Green)
19. Кареглазые девчонки (Brown Eyed Girls)
20. Итальянский ресторан (Il Tavolo Bianco)
21. Чёрные Сердца (Black Hearts)
22. Синяя птица (Blue Bird)
iupiter - Запись звука
lehacom - Звуковые дорожки
Отдельное спасибо за русскую дорожку к 16 серии - MATAG

Места которые Universal вырезал из-за цензуры, дополнены озвучкой BaibaKo..
"Менталист/The Mentalist" все раздачи сериала

Скриншоты:

Время Раздачи: 24/7 - круглосуточно
[NNM-Club.me]_The Mentalist 6 Universal Russia 400.torrent
 Торрент: Платиновая раздача  Зарегистрирован
 
Скачать


Примагнититься
 Зарегистрирован:   29 Июн 2014 10:00:54
 Размер:   16,9 GB  (
 Рейтинг:   4,8 (Голосов: 194)
 Поблагодарили:   872
 Проверка:   Оформление проверено модератором 29 Июн 2014 12:17:42
Как cкачать  ·  Как раздать  ·  Правильно оформить  ·  Поднять ратио!  

_________________
На первом месте у меня семья и дети, а хобби =>Мои РЕЛИЗЫ <= в свободное от них время
rand
Стаж: 12 лет 5 мес.
Сообщений: 32
Ratio: 4,187
Поблагодарили: 12
52.52%
russia.gif
Хой хой!!! Когда вторую серию ожидать? -=))
lehacom
Стаж: 7 лет 9 мес.
Сообщений: 33
Ratio: 14,525
29.17%
Откуда: msk
russia.gif
Я больше звуком не занимаюсь, другой человек делает, и там многоканалка (5.1) теперь. Так что ждите...
Mohh

Online
Стаж: 12 лет 9 мес.
Сообщений: 68
Ratio: 1,522
2.33%
rand
Смотри здесь http://www.universalchannel.ru/shows/mentalist-6
Там же есть программа, новая серия раз в неделю, по средам в 22:00, МСК
rand
Стаж: 12 лет 5 мес.
Сообщений: 32
Ratio: 4,187
Поблагодарили: 12
52.52%
russia.gif
Понятно что по средам. предыдущая среда была неделю назад, а серии нету.
Хотелось бы знать судьбу раздачи. Будет ли обновляться? Или ей просто некому заниматься?
Mohh

Online
Стаж: 12 лет 9 мес.
Сообщений: 68
Ratio: 1,522
2.33%
Сам жду, пропустил первые 2, вот бы сейчас вторую заценить, и потом по тв 3-ью!
lehacom
Стаж: 7 лет 9 мес.
Сообщений: 33
Ratio: 14,525
29.17%
Откуда: msk
russia.gif
rand
Mohh
Ну я же выше написал, звук теперь делает другой человек, будет не быстро т.к. 6 каналов.
И я считаю делать один сериал двоим людям полный бред, при том что серии собираются практически по кусочкам из-за вырезанных юниверсал сцен.
WOLF 80 ®
Uploader 100+
Стаж: 10 лет 2 мес.
Сообщений: 480
Ratio: 3902,785
Раздал: 156,9 TB
Поблагодарили: 30374
100%
Откуда: Санкт-Петербург
russia.gif
Списывался Я с этим человеком - он обещал сегодня вечером выложить 2 и 3 серии, но это не факт.
Lehacom - СПАСИБО!!!

_________________
На первом месте у меня семья и дети, а хобби =>Мои РЕЛИЗЫ <= в свободное от них время
Mohh

Online
Стаж: 12 лет 9 мес.
Сообщений: 68
Ratio: 1,522
2.33%
Да я чё, я ни чё, сижу тихо жду!)
Спасибо за труды!
selebrity
Стаж: 6 лет
Сообщений: 7
0%
Есть ли новости по поводу продолжения релиза? А то звука universal нет вообще нигде, ждать ли в ближайшее время? и спасибо за раздачу !
Mohh

Online
Стаж: 12 лет 9 мес.
Сообщений: 68
Ratio: 1,522
2.33%
selebrity писал(а): Перейти к сообщению
Есть ли новости по поводу продолжения релиза? А то звука universal нет вообще нигде, ждать ли в ближайшее время? и спасибо за раздачу !

+1, ждем не дождемся;)
de_MAX
Стаж: 11 лет 9 мес.
Сообщений: 42
Ratio: 1,875
100%
Откуда: Donetsk
ussr.gif
Mohh писал(а): Перейти к сообщению

+1, ждем не дождемся;)

Надеюсь, всё же дождёмся.
lehacom
Стаж: 7 лет 9 мес.
Сообщений: 33
Ratio: 14,525
29.17%
Откуда: msk
russia.gif
WOLF 80 писал(а): Перейти к сообщению
Списывался Я с этим человеком - он обещал сегодня вечером выложить 2 и 3 серии, но это не факт.

похоже он меня ждет :D
Mohh

Online
Стаж: 12 лет 9 мес.
Сообщений: 68
Ratio: 1,522
2.33%
а мы все ждем и ждем))
все кого-то ждут)
Mohh

Online
Стаж: 12 лет 9 мес.
Сообщений: 68
Ratio: 1,522
2.33%
Борода до колен), когда?
Показать сообщения:   
Начать новую тему   Ответить на тему    Торрент-трекер NNM-Club -> Зарубежные сериалы -> Менталист / The Mentalist ; Теория Лжи / Lie To Me Часовой пояс: GMT + 3
Страницы:  1, 2, 3, 4, 5, 6, 7  След.
Страница 1 из 7