Классический форум-трекер
canvas not supported
Нас вместе: 4 093 999

Jimi Hendrix - 51st Anniversary: The Story Of Life (1993) 8CD Boxset Bootleg [FLAC|Lossless]<Rock>


 
 
RSS
Начать новую тему   Ответить на тему    Торрент-трекер NNM-Club -> Rock, Alternative, Punk, Metal -> Rock (Lossless)
Автор Сообщение
PlaNed ®
Стаж: 8 лет
Сообщений: 1358
Ratio: 1016,412
Поблагодарили: 69285
25.92%
Откуда: The Net!
bulgaria.gif
Jimi Hendrix - 51st Anniversary: The Story Of Life (1993)


Год: 1993 | Жанр: Rock | Продолжительность: 09:32:39
Издатель: CD Company slr | Номер по каталогу: JMH 001 ... 008 | Страна изготовитель: Italy
Кодек: FLAC | Битрейт: Lossless | Источник: Web
Продолжительность: 02:08:12

Disc 01

Трек лист:

01. Collage [03:47]
02. Hey Joe (demo London '66) [02:56]
03. Jimi Interview [00:25]
04. How Would You Feel (Curtis Knight Material 1965-67) [02:54]
05. Love Or Confusion (1967 Live) [02:46]
06. Sgt. Pepper's Lonely Hearts Club Band (Radiohuset, Stockholm 05.09.67) [01:59]
07. All Along The Watchtower (1968 Demo, Olympic Studios, London) [03:45]
08. Little Wing (Royal Albert Hall, London 24.02.69) [03:00]
09. Electric Church Red House (1968 Studio Jam, Los Angeles) [06:42]
10. Spanish Castle Magic (Top Gear BBC Sessions, London) [03:06]
11. Hear My Train A Comin' (1967 Live, London) [04:32]
12. Rock 'n Roll Band (1967 with Eire Apparent) [03:22]
13. Stepping Stone Band Of Gypsies (1969 Studio) [04:06]
14. Gloria (1967 Session, with Friends) [08:45]
15. My Diary (1962 or 64 Rosa Lee Brooks Single) [02:22]
16. Utee (1962 or 64 Rosa Lee Brooks Single) [01:56]
17. The Burning Of The Midnight Lamp (Tivoli Garden Stockholm 11.09.1967) [04:30]
18. Little Miss Lover (1967 Unreleased Recording, Olympic Studios, London) [02:15]
19. Foxy Lady ("Hoepla", VPRO Vitus Studio, Bussum) [03:17]
20. Catfish Blues ("Hoepla", VPRO Vitus Studio, Bussum) [07:46]
21. Slow Walkin' Talk (with Robert Wyatt, T.T.G. Studios; Hollywood, CA.) [03:00]

Продолжительность: 01:17:11
Код:

Exact Audio Copy V0.99 prebeta 4 from 23. January 2008

EAC extraction logfile from 1. February 2009, 19:01

Jimi Hendrix / 51th Anniversary ( the story of life...) Disc 1

Used drive  : TSSTcorpCD/DVDW TS-L632D   Adapter: 0  ID: 1

Read mode               : Secure
Utilize accurate stream : Yes
Defeat audio cache      : Yes
Make use of C2 pointers : No

Read offset correction                      : 6
Overread into Lead-In and Lead-Out          : No
Fill up missing offset samples with silence : Yes
Delete leading and trailing silent blocks   : No
Null samples used in CRC calculations       : Yes
Used interface                              : Native Win32 interface for Win NT & 2000
Gap handling                                : Appended to previous track

Used output format              : User Defined Encoder
Selected bitrate                : 128 kBit/s
Quality                         : High
Add ID3 tag                     : Yes
Command line compressor         : C:\Program Files\FLAC\flac.exe
Additional command line options : -8 -V -T "ARTIST=%a" -T "TITLE=%t" -T "ALBUM=%g" -T "DATE=%y" -T "TRACKNUMBER=%n" -T "GENRE=%m" -T "COMMENT=%e" %s -o %d

TOC of the extracted CD

     Track |   Start  |  Length  | Start sector | End sector
    ---------------------------------------------------------
        1  |  0:00.32 |  3:46.43 |        32    |    17024
        2  |  3:47.00 |  2:56.07 |     17025    |    30231
        3  |  6:43.07 |  0:24.65 |     30232    |    32096
        4  |  7:07.72 |  2:54.05 |     32097    |    45151
        5  | 10:02.02 |  2:46.05 |     45152    |    57606
        6  | 12:48.07 |  1:58.53 |     57607    |    66509
        7  | 14:46.60 |  3:45.27 |     66510    |    83411
        8  | 18:32.12 |  2:59.40 |     83412    |    96876
        9  | 21:31.52 |  6:42.05 |     96877    |   127031
       10  | 28:13.57 |  3:05.50 |    127032    |   140956
       11  | 31:19.32 |  4:31.48 |    140957    |   161329
       12  | 35:51.05 |  3:21.47 |    161330    |   176451
       13  | 39:12.52 |  4:06.15 |    176452    |   194916
       14  | 43:18.67 |  8:45.05 |    194917    |   234296
       15  | 52:03.72 |  2:22.05 |    234297    |   244951
       16  | 54:26.02 |  1:56.23 |    244952    |   253674
       17  | 56:22.25 |  4:29.52 |    253675    |   273901
       18  | 60:52.02 |  2:15.28 |    273902    |   284054
       19  | 63:07.30 |  3:16.62 |    284055    |   298816
       20  | 66:24.17 |  7:45.43 |    298817    |   333734
       21  | 74:09.60 |  2:59.47 |    333735    |   347206

Track  1

     Filename D:\EAC\01 - Collage.wav

     Pre-gap length  0:00:02.32

     Peak level 98.3 %
     Track quality 100.0 %
     Test CRC 68276E58
     Copy CRC 68276E58
     Track not present in AccurateRip database
     Copy OK

Track  2

     Filename D:\EAC\02 - Hey Joe.wav

     Peak level 92.8 %
     Track quality 100.0 %
     Test CRC 1755B381
     Copy CRC 1755B381
     Track not present in AccurateRip database
     Copy OK

Track  3

     Filename D:\EAC\03 - Jimi Interview.wav

     Peak level 83.2 %
     Track quality 100.0 %
     Test CRC 96DB3AF1
     Copy CRC 96DB3AF1
     Track not present in AccurateRip database
     Copy OK

Track  4

     Filename D:\EAC\04 - How Would You Feel.wav

     Peak level 95.4 %
     Track quality 100.0 %
     Test CRC CE049B5A
     Copy CRC CE049B5A
     Track not present in AccurateRip database
     Copy OK

Track  5

     Filename D:\EAC\05 - Love Or Confusion.wav

     Peak level 96.1 %
     Track quality 100.0 %
     Test CRC 97E1A47F
     Copy CRC 97E1A47F
     Track not present in AccurateRip database
     Copy OK

Track  6

     Filename D:\EAC\06 - Sgt. Pepper's Lonely Hearts Club Band.wav

     Peak level 96.1 %
     Track quality 100.0 %
     Test CRC 6B2A4157
     Copy CRC 6B2A4157
     Track not present in AccurateRip database
     Copy OK

Track  7

     Filename D:\EAC\07 - All Along The Watchtower.wav

     Peak level 98.3 %
     Track quality 100.0 %
     Test CRC F98D16D6
     Copy CRC F98D16D6
     Track not present in AccurateRip database
     Copy OK

Track  8

     Filename D:\EAC\08 - Little Wing.wav

     Peak level 98.3 %
     Track quality 100.0 %
     Test CRC 35E5674C
     Copy CRC 35E5674C
     Track not present in AccurateRip database
     Copy OK

Track  9

     Filename D:\EAC\09 - Electric Church Red House.wav

     Peak level 99.9 %
     Track quality 100.0 %
     Test CRC 94C809D2
     Copy CRC 94C809D2
     Track not present in AccurateRip database
     Copy OK

Track 10

     Filename D:\EAC\10 - Spanish Castle Magic.wav

     Peak level 94.4 %
     Track quality 100.0 %
     Test CRC 90A8550D
     Copy CRC 90A8550D
     Track not present in AccurateRip database
     Copy OK

Track 11

     Filename D:\EAC\11 - Hear My Train A Comin'.wav

     Peak level 97.7 %
     Track quality 99.9 %
     Test CRC EF1B06C9
     Copy CRC EF1B06C9
     Track not present in AccurateRip database
     Copy OK

Track 12

     Filename D:\EAC\12 - Rock 'n Roll Band.wav

     Peak level 98.8 %
     Track quality 100.0 %
     Test CRC CBAAA5FB
     Copy CRC CBAAA5FB
     Track not present in AccurateRip database
     Copy OK

Track 13

     Filename D:\EAC\13 - Stepping Stone Band Of Gypsies.wav

     Peak level 100.0 %
     Track quality 100.0 %
     Test CRC 0B64178B
     Copy CRC 0B64178B
     Track not present in AccurateRip database
     Copy OK

Track 14

     Filename D:\EAC\14 - Gloria.wav

     Peak level 93.5 %
     Track quality 100.0 %
     Test CRC 58E983D9
     Copy CRC 58E983D9
     Track not present in AccurateRip database
     Copy OK

Track 15

     Filename D:\EAC\15 - My Diary.wav

     Peak level 98.8 %
     Track quality 100.0 %
     Test CRC 1F118457
     Copy CRC 1F118457
     Track not present in AccurateRip database
     Copy OK

Track 16

     Filename D:\EAC\16 - Utee.wav

     Peak level 98.8 %
     Track quality 100.0 %
     Test CRC 006CF9C6
     Copy CRC 006CF9C6
     Track not present in AccurateRip database
     Copy OK

Track 17

     Filename D:\EAC\17 - The Burning Of The Midnight Lamp.wav

     Peak level 100.0 %
     Track quality 100.0 %
     Test CRC E4A95217
     Copy CRC E4A95217
     Track not present in AccurateRip database
     Copy OK

Track 18

     Filename D:\EAC\18 - Little Miss Lover.wav

     Peak level 86.7 %
     Track quality 100.0 %
     Test CRC 4D1BB555
     Copy CRC 4D1BB555
     Track not present in AccurateRip database
     Copy OK

Track 19

     Filename D:\EAC\19 - Foxy Lady.wav

     Peak level 100.0 %
     Track quality 100.0 %
     Test CRC DE479DBC
     Copy CRC DE479DBC
     Track not present in AccurateRip database
     Copy OK

Track 20

     Filename D:\EAC\20 - Catfish Blues.wav

     Peak level 100.0 %
     Track quality 99.9 %
     Test CRC 0625BA8B
     Copy CRC 0625BA8B
     Track not present in AccurateRip database
     Copy OK

Track 21

     Filename D:\EAC\21 - Slow Walkin' Talk.wav

     Peak level 100.0 %
     Track quality 100.0 %
     Test CRC 70963B03
     Copy CRC 70963B03
     Track not present in AccurateRip database
     Copy OK

None of the tracks are present in the AccurateRip database

No errors occurred

End of status report
Код:

-----------------------

DON'T MODIFY THIS FILE

-----------------------

PERFORMER: auCDtect Task Manager, ver. 1.6.0 RC1 build 1.6.0.1
Copyright (c) 2008-2010 y-soft. All rights reserved
http://y-soft.org

ANALYZER: auCDtect: CD records authenticity detector, version 0.8.2
Copyright (c) 2004 Oleg Berngardt. All rights reserved.
Copyright (c) 2004 Alexander Djourik. All rights reserved.

FILE: 21 - Slow Walkin' Talk.flac
  Size: 18414008 Hash: C8AB9D52036CADE5D0AFAEAEC691E511 Accuracy: -m0
  Conclusion: CDDA 99%
  Signature: 09671C1854F1C13B21651F46003353A9D33EA7EE
FILE: 20 - Catfish Blues.flac
  Size: 49856667 Hash: D3D7B86057C28253251CDAF70DF5B6F3 Accuracy: -m0
  Conclusion: CDDA 100%
  Signature: F41689A70A7F7F92F3E3E4195502478880CD8D31
FILE: 19 - Foxy Lady.flac
  Size: 21667420 Hash: E0CFEAA583E3CF1ABF3737CC63967746 Accuracy: -m0
  Conclusion: CDDA 99%
  Signature: EF6ADBCD98B46AF1E6D1F284E8A6EB5E6842A8AD
FILE: 18 - Little Miss Lover.flac
  Size: 14549517 Hash: 4B56B192D00E0359976585813D5A6C24 Accuracy: -m0
  Conclusion: CDDA 99%
  Signature: E094FF81744429B6CD8BE30610850D50F2B3F290
FILE: 17 - The Burning Of The Midnight Lamp.flac
  Size: 25373107 Hash: 0A85D7D6FE82D2388D2B68D6DDECFDF5 Accuracy: -m0
  Conclusion: CDDA 100%
  Signature: E1A80B18E82F57E9BCF77C7ADDCC94A773967A03
FILE: 16 - Utee.flac
  Size: 12398311 Hash: 4241AFBF753677DFA2E98A4220755A0D Accuracy: -m0
  Conclusion: CDDA 99%
  Signature: 76C2E3EFC630177576B5E30B1EB8A7845A143A8A
FILE: 15 - My Diary.flac
  Size: 14286554 Hash: 725ED8BA727C10575895CD429A642634 Accuracy: -m0
  Conclusion: CDDA 100%
  Signature: 52EA60F28B5C0F9FC362B8766A1821D422889F1A
FILE: 14 - Gloria.flac
  Size: 59819130 Hash: FFD1A6F6B3F5160DFAF864250A51162F Accuracy: -m0
  Conclusion: CDDA 100%
  Signature: 619117251AF33FE5B2B523A0C024F8E00E913D45
FILE: 13 - Stepping Stone Band Of Gypsies.flac
  Size: 29250544 Hash: 54E136DFADD6F624039120A4D0723DE2 Accuracy: -m0
  Conclusion: CDDA 100%
  Signature: FD419FFEB18457A4FBC2B84E635FDBBD42E36410
FILE: 12 - Rock 'n Roll Band.flac
  Size: 25639204 Hash: A0F969ED810441067AEDF9BED130EE32 Accuracy: -m0
  Conclusion: CDDA 100%
  Signature: 8FD981FA9A76F57DE5500C30B9A758D4CB442FF0
FILE: 11 - Hear My Train A Comin'.flac
  Size: 29173872 Hash: E2AD6A2CA2BD969F7D134C1A2E4A7454 Accuracy: -m0
  Conclusion: CDDA 100%
  Signature: 49E9BB4CB0CB421CBA0678FB7C322C347F7B0810
FILE: 10 - Spanish Castle Magic.flac
  Size: 20603194 Hash: 1BC58884F555F432EE337D62F254AE0B Accuracy: -m0
  Conclusion: CDDA 100%
  Signature: B1FE14D1042F4969990F72668CB3D6B555490393
FILE: 09 - Electric Church Red House.flac
  Size: 44592757 Hash: 5850E3BD6B7CA6D73D4ABE5A7BDE9B41 Accuracy: -m0
  Conclusion: CDDA 100%
  Signature: 2307AC2ED5A61614C07C28E97F8F7DE9F52F2276
FILE: 08 - Little Wing.flac
  Size: 19242889 Hash: CA325451AC4482B5E01514E3120F0562 Accuracy: -m0
  Conclusion: CDDA 100%
  Signature: 51DB337FC9AB70D81245FDCF466C888B7F1083CA
FILE: 07 - All Along The Watchtower.flac
  Size: 26814725 Hash: 1D1A19C1ADCF5E6ED7FCC08A22DAEC9E Accuracy: -m0
  Conclusion: CDDA 100%
  Signature: C8BBF2A2BB09E81EB02E5713BE8265079B46079F
FILE: 06 - Sgt. Pepper's Lonely Hearts Club Band.flac
  Size: 12563554 Hash: D1C28CC37E4BC28CD318735F9A9D54A2 Accuracy: -m0
  Conclusion: CDDA 100%
  Signature: 96BD9881BC1ED5E23CAECD092CBB0B41DF7A6E45
FILE: 05 - Love Or Confusion.flac
  Size: 19785258 Hash: E9EAB1F10EEF18F1F0AF973A607AFF43 Accuracy: -m0
  Conclusion: CDDA 100%
  Signature: 99B73424EEE97086F346F4466CCF22D5A6C6D1E7
FILE: 04 - How Would You Feel.flac
  Size: 18113819 Hash: C750F7C7EC4A7DD93E0C0099EF32F0E8 Accuracy: -m0
  Conclusion: CDDA 100%
  Signature: 5E0E27027468F371EAF754F0249D0EAF9C7EB860
FILE: 03 - Jimi Interview.flac
  Size: 2462413 Hash: 021F19C9956D79A3C2BA8C2C19672DDA Accuracy: -m0
  Conclusion: CDDA 100%
  Signature: 22BC60F4C66838ADF01289D856B088F1095C34D4
FILE: 02 - Hey Joe.flac
  Size: 21027942 Hash: 9252D82B6C9F5C71C58B8CE656522207 Accuracy: -m0
  Conclusion: CDDA 99%
  Signature: F1085EDA55B24F1A9E121DAFA71F40079E2D9A8A
FILE: 01 - Collage.flac
  Size: 25798387 Hash: 94540202013B944CA760EA524E9F5EE2 Accuracy: -m0
  Conclusion: CDDA 100%
  Signature: EDE5C8D2F3E2F16EDB7B35484F0409A59D607E52
Трек лист:

01. Traffic Jam (Unreleased Studio Jam with Traffic) [05:21]
02. Hey Baby Jam (New Rising Sun) (Unreleased Studio Jam with Traffic) [14:44]
03. Jazz Jam (fake) (Unreleased Studio Jam with Traffic) [05:32]
04. Moonlight Jam (Unreleased Studio Jam with Traffic) [04:50]
05. Studio Catastrophe (Late 1969, Valley Of Neptune Session) [00:57]
06. Valley Of Neptune (take 2) (Late 1969, Valley Of Neptune Session) [05:52]
07. Rainy Day Super Jam (Rainy Day Shuffle) (Spring 1968, Electric Ladyland Outtakes) [05:22]
08. Nervous Breakdown (Marshall Attack Jam) (Late 1969, with Fat Mattress) [03:51]
10. Crash Landing (Outtake, Late 1969, Electric Ladyland) [04:32]

Продолжительность: 00:51:01
Код:

Exact Audio Copy V0.99 prebeta 4 from 23. January 2008

EAC extraction logfile from 1. February 2009, 19:39

Jimi Hendrix / 51st Anniversary (The Story of Life ...) (Disc 2)

Used drive  : TSSTcorpCD/DVDW TS-L632D   Adapter: 0  ID: 1

Read mode               : Secure
Utilize accurate stream : Yes
Defeat audio cache      : Yes
Make use of C2 pointers : No

Read offset correction                      : 6
Overread into Lead-In and Lead-Out          : No
Fill up missing offset samples with silence : Yes
Delete leading and trailing silent blocks   : No
Null samples used in CRC calculations       : Yes
Used interface                              : Native Win32 interface for Win NT & 2000
Gap handling                                : Appended to previous track

Used output format              : User Defined Encoder
Selected bitrate                : 128 kBit/s
Quality                         : High
Add ID3 tag                     : Yes
Command line compressor         : C:\Program Files\FLAC\flac.exe
Additional command line options : -8 -V -T "ARTIST=%a" -T "TITLE=%t" -T "ALBUM=%g" -T "DATE=%y" -T "TRACKNUMBER=%n" -T "GENRE=%m" -T "COMMENT=%e" %s -o %d

TOC of the extracted CD

     Track |   Start  |  Length  | Start sector | End sector
    ---------------------------------------------------------
        1  |  0:00.32 |  5:21.05 |        32    |    24111
        2  |  5:21.37 | 14:43.45 |     24112    |    90381
        3  | 20:05.07 |  5:31.58 |     90382    |   115264
        4  | 25:36.65 |  4:49.47 |    115265    |   136986
        5  | 30:26.37 |  0:57.25 |    136987    |   141286
        6  | 31:23.62 |  5:52.23 |    141287    |   167709
        7  | 37:16.10 |  5:22.25 |    167710    |   191884
        8  | 42:38.35 |  3:51.22 |    191885    |   209231
        9  | 46:29.57 |  6:28.05 |    209232    |   238336
       10  | 52:57.62 |  4:31.45 |    238337    |   258706

Track  1

     Filename D:\EAC\01 - Traffic Jam (Unreleased Studio Jam with Traffic).wav

     Pre-gap length  0:00:02.32

     Peak level 62.5 %
     Track quality 100.0 %
     Test CRC FE227515
     Copy CRC FE227515
     Track not present in AccurateRip database
     Copy OK

Track  2

     Filename D:\EAC\02 - Hey Baby Jam (New Rising Sun) (Unreleased Studio Jam with Traffic).wav

     Peak level 66.8 %
     Track quality 99.9 %
     Test CRC 5ADFE262
     Copy CRC 5ADFE262
     Track not present in AccurateRip database
     Copy OK

Track  3

     Filename D:\EAC\03 - Jazz Jam (fake) (Unreleased Studio Jam with Traffic).wav

     Peak level 49.1 %
     Track quality 100.0 %
     Test CRC 04CA4021
     Copy CRC 04CA4021
     Track not present in AccurateRip database
     Copy OK

Track  4

     Filename D:\EAC\04 - Moonlight Jam (Unreleased Studio Jam with Traffic).wav

     Peak level 41.6 %
     Track quality 100.0 %
     Test CRC 2C83643F
     Copy CRC 2C83643F
     Track not present in AccurateRip database
     Copy OK

Track  5

     Filename D:\EAC\05 - Studio Catastrophe (Late 1969, Valley Of Neptune Session).wav

     Peak level 87.1 %
     Track quality 100.0 %
     Test CRC 15B19C35
     Copy CRC 15B19C35
     Track not present in AccurateRip database
     Copy OK

Track  6

     Filename D:\EAC\06 - Valley Of Neptune (take 2) (Late 1969, Valley Of Neptune Session).wav

     Peak level 62.2 %
     Track quality 99.9 %
     Test CRC AC1F29D6
     Copy CRC AC1F29D6
     Track not present in AccurateRip database
     Copy OK

Track  7

     Filename D:\EAC\07 - Rainy Day Super Jam (Rainy Day Shuffle) (Spring 1968, Electric Ladyland Outtakes).wav

     Peak level 53.8 %
     Track quality 100.0 %
     Test CRC B390E629
     Copy CRC B390E629
     Track not present in AccurateRip database
     Copy OK

Track  8

     Filename D:\EAC\08 - Nervous Breakdown (Marshall Attack Jam) (Late 1969, with Fat Mattress).wav

     Peak level 81.9 %
     Track quality 100.0 %
     Test CRC BFC348B3
     Copy CRC BFC348B3
     Track not present in AccurateRip database
     Copy OK

Track  9

     Filename D:\EAC\09 - Captain Coconut And Cherokee Mist Jam MLK (Jam,Cherokee Mist) (Jam, Late 1969, Electric Ladyland).wav

     Peak level 56.8 %
     Track quality 100.0 %
     Test CRC 1C0CEC16
     Copy CRC 1C0CEC16
     Track not present in AccurateRip database
     Copy OK

Track 10

     Filename D:\EAC\10 - Crash Landing (Outtake, Late 1969, Electric Ladyland).wav

     Peak level 81.4 %
     Track quality 100.0 %
     Test CRC 7076B2EB
     Copy CRC 7076B2EB
     Track not present in AccurateRip database
     Copy OK

None of the tracks are present in the AccurateRip database

No errors occurred

End of status report
Код:

-----------------------

DON'T MODIFY THIS FILE

-----------------------

PERFORMER: auCDtect Task Manager, ver. 1.6.0 RC1 build 1.6.0.1
Copyright (c) 2008-2010 y-soft. All rights reserved
http://y-soft.org

ANALYZER: auCDtect: CD records authenticity detector, version 0.8.2
Copyright (c) 2004 Oleg Berngardt. All rights reserved.
Copyright (c) 2004 Alexander Djourik. All rights reserved.

FILE: 10 - Crash Landing (Outtake, Late 1969, Electric Ladyland).flac
  Size: 23946154 Hash: EDF765246A17169C1253C6C2BD2D36E1 Accuracy: -m0
  Conclusion: CDDA 100%
  Signature: F6661FD0C74F614869DC11DB6FC1A8742BAAF1D1
FILE: 08 - Nervous Breakdown (Marshall Attack Jam) (Late 1969, with Fat Mattress).flac
  Size: 19133052 Hash: 212785871A94AAEFD2563532B17CF085 Accuracy: -m0
  Conclusion: CDDA 100%
  Signature: B512150C3FA0070FF3478820E84A4358E0554EF7
FILE: 07 - Rainy Day Super Jam (Rainy Day Shuffle) (Spring 1968, Electric Ladyland Outtakes).flac
  Size: 25652887 Hash: 3DA0DC5A35EBB1E613E1B196C274FD6B Accuracy: -m0
  Conclusion: CDDA 99%
  Signature: 521B67F8BA2189013E960FADAA5281AFFCBA050A
FILE: 06 - Valley Of Neptune (take 2) (Late 1969, Valley Of Neptune Session).flac
  Size: 31652712 Hash: 22B6600EDF063BF93E5235B6100DB67A Accuracy: -m0
  Conclusion: CDDA 100%
  Signature: 72BD615841AD258A22DACE7A4332AD91F3789A0C
FILE: 05 - Studio Catastrophe (Late 1969, Valley Of Neptune Session).flac
  Size: 3280086 Hash: 1BE482770374A30922E05267178172EA Accuracy: -m0
  Conclusion: CDDA 100%
  Signature: 7ECDD445CB8CC7289BF5AB05F1CD3B05F8C613ED
FILE: 04 - Moonlight Jam (Unreleased Studio Jam with Traffic).flac
  Size: 16613712 Hash: 4C971E17BA76FF593FF1C4CB65A1E481 Accuracy: -m0
  Conclusion: CDDA 100%
  Signature: 04F78B7831B1B8D6436CFD17615DA0CCE56C6782
FILE: 03 - Jazz Jam (fake) (Unreleased Studio Jam with Traffic).flac
  Size: 24432602 Hash: 130536970C1BD0F56574BFE346A1F706 Accuracy: -m0
  Conclusion: CDDA 100%
  Signature: 711E3FF5713D86E36D6CD8C06151A7EE2D7981CF
FILE: 02 - Hey Baby Jam (New Rising Sun) (Unreleased Studio Jam with Traffic).flac
  Size: 91963567 Hash: F175C9B7FBEE6E74D89BB5641EC619D3 Accuracy: -m0
  Conclusion: CDDA 100%
  Signature: C5F9759F31849BC06C409A50EED9D9E2F7F3A47D
FILE: 01 - Traffic Jam (Unreleased Studio Jam with Traffic).flac
  Size: 34779611 Hash: 513188008B61DCD0E6D1B9C738CDC7CD Accuracy: -m0
  Conclusion: CDDA 100%
  Signature: E14DAF6D9502EAE57C2451D36508C00D51AD1206
Продолжительность: 02:14:57

Disc 03

Трек лист:

01. #7 Man [07:29]
02. Voodoo Chile (studio jam) [20:47]
03. Somewhere over the Rainbow [03:37]
04. Red house (unr jam) [07:28]
05. Angel (vocal) [03:24]
06. 1983 (ftg John McLaughlin) [04:01]
07. First Jam (ftg John McLaughlin) [15:51]

Продолжительность: 01:02:37
Код:

Exact Audio Copy V0.99 prebeta 4 from 23. January 2008

EAC extraction logfile from 1. February 2009, 20:22

Jimi Hendrix / Jimi Hendrix - 51st Anniversary (The Story of Life ...) (Disc 3)

Used drive  : TSSTcorpCD/DVDW TS-L632D   Adapter: 0  ID: 1

Read mode               : Secure
Utilize accurate stream : Yes
Defeat audio cache      : Yes
Make use of C2 pointers : No

Read offset correction                      : 6
Overread into Lead-In and Lead-Out          : No
Fill up missing offset samples with silence : Yes
Delete leading and trailing silent blocks   : No
Null samples used in CRC calculations       : Yes
Used interface                              : Native Win32 interface for Win NT & 2000
Gap handling                                : Appended to previous track

Used output format              : User Defined Encoder
Selected bitrate                : 128 kBit/s
Quality                         : High
Add ID3 tag                     : Yes
Command line compressor         : C:\Program Files\FLAC\flac.exe
Additional command line options : -8 -V -T "ARTIST=%a" -T "TITLE=%t" -T "ALBUM=%g" -T "DATE=%y" -T "TRACKNUMBER=%n" -T "GENRE=%m" -T "COMMENT=%e" %s -o %d

TOC of the extracted CD

     Track |   Start  |  Length  | Start sector | End sector
    ---------------------------------------------------------
        1  |  0:00.32 |  7:29.33 |        32    |    33739
        2  |  7:29.65 | 20:47.15 |     33740    |   127279
        3  | 28:17.05 |  3:36.47 |    127280    |   143526
        4  | 31:53.52 |  7:28.15 |    143527    |   177141
        5  | 39:21.67 |  3:23.50 |    177142    |   192416
        6  | 42:45.42 |  4:01.00 |    192417    |   210491
        7  | 46:46.42 | 15:50.65 |    210492    |   281806

Track  1

     Filename D:\EAC\01 - #7 Man.wav

     Pre-gap length  0:00:02.32

     Peak level 90.5 %
     Track quality 99.9 %
     Test CRC 79B44D53
     Copy CRC 79B44D53
     Track not present in AccurateRip database
     Copy OK

Track  2

     Filename D:\EAC\02 - Voodoo Chile (studio jam).wav

     Peak level 76.6 %
     Track quality 99.9 %
     Test CRC 485DF9EE
     Copy CRC 485DF9EE
     Track not present in AccurateRip database
     Copy OK

Track  3

     Filename D:\EAC\03 - Somewhere over the Rainbow.wav

     Peak level 58.2 %
     Track quality 100.0 %
     Test CRC F1A75C6D
     Copy CRC F1A75C6D
     Track not present in AccurateRip database
     Copy OK

Track  4

     Filename D:\EAC\04 - Red house (unr jam).wav

     Peak level 84.6 %
     Track quality 100.0 %
     Test CRC 86F1F0B3
     Copy CRC 86F1F0B3
     Track not present in AccurateRip database
     Copy OK

Track  5

     Filename D:\EAC\05 - Angel (vocal).wav

     Peak level 89.6 %
     Track quality 100.0 %
     Test CRC 2BC23FEA
     Copy CRC 2BC23FEA
     Track not present in AccurateRip database
     Copy OK

Track  6

     Filename D:\EAC\06 - 1983 (ftg John McLaughlin).wav

     Peak level 89.6 %
     Track quality 100.0 %
     Test CRC 62934B37
     Copy CRC 62934B37
     Track not present in AccurateRip database
     Copy OK

Track  7

     Filename D:\EAC\07 - First Jam (ftg John McLaughlin).wav

     Pre-gap length  0:00:01.00

     Peak level 71.0 %
     Track quality 100.0 %
     Test CRC 960C5506
     Copy CRC 960C5506
     Track not present in AccurateRip database
     Copy OK

None of the tracks are present in the AccurateRip database

No errors occurred

End of status report
Код:

-----------------------

DON'T MODIFY THIS FILE

-----------------------

PERFORMER: auCDtect Task Manager, ver. 1.6.0 RC1 build 1.6.0.1
Copyright (c) 2008-2010 y-soft. All rights reserved
http://y-soft.org

ANALYZER: auCDtect: CD records authenticity detector, version 0.8.2
Copyright (c) 2004 Oleg Berngardt. All rights reserved.
Copyright (c) 2004 Alexander Djourik. All rights reserved.

FILE: 07 - First Jam (ftg John McLaughlin).flac
  Size: 89902889 Hash: CE2696F8E94EBA9206C8A70231D3EBF6 Accuracy: -m0
  Conclusion: CDDA 99%
  Signature: 292DD6B7221CF2A72BCAD0203840BDD653A0513B
FILE: 06 - 1983 (ftg John McLaughlin).flac
  Size: 19599224 Hash: EDF0F08E3E69CCB50A3DD1927CC8D485 Accuracy: -m0
  Conclusion: CDDA 100%
  Signature: 87BC3CE370D315D18F8105FE5B72C1803B4C3068
FILE: 05 - Angel (vocal).flac
  Size: 16289399 Hash: C78B6FF0EB6C073B7444043910BDE7F8 Accuracy: -m0
  Conclusion: CDDA 92%
  Signature: DEB4CF47874DDBAD1BFC835C825B7519EAEE88A0
FILE: 04 - Red house (unr jam).flac
  Size: 39582519 Hash: DB980E026C5BDFD489BD4D0587818F35 Accuracy: -m0
  Conclusion: CDDA 100%
  Signature: BC7CA39C858CA458A18A75CF8BBC5BB55F0E403B
FILE: 03 - Somewhere over the Rainbow.flac
  Size: 19342351 Hash: 2D76D85E784598BAB2BE73F2C6B15A80 Accuracy: -m0
  Conclusion: CDDA 100%
  Signature: FFACD60106E614CCC557648F721A769079184A13
FILE: 02 - Voodoo Chile (studio jam).flac
  Size: 113933472 Hash: FE479A09E4A7CB0A40FF7383D16C9D66 Accuracy: -m0
  Conclusion: CDDA 99%
  Signature: 4562CF33E8E4066E0D25C338DF78C5E9A8976EF7
FILE: 01 - #7 Man.flac
  Size: 43143262 Hash: 3EA18710BF83E9EFA65727586BB242A3 Accuracy: -m0
  Conclusion: CDDA 100%
  Signature: F604C5D5BD7852063D377F4820FEEF11B197AEA2
Трек лист:

01. 7 Dollars in my Pocket [15:05]
02. Devil Jam [09:32]
03. Lover Man [04:56]
04. Midnight Lightning I [04:32]
05. Further On Up the Road [01:40]
06. The Things I Used To Do [07:06]
07. Once I had a Woman [05:29]
08. Machine Gun [08:26]
09. Lord I sing the Blues for me and you [04:15]
10. Country Blues [06:34]
11. Stop [04:45]

Продолжительность: 01:12:20
Код:

Exact Audio Copy V0.99 prebeta 4 from 23. January 2008

EAC extraction logfile from 1. February 2009, 21:13

Jimi Hendrix / Jimi Hendrix - Jimi Hendrix - 51st Anniversary (The Story of Life ...) (Disc 4)

Used drive  : TSSTcorpCD/DVDW TS-L632D   Adapter: 0  ID: 1

Read mode               : Secure
Utilize accurate stream : Yes
Defeat audio cache      : Yes
Make use of C2 pointers : No

Read offset correction                      : 6
Overread into Lead-In and Lead-Out          : No
Fill up missing offset samples with silence : Yes
Delete leading and trailing silent blocks   : No
Null samples used in CRC calculations       : Yes
Used interface                              : Native Win32 interface for Win NT & 2000
Gap handling                                : Appended to previous track

Used output format              : User Defined Encoder
Selected bitrate                : 128 kBit/s
Quality                         : High
Add ID3 tag                     : Yes
Command line compressor         : C:\Program Files\FLAC\flac.exe
Additional command line options : -8 -V -T "ARTIST=%a" -T "TITLE=%t" -T "ALBUM=%g" -T "DATE=%y" -T "TRACKNUMBER=%n" -T "GENRE=%m" -T "COMMENT=%e" %s -o %d

TOC of the extracted CD

     Track |   Start  |  Length  | Start sector | End sector
    ---------------------------------------------------------
        1  |  0:00.32 | 15:05.08 |        32    |    67914
        2  | 15:05.40 |  9:31.40 |     67915    |   110779
        3  | 24:37.05 |  4:56.17 |    110780    |   132996
        4  | 29:33.22 |  4:32.05 |    132997    |   153401
        5  | 34:05.27 |  1:40.25 |    153402    |   160926
        6  | 35:45.52 |  7:06.03 |    160927    |   192879
        7  | 42:51.55 |  5:29.10 |    192880    |   217564
        8  | 48:20.65 |  8:25.72 |    217565    |   255511
        9  | 56:46.62 |  4:15.05 |    255512    |   274641
       10  | 61:01.67 |  6:33.43 |    274642    |   304159
       11  | 67:35.35 |  4:44.72 |    304160    |   325531

Track  1

     Filename D:\EAC\01 - 7 Dollars in my Pocket.wav

     Pre-gap length  0:00:02.32

     Peak level 89.5 %
     Track quality 100.0 %
     Test CRC 16B9C4C0
     Copy CRC 16B9C4C0
     Track not present in AccurateRip database
     Copy OK

Track  2

     Filename D:\EAC\02 - Devil Jam.wav

     Peak level 89.5 %
     Track quality 100.0 %
     Test CRC D7A0F62E
     Copy CRC D7A0F62E
     Track not present in AccurateRip database
     Copy OK

Track  3

     Filename D:\EAC\03 - Lover Man.wav

     Peak level 89.5 %
     Track quality 100.0 %
     Test CRC D739E79F
     Copy CRC D739E79F
     Track not present in AccurateRip database
     Copy OK

Track  4

     Filename D:\EAC\04 - Midnight Lightning I.wav

     Peak level 89.5 %
     Track quality 100.0 %
     Test CRC 44B4B5A4
     Copy CRC 44B4B5A4
     Track not present in AccurateRip database
     Copy OK

Track  5

     Filename D:\EAC\05 - Further On Up the Road.wav

     Pre-gap length  0:00:00.01

     Peak level 86.8 %
     Track quality 100.0 %
     Test CRC 338BD0CE
     Copy CRC 338BD0CE
     Track not present in AccurateRip database
     Copy OK

Track  6

     Filename D:\EAC\06 - The Things I Used To Do.wav

     Peak level 61.6 %
     Track quality 99.9 %
     Test CRC B62DC789
     Copy CRC B62DC789
     Track not present in AccurateRip database
     Copy OK

Track  7

     Filename D:\EAC\07 - Once I had a Woman.wav

     Pre-gap length  0:00:01.00

     Peak level 69.3 %
     Track quality 100.0 %
     Test CRC A28CA002
     Copy CRC A28CA002
     Track not present in AccurateRip database
     Copy OK

Track  8

     Filename D:\EAC\08 - Machine Gun.wav

     Peak level 88.6 %
     Track quality 100.0 %
     Test CRC 16EDB9C2
     Copy CRC 16EDB9C2
     Track not present in AccurateRip database
     Copy OK

Track  9

     Filename D:\EAC\09 - Lord I sing the Blues for me and you.wav

     Peak level 88.0 %
     Track quality 100.0 %
     Test CRC 280FB9AB
     Copy CRC 280FB9AB
     Track not present in AccurateRip database
     Copy OK

Track 10

     Filename D:\EAC\10 - Country Blues.wav

     Peak level 88.6 %
     Track quality 100.0 %
     Test CRC 773D22D4
     Copy CRC 773D22D4
     Track not present in AccurateRip database
     Copy OK

Track 11

     Filename D:\EAC\11 - Stop.wav

     Peak level 89.4 %
     Track quality 100.0 %
     Test CRC 0924124E
     Copy CRC 0924124E
     Track not present in AccurateRip database
     Copy OK

None of the tracks are present in the AccurateRip database

No errors occurred

End of status report
Код:

-----------------------

DON'T MODIFY THIS FILE

-----------------------

PERFORMER: auCDtect Task Manager, ver. 1.6.0 RC1 build 1.6.0.1
Copyright (c) 2008-2010 y-soft. All rights reserved
http://y-soft.org

ANALYZER: auCDtect: CD records authenticity detector, version 0.8.2
Copyright (c) 2004 Oleg Berngardt. All rights reserved.
Copyright (c) 2004 Alexander Djourik. All rights reserved.

FILE: 11 - Stop.flac
  Size: 31954477 Hash: C9A16379C0A22F41BBB3D45B41DC41F9 Accuracy: -m0
  Conclusion: CDDA 100%
  Signature: 5F846573D1215084D5626F0DCB3655E64CF9703A
FILE: 10 - Country Blues.flac
  Size: 42924689 Hash: CBC38B2FEA70410B22946AA0B4114806 Accuracy: -m0
  Conclusion: CDDA 100%
  Signature: 4B08748C6452ED9B364E3DB98AE721A2F007219C
FILE: 09 - Lord I sing the Blues for me and you.flac
  Size: 25802169 Hash: D2D7D7796C9B1645BB138B18BE152425 Accuracy: -m0
  Conclusion: CDDA 100%
  Signature: E9FB77592000853050AA1DE562D020137C325EBB
FILE: 08 - Machine Gun.flac
  Size: 52816268 Hash: BA52F816E71B911890C928C767675CC6 Accuracy: -m0
  Conclusion: CDDA 99%
  Signature: 2B0F8ECAE173D4DF516B10554BFDD07C29FDEAAE
FILE: 07 - Once I had a Woman.flac
  Size: 32865130 Hash: F8E503DA532CD0F47DB5EAFC555FBC5C Accuracy: -m0
  Conclusion: CDDA 100%
  Signature: DE9B025A439B1B1237BFECF2FEFFA9C8FBA19DB5
FILE: 06 - The Things I Used To Do.flac
  Size: 43330682 Hash: D3B85CA274454C62B2792BA4C0F58E25 Accuracy: -m0
  Conclusion: CDDA 100%
  Signature: 1C6B20AA904FA324BFAE088EB8BACFF9DD2F594A
FILE: 05 - Further On Up the Road.flac
  Size: 11324590 Hash: DD35D5AC76C1E4697BCC4469881038A4 Accuracy: -m0
  Conclusion: CDDA 100%
  Signature: 3C8F4C91CA581859CEF94E11F039FD8C9B0F9169
FILE: 04 - Midnight Lightning I.flac
  Size: 24382845 Hash: 3ED303EF6B67B7CA9C7C8505D49D6463 Accuracy: -m0
  Conclusion: CDDA 100%
  Signature: B87A74B8F1B0A1530A3BF50E422753A7AB439FB0
FILE: 03 - Lover Man.flac
  Size: 31540676 Hash: E253914AEE8AFB392B0DA12E76C23470 Accuracy: -m0
  Conclusion: CDDA 100%
  Signature: CC1BA46D0AA90C766E661F3E5CB4F3B511DC1331
FILE: 02 - Devil Jam.flac
  Size: 61485467 Hash: B70E2E73317D1EE677EFF4403F9915C6 Accuracy: -m0
  Conclusion: CDDA 100%
  Signature: E2BEADF250DFF8D3B8D785361D934F2F42A9E8A0
FILE: 01 - 7 Dollars in my Pocket.flac
  Size: 91514169 Hash: DB38706BDD5233F34026F89881D3FA47 Accuracy: -m0
  Conclusion: CDDA 100%
  Signature: BCE3F71838195E0048ECD10D612DE925629F606B
Продолжительность: 02:36:41

Disc 05

Трек лист:

01. Midnight lightning 2 (unk outtakes) [06:29]
02. Lower Alcatraz (unr track) [03:41]
03. There goes ezy rider/7 dollars in my pocket (unr studio improv) [11:37]
04. Heavy rider jam (unr live studio jam) [09:26]
05. Easy blues (unr live studio improv w/ friends) [07:44]
06. Gypsy boy (unr studio outtake) [03:13]
07. Peace in Mississipi (unr studio outtake) [04:25]
08. Bluesiana jam (march 69 unr private tape) [27:02]
09. BB King slow instrumental jam (live at Generation, 5-18-69 NY) [05:23]

Продолжительность: 01:19:00
Код:

Exact Audio Copy V0.99 prebeta 4 from 23. January 2008

EAC extraction logfile from 2. February 2009, 12:11

Jimi Hendrix / 51st Anniversary (The Story of Life ...) (Disc 5)

Used drive  : TSSTcorpCD/DVDW TS-L632D   Adapter: 0  ID: 1

Read mode               : Secure
Utilize accurate stream : Yes
Defeat audio cache      : Yes
Make use of C2 pointers : No

Read offset correction                      : 6
Overread into Lead-In and Lead-Out          : No
Fill up missing offset samples with silence : Yes
Delete leading and trailing silent blocks   : No
Null samples used in CRC calculations       : Yes
Used interface                              : Native Win32 interface for Win NT & 2000
Gap handling                                : Appended to previous track

Used output format              : User Defined Encoder
Selected bitrate                : 128 kBit/s
Quality                         : High
Add ID3 tag                     : Yes
Command line compressor         : C:\Program Files\FLAC\flac.exe
Additional command line options : -8 -V -T "ARTIST=%a" -T "TITLE=%t" -T "ALBUM=%g" -T "DATE=%y" -T "TRACKNUMBER=%n" -T "GENRE=%m" -T "COMMENT=%e" %s -o %d

TOC of the extracted CD

     Track |   Start  |  Length  | Start sector | End sector
    ---------------------------------------------------------
        1  |  0:00.32 |  6:28.53 |        32    |    29184
        2  |  6:29.10 |  3:40.67 |     29185    |    45751
        3  | 10:10.02 | 11:37.05 |     45752    |    98031
        4  | 21:47.07 |  9:25.45 |     98032    |   140451
        5  | 31:12.52 |  7:44.25 |    140452    |   175276
        6  | 38:57.02 |  3:13.13 |    175277    |   189764
        7  | 42:10.15 |  4:25.02 |    189765    |   209641
        8  | 46:35.17 | 27:01.43 |    209642    |   331259
        9  | 73:36.60 |  5:22.47 |    331260    |   355456

Track  1

     Filename D:\EAC\01 - Midnight lightning 2 (unk outtakes).wav

     Pre-gap length  0:00:02.32

     Peak level 63.4 %
     Track quality 100.0 %
     Test CRC B15902D8
     Copy CRC B15902D8
     Track not present in AccurateRip database
     Copy OK

Track  2

     Filename D:\EAC\02 - Lower Alcatraz (unr track).wav

     Peak level 49.3 %
     Track quality 100.0 %
     Test CRC 076992C2
     Copy CRC 076992C2
     Track not present in AccurateRip database
     Copy OK

Track  3

     Filename D:\EAC\03 - There goes ezy rider,7 dollars in my pocket (unr studio improv).wav

     Peak level 52.6 %
     Track quality 100.0 %
     Test CRC 3EAF600D
     Copy CRC 3EAF600D
     Track not present in AccurateRip database
     Copy OK

Track  4

     Filename D:\EAC\04 - Heavy rider jam (unr live studio jam).wav

     Peak level 39.7 %
     Track quality 100.0 %
     Test CRC 3D8F8EAA
     Copy CRC 3D8F8EAA
     Track not present in AccurateRip database
     Copy OK

Track  5

     Filename D:\EAC\05 - Easy blues (unr live studio improv w, friends).wav

     Peak level 38.3 %
     Track quality 100.0 %
     Test CRC 53A31A90
     Copy CRC 53A31A90
     Track not present in AccurateRip database
     Copy OK

Track  6

     Filename D:\EAC\06 - Gypsy boy (unr studio outtake).wav

     Peak level 52.4 %
     Track quality 100.0 %
     Test CRC 71EA440B
     Copy CRC 71EA440B
     Track not present in AccurateRip database
     Copy OK

Track  7

     Filename D:\EAC\07 - Peace in Mississipi (unr studio outtake).wav

     Peak level 59.9 %
     Track quality 100.0 %
     Test CRC 41F0FA5B
     Copy CRC 41F0FA5B
     Track not present in AccurateRip database
     Copy OK

Track  8

     Filename D:\EAC\08 - Bluesiana jam (march 69 unr private tape).wav

     Peak level 72.1 %
     Track quality 100.0 %
     Test CRC 73288E1E
     Copy CRC 73288E1E
     Track not present in AccurateRip database
     Copy OK

Track  9

     Filename D:\EAC\09 - BB King slow instrumental jam (live at Generation, 5-18-69 NY).wav

     Peak level 64.2 %
     Track quality 100.0 %
     Test CRC 3240C2AC
     Copy CRC 3240C2AC
     Track not present in AccurateRip database
     Copy OK

None of the tracks are present in the AccurateRip database

No errors occurred

End of status report
Код:

-----------------------

DON'T MODIFY THIS FILE

-----------------------

PERFORMER: auCDtect Task Manager, ver. 1.6.0 RC1 build 1.6.0.1
Copyright (c) 2008-2010 y-soft. All rights reserved
http://y-soft.org

ANALYZER: auCDtect: CD records authenticity detector, version 0.8.2
Copyright (c) 2004 Oleg Berngardt. All rights reserved.
Copyright (c) 2004 Alexander Djourik. All rights reserved.

FILE: 09 - BB King slow instrumental jam (live at Generation, 5-18-69 NY).flac
  Size: 26558309 Hash: 4862099AEDF0803F78D8646D80939399 Accuracy: -m0
  Conclusion: MPEG 100%
  Signature: 5344549EC2D8D2CE96B47762B6A5D6D77DC1C63F
FILE: 08 - Bluesiana jam (march 69 unr private tape).flac
  Size: 131331350 Hash: FE7F011BF49858989942D9256199C604 Accuracy: -m0
  Conclusion: CDDA 100%
  Signature: F3D0550B5780CEF2393B7D487DAC4CF18E6A4608
FILE: 07 - Peace in Mississipi (unr studio outtake).flac
  Size: 24423237 Hash: 9BDCD686E7D56A482836258BD5AA29A9 Accuracy: -m0
  Conclusion: CDDA 100%
  Signature: 3AE27686DEA0B4C03D0991A1460FD3A518698B7A
FILE: 06 - Gypsy boy (unr studio outtake).flac
  Size: 16156866 Hash: 3F3AF7D943CE8D40C8F621C1676D5CDE Accuracy: -m0
  Conclusion: CDDA 100%
  Signature: D2F9F7AFC888FB1EB567399A5986F08DB03D7D7B
FILE: 05 - Easy blues (unr live studio improv w, friends).flac
  Size: 40426287 Hash: E70733BD93F86BDD462B5F9437D3FAE0 Accuracy: -m0
  Conclusion: CDDA 100%
  Signature: BE55E9D7835985EA9F659FE37F8C791AF14AC548
FILE: 04 - Heavy rider jam (unr live studio jam).flac
  Size: 51619393 Hash: 8FAF5F2652C28BFC94E453E878623D6C Accuracy: -m0
  Conclusion: CDDA 99%
  Signature: B9C24C7CD3BE16FF52E5255A77B045F5DB7D6D8A
FILE: 03 - There goes ezy rider,7 dollars in my pocket (unr studio improv).flac
  Size: 52629498 Hash: 92DD206C2F9885A5E88A6652805BC22B Accuracy: -m0
  Conclusion: CDDA 100%
  Signature: BFB36C81443AF2BA0799DC8935F8EEA7218739EF
FILE: 02 - Lower Alcatraz (unr track).flac
  Size: 20224822 Hash: 5DF4A939F5BDBD2F8133280D4279F9F1 Accuracy: -m0
  Conclusion: CDDA 100%
  Signature: 7806BECDEFB4CA08F4B587D9F6564A569303F9D7
FILE: 01 - Midnight lightning 2 (unk outtakes).flac
  Size: 34512152 Hash: E0D6A970FA130B38948FE2797A6A5987 Accuracy: -m0
  Conclusion: CDDA 100%
  Signature: 03F1D37C19CF6EAAE29E7AFAC2748953280EAB8D
Трек лист:

01. Two Guitars Jam [10:13]
02. S. Francisco Bay Blues [08:07]
03. Gypsy Eyes [04:20]
04. Cherokee Mist [07:07]
05. The Street Things [05:14]
06. In From the Storm [03:43]
07. Freedom [03:26]
08. Somewhere Over the Rainbow 2 [03:34]
09. Belly Button Window [04:46]
10. Captain Coconut 2 & Cherokee Mist [06:13]
11. Rider Blues [11:32]
12. Electric Ladyland Theme [04:30]
13. Jazzy Jamming [04:56]

Продолжительность: 01:17:41
Код:

Exact Audio Copy V0.99 prebeta 4 from 23. January 2008

EAC extraction logfile from 3. February 2009, 21:09

Jimi Hendrix / Jimi Hendrix - 51st Anniversary (The Story of Life ...) (Disc 6)

Used drive  : TSSTcorpCD/DVDW TS-L632D   Adapter: 0  ID: 1

Read mode               : Secure
Utilize accurate stream : Yes
Defeat audio cache      : Yes
Make use of C2 pointers : No

Read offset correction                      : 6
Overread into Lead-In and Lead-Out          : No
Fill up missing offset samples with silence : Yes
Delete leading and trailing silent blocks   : No
Null samples used in CRC calculations       : Yes
Used interface                              : Native Win32 interface for Win NT & 2000
Gap handling                                : Appended to previous track

Used output format              : User Defined Encoder
Selected bitrate                : 128 kBit/s
Quality                         : High
Add ID3 tag                     : Yes
Command line compressor         : C:\Program Files\FLAC\flac.exe
Additional command line options : -8 -V -T "ARTIST=%a" -T "TITLE=%t" -T "ALBUM=%g" -T "DATE=%y" -T "TRACKNUMBER=%n" -T "GENRE=%m" -T "COMMENT=%e" %s -o %d

TOC of the extracted CD

     Track |   Start  |  Length  | Start sector | End sector
    ---------------------------------------------------------
        1  |  0:00.00 | 10:12.57 |         0    |    45956
        2  | 10:12.57 |  8:06.68 |     45957    |    82474
        3  | 18:19.50 |  4:19.65 |     82475    |   101964
        4  | 22:39.40 |  7:06.52 |    101965    |   133966
        5  | 29:46.17 |  5:13.70 |    133967    |   157511
        6  | 35:00.12 |  3:42.48 |    157512    |   174209
        7  | 38:42.60 |  3:25.40 |    174210    |   189624
        8  | 42:08.25 |  3:33.55 |    189625    |   205654
        9  | 45:42.05 |  4:46.27 |    205655    |   227131
       10  | 50:28.32 |  6:13.33 |    227132    |   255139
       11  | 56:41.65 | 11:32.17 |    255140    |   307056
       12  | 68:14.07 |  4:29.68 |    307057    |   327299
       13  | 72:44.00 |  4:56.00 |    327300    |   349499

Track  1

     Filename D:\EAC\01 - Two Guitars Jam.wav

     Pre-gap length  0:00:02.00

     Peak level 84.7 %
     Track quality 100.0 %
     Test CRC F6310FC1
     Copy CRC F6310FC1
     Track not present in AccurateRip database
     Copy OK

Track  2

     Filename D:\EAC\02 - S. Francisco Bay Blues.wav

     Peak level 90.2 %
     Track quality 100.0 %
     Test CRC 2E824FB7
     Copy CRC 2E824FB7
     Track not present in AccurateRip database
     Copy OK

Track  3

     Filename D:\EAC\03 - Gypsy Eyes.wav

     Peak level 75.9 %
     Track quality 100.0 %
     Test CRC BD592801
     Copy CRC BD592801
     Track not present in AccurateRip database
     Copy OK

Track  4

     Filename D:\EAC\04 - Cherokee Mist.wav

     Peak level 72.8 %
     Track quality 99.9 %
     Test CRC 90237316
     Copy CRC 90237316
     Track not present in AccurateRip database
     Copy OK

Track  5

     Filename D:\EAC\05 - The Street Things.wav

     Peak level 93.6 %
     Track quality 100.0 %
     Test CRC 85B04FCB
     Copy CRC 85B04FCB
     Track not present in AccurateRip database
     Copy OK

Track  6

     Filename D:\EAC\06 - In From the Storm.wav

     Peak level 99.2 %
     Track quality 100.0 %
     Test CRC 71ACC6BC
     Copy CRC 71ACC6BC
     Track not present in AccurateRip database
     Copy OK

Track  7

     Filename D:\EAC\07 - Freedom.wav

     Peak level 73.9 %
     Track quality 99.9 %
     Test CRC 6A07BCE6
     Copy CRC 6A07BCE6
     Track not present in AccurateRip database
     Copy OK

Track  8

     Filename D:\EAC\08 - Somewhere Over the Rainbow 2.wav

     Peak level 77.2 %
     Track quality 100.0 %
     Test CRC BAFCF402
     Copy CRC BAFCF402
     Track not present in AccurateRip database
     Copy OK

Track  9

     Filename D:\EAC\09 - Belly Button Window.wav

     Peak level 77.3 %
     Track quality 100.0 %
     Test CRC 60141BA5
     Copy CRC 60141BA5
     Track not present in AccurateRip database
     Copy OK

Track 10

     Filename D:\EAC\10 - Captain Coconut 2 & Cherokee Mist.wav

     Peak level 97.4 %
     Track quality 100.0 %
     Test CRC 6833877A
     Copy CRC 6833877A
     Track not present in AccurateRip database
     Copy OK

Track 11

     Filename D:\EAC\11 - Rider Blues.wav

     Peak level 69.4 %
     Track quality 100.0 %
     Test CRC B2FE6271
     Copy CRC B2FE6271
     Track not present in AccurateRip database
     Copy OK

Track 12

     Filename D:\EAC\12 - Electric Ladyland Theme.wav

     Peak level 81.5 %
     Track quality 100.0 %
     Test CRC 9B915F15
     Copy CRC 9B915F15
     Track not present in AccurateRip database
     Copy OK

Track 13

     Filename D:\EAC\13 - Jazzy Jamming.wav

     Peak level 63.0 %
     Track quality 100.0 %
     Test CRC C6D038BD
     Copy CRC C6D038BD
     Track not present in AccurateRip database
     Copy OK

None of the tracks are present in the AccurateRip database

No errors occurred

End of status report
Код:

-----------------------

DON'T MODIFY THIS FILE

-----------------------

PERFORMER: auCDtect Task Manager, ver. 1.6.0 RC1 build 1.6.0.1
Copyright (c) 2008-2010 y-soft. All rights reserved
http://y-soft.org

ANALYZER: auCDtect: CD records authenticity detector, version 0.8.2
Copyright (c) 2004 Oleg Berngardt. All rights reserved.
Copyright (c) 2004 Alexander Djourik. All rights reserved.

FILE: 13 - Jazzy Jamming.flac
  Size: 26659603 Hash: 4356F38CF78AC85CFFB2B6B0EA896526 Accuracy: -m0
  Conclusion: CDDA 100%
  Signature: F7215A8C169B92541D2E411FCE42D42F8C0CB4BA
FILE: 12 - Electric Ladyland Theme.flac
  Size: 27250004 Hash: 66C5CA1FC73E544A9AF045D98C7C2906 Accuracy: -m0
  Conclusion: CDDA 100%
  Signature: 44731EECED54E94E81A3337FA672A214EA0FB27E
FILE: 11 - Rider Blues.flac
  Size: 61928546 Hash: F9427871711FA09745C76602CBE959BE Accuracy: -m0
  Conclusion: CDDA 100%
  Signature: 858A4282F4AFDA86E3525B128353FF311B6C04BD
FILE: 10 - Captain Coconut 2 & Cherokee Mist.flac
  Size: 38249408 Hash: ECE4D6611716CC73FDE6A405E49961E6 Accuracy: -m0
  Conclusion: CDDA 100%
  Signature: 087CA925FE6FB41E209E046C3F4C1BFB1D9D7A86
FILE: 09 - Belly Button Window.flac
  Size: 24815718 Hash: F0B709EF86A4B187D2F5BEBCDC96860E Accuracy: -m0
  Conclusion: CDDA 100%
  Signature: 8943E65D37FC8DC01CD10B2AA2B674627D4BD038
FILE: 08 - Somewhere Over the Rainbow 2.flac
  Size: 21620710 Hash: 9DAB0179E92D313F60EE05F692FDCC28 Accuracy: -m0
  Conclusion: CDDA 100%
  Signature: 154F592A6ED3C9A7EE1B25C36B026A9E29864D29
FILE: 07 - Freedom.flac
  Size: 20876546 Hash: 0325118FD9D0D8BE4F73C7AFF82643F1 Accuracy: -m0
  Conclusion: CDDA 100%
  Signature: BC5AEFFA275BB82813AAD9F50A1253CDBA747A3F
FILE: 06 - In From the Storm.flac
  Size: 21716473 Hash: 6F00B874615493863673B1D7C3E5476E Accuracy: -m0
  Conclusion: CDDA 99%
  Signature: 94CAC8572201C3F9715DB4412E49AAA58A07CA2B
FILE: 05 - The Street Things.flac
  Size: 31545995 Hash: 3CC62A224719D8321D26A6101A111708 Accuracy: -m0
  Conclusion: CDDA 100%
  Signature: FED2DDFD00C267CCCC3FB94656A035506DD9F899
FILE: 04 - Cherokee Mist.flac
  Size: 37517729 Hash: 54322954B0711D3C39969FAD6E4A9A9B Accuracy: -m0
  Conclusion: CDDA 100%
  Signature: A5415AF5B3A03FEA8D11B1A4A97471A0540677B6
FILE: 03 - Gypsy Eyes.flac
  Size: 28352384 Hash: CBF0E59330ED4AB19B6E292FCB14FF97 Accuracy: -m0
  Conclusion: CDDA 100%
  Signature: 80E0BBBE10C0886572946ACDAA5707A865260C5E
FILE: 02 - S. Francisco Bay Blues.flac
  Size: 45283547 Hash: 024B4971FBEE4F50DBF527F36DC8B290 Accuracy: -m0
  Conclusion: CDDA 100%
  Signature: 0B9726E80387627324FB179279522A906ADB9145
FILE: 01 - Two Guitars Jam.flac
  Size: 52154577 Hash: B0318F61675B868373BE569B25BA00D1 Accuracy: -m0
  Conclusion: CDDA 100%
  Signature: C8F31E68C271815825CDFCE981BAD477CC7E1653
Продолжительность: 02:12:48

Disc 07

Трек лист:

01. She's So Fine [02:37]
02. Axis: Bold As Love [03:32]
03. EXP [01:56]
04. Up From The Skies [02:56]
05. Love Jam [13:05]
06. Electric Ladyland Jam [06:21]
07. Pass It On [07:21]
08. Hey Baby (New Rising Sun) [06:17]
09. Stone Free [04:01]
10. Hey Joe [04:54]
11. Freedom [05:11]
12. Red House [07:56]
13. Ezy Rider [06:34]
14. New Rising Sun Theme (instrumental) [04:53]

Продолжительность: 01:17:34
Код:

Exact Audio Copy V0.99 prebeta 4 from 23. January 2008

EAC extraction logfile from 5. February 2009, 16:19

Jimi Hendrix / 51st Anniversary (The Story of Life ...) (Disc 7)

Used drive  : TSSTcorpCD/DVDW TS-L632D   Adapter: 0  ID: 1

Read mode               : Secure
Utilize accurate stream : Yes
Defeat audio cache      : Yes
Make use of C2 pointers : No

Read offset correction                      : 6
Overread into Lead-In and Lead-Out          : No
Fill up missing offset samples with silence : Yes
Delete leading and trailing silent blocks   : No
Null samples used in CRC calculations       : Yes
Used interface                              : Native Win32 interface for Win NT & 2000
Gap handling                                : Appended to previous track

Used output format              : User Defined Encoder
Selected bitrate                : 128 kBit/s
Quality                         : High
Add ID3 tag                     : Yes
Command line compressor         : C:\Program Files\FLAC\flac.exe
Additional command line options : -8 -V -T "ARTIST=%a" -T "TITLE=%t" -T "ALBUM=%g" -T "DATE=%y" -T "TRACKNUMBER=%n" -T "GENRE=%m" -T "COMMENT=%e" %s -o %d

TOC of the extracted CD

     Track |   Start  |  Length  | Start sector | End sector
    ---------------------------------------------------------
        1  |  0:00.32 |  2:36.53 |        32    |    11784
        2  |  2:37.10 |  3:31.67 |     11785    |    27676
        3  |  6:09.02 |  1:56.13 |     27677    |    36389
        4  |  8:05.15 |  2:55.60 |     36390    |    49574
        5  | 11:01.00 | 13:05.12 |     49575    |   108461
        6  | 24:06.12 |  6:20.58 |    108462    |   137019
        7  | 30:26.70 |  7:21.02 |    137020    |   170096
        8  | 37:47.72 |  6:17.20 |    170097    |   198391
        9  | 44:05.17 |  4:00.73 |    198392    |   216464
       10  | 48:06.15 |  4:53.45 |    216465    |   238484
       11  | 52:59.60 |  5:11.07 |    238485    |   261816
       12  | 58:10.67 |  7:56.25 |    261817    |   297541
       13  | 66:07.17 |  6:34.33 |    297542    |   327124
       14  | 72:41.50 |  4:52.57 |    327125    |   349081

Track  1

     Filename D:\EAC\01 - She's So Fine.wav

     Pre-gap length  0:00:02.32

     Peak level 99.9 %
     Track quality 99.9 %
     Test CRC 72C447AD
     Copy CRC 72C447AD
     Track not present in AccurateRip database
     Copy OK

Track  2

     Filename D:\EAC\02 - Axis- Bold As Love.wav

     Peak level 100.0 %
     Track quality 100.0 %
     Test CRC D8D22218
     Copy CRC D8D22218
     Track not present in AccurateRip database
     Copy OK

Track  3

     Filename D:\EAC\03 - EXP.wav

     Peak level 82.7 %
     Track quality 100.0 %
     Test CRC 19E378CD
     Copy CRC 19E378CD
     Track not present in AccurateRip database
     Copy OK

Track  4

     Filename D:\EAC\04 - Up From The Skies.wav

     Peak level 77.4 %
     Track quality 100.0 %
     Test CRC 51AC601D
     Copy CRC 51AC601D
     Track not present in AccurateRip database
     Copy OK

Track  5

     Filename D:\EAC\05 - Love Jam.wav

     Peak level 93.8 %
     Track quality 100.0 %
     Test CRC 08B28ED9
     Copy CRC 08B28ED9
     Track not present in AccurateRip database
     Copy OK

Track  6

     Filename D:\EAC\06 - Electric Ladyland Jam.wav

     Peak level 100.0 %
     Track quality 100.0 %
     Test CRC 469419EA
     Copy CRC 469419EA
     Track not present in AccurateRip database
     Copy OK

Track  7

     Filename D:\EAC\07 - Pass It On.wav

     Peak level 100.0 %
     Track quality 100.0 %
     Test CRC 5D3A9D59
     Copy CRC 5D3A9D59
     Track not present in AccurateRip database
     Copy OK

Track  8

     Filename D:\EAC\08 - Hey Baby (New Rising Sun).wav

     Peak level 93.2 %
     Track quality 100.0 %
     Test CRC 2465E811
     Copy CRC 2465E811
     Track not present in AccurateRip database
     Copy OK

Track  9

     Filename D:\EAC\09 - Stone Free.wav

     Peak level 90.4 %
     Track quality 100.0 %
     Test CRC 8E9C72E5
     Copy CRC 8E9C72E5
     Track not present in AccurateRip database
     Copy OK

Track 10

     Filename D:\EAC\10 - Hey Joe.wav

     Peak level 90.3 %
     Track quality 100.0 %
     Test CRC 819768B1
     Copy CRC 819768B1
     Track not present in AccurateRip database
     Copy OK

Track 11

     Filename D:\EAC\11 - Freedom.wav

     Peak level 90.3 %
     Track quality 100.0 %
     Test CRC E8BAE407
     Copy CRC E8BAE407
     Track not present in AccurateRip database
     Copy OK

Track 12

     Filename D:\EAC\12 - Red House.wav

     Peak level 90.5 %
     Track quality 100.0 %
     Test CRC 570F7686
     Copy CRC 570F7686
     Track not present in AccurateRip database
     Copy OK

Track 13

     Filename D:\EAC\13 - Ezy Rider.wav

     Peak level 90.4 %
     Track quality 100.0 %
     Test CRC 2A6FC1A2
     Copy CRC 2A6FC1A2
     Track not present in AccurateRip database
     Copy OK

Track 14

     Filename D:\EAC\14 - New Rising Sun Theme (instrumental).wav

     Peak level 67.4 %
     Track quality 100.0 %
     Test CRC CD212CB2
     Copy CRC CD212CB2
     Track not present in AccurateRip database
     Copy OK

None of the tracks are present in the AccurateRip database

No errors occurred

End of status report
Код:

-----------------------

DON'T MODIFY THIS FILE

-----------------------

PERFORMER: auCDtect Task Manager, ver. 1.6.0 RC1 build 1.6.0.1
Copyright (c) 2008-2010 y-soft. All rights reserved
http://y-soft.org

ANALYZER: auCDtect: CD records authenticity detector, version 0.8.2
Copyright (c) 2004 Oleg Berngardt. All rights reserved.
Copyright (c) 2004 Alexander Djourik. All rights reserved.

FILE: 14 - New Rising Sun Theme (instrumental).flac
  Size: 23168305 Hash: 4F6C92A7E5C6B291955D41AAEAAE7F1A Accuracy: -m0
  Conclusion: CDDA 100%
  Signature: EBA63B7933BEC8561FABF8D7050BC55D9F952B16
FILE: 13 - Ezy Rider.flac
  Size: 45752139 Hash: B25B4F41DC0AB5FED8FB46106A5F582C Accuracy: -m0
  Conclusion: CDDA 100%
  Signature: 76E786CBA5E1BAC1A6340F65204A2D53294F4EFF
FILE: 12 - Red House.flac
  Size: 51145325 Hash: 2183A96119E102ACF62984320538BE83 Accuracy: -m0
  Conclusion: CDDA 62%
  Signature: 68D7AF14C3DA4E37B1D3171F45C0765295957757
FILE: 11 - Freedom.flac
  Size: 34961300 Hash: E02E4099F7E605A1B49A81A7AE309DFD Accuracy: -m0
  Conclusion: CDDA 86%
  Signature: 11E5771C12762DDB31ED344E485B24626ED20C8A
FILE: 10 - Hey Joe.flac
  Size: 33168484 Hash: 8E009168F40595702CC04F677D3A26A3 Accuracy: -m0
  Conclusion: CDDA 99%
  Signature: B22AF612E07DE1B452145207326331D6392EA855
FILE: 09 - Stone Free.flac
  Size: 25246467 Hash: 7A7E9087133D787B6178E733C1A63615 Accuracy: -m0
  Conclusion: CDDA 100%
  Signature: 4D5CE7ED664422857ECE4591CD1CCD1BE50F9E4F
FILE: 08 - Hey Baby (New Rising Sun).flac
  Size: 33480583 Hash: A8D4CB7BE2A922699CF0E35A7D662D43 Accuracy: -m0
  Conclusion: CDDA 100%
  Signature: 32B24910FCD7C16B4C79066E9E790E0D7EDCF08D
FILE: 07 - Pass It On.flac
  Size: 43936089 Hash: 796DCC1018157EA17F3917E5C90BB4D5 Accuracy: -m0
  Conclusion: CDDA 100%
  Signature: DCC0F68EE273AF13299030FD13A3042F8824C4E1
FILE: 06 - Electric Ladyland Jam.flac
  Size: 38491053 Hash: 780D6603F30FA3F7DE016BCE8E4AE6EC Accuracy: -m0
  Conclusion: CDDA 100%
  Signature: 7E8D9473DD70EC64F0EBAE1D0463DA32E7B4E847
FILE: 05 - Love Jam.flac
  Size: 72124875 Hash: 34F03E3B9ED18E884BE4EA848228F6FF Accuracy: -m0
  Conclusion: CDDA 100%
  Signature: 3E4FDFD51947136AAB88BE8F797421EAD3EF8808
FILE: 04 - Up From The Skies.flac
  Size: 17381998 Hash: 5767067BAEE04960148F622836921BF8 Accuracy: -m0
  Conclusion: CDDA 99%
  Signature: 9B8AB7D95A535F18A57C1BF222FC6CB55B870D8F
FILE: 03 - EXP.flac
  Size: 11750690 Hash: 06762014F2030790AABE11B98112113A Accuracy: -m0
  Conclusion: CDDA 100%
  Signature: 10FE21638827C1506A64D839AD776EAFDDE317E4
FILE: 02 - Axis- Bold As Love.flac
  Size: 21734826 Hash: 376C3FF77209FF1C2DD2EAD3D12996C5 Accuracy: -m0
  Conclusion: CDDA 99%
  Signature: 36900752C529ECB2BCDCF0927B77B7412319EE97
FILE: 01 - She's So Fine.flac
  Size: 16948746 Hash: E7CDA7F78E5348AD2DAB3DEB3FFD018A Accuracy: -m0
  Conclusion: CDDA 100%
  Signature: 9DE533E844C2E0985495837A73063BD25701B105
Трек лист:

01. Fire [03:39]
02. Getting My Heart Back Together Again [07:01]
03. Spanish Castle Magic [10:15]
04. Purple Haze [06:50]
05. Tax Free [14:44]
06. Message To Love [03:34]
07. Red House [05:17]
08. Voodoo Chile (Slight Return) [05:59]
09. Machine Gun [10:32]
10. Hey Baby (New Rising Sun) [07:23]

Продолжительность: 01:15:14
Код:

Exact Audio Copy V0.99 prebeta 4 from 23. January 2008

EAC extraction logfile from 5. February 2009, 17:01

Jimi Hendrix / 51st Anniversary (The Story of Life ...) (Disc 8)

Used drive  : TSSTcorpCD/DVDW TS-L632D   Adapter: 0  ID: 1

Read mode               : Secure
Utilize accurate stream : Yes
Defeat audio cache      : Yes
Make use of C2 pointers : No

Read offset correction                      : 6
Overread into Lead-In and Lead-Out          : No
Fill up missing offset samples with silence : Yes
Delete leading and trailing silent blocks   : No
Null samples used in CRC calculations       : Yes
Used interface                              : Native Win32 interface for Win NT & 2000
Gap handling                                : Appended to previous track

Used output format              : User Defined Encoder
Selected bitrate                : 128 kBit/s
Quality                         : High
Add ID3 tag                     : Yes
Command line compressor         : C:\Program Files\FLAC\flac.exe
Additional command line options : -8 -V -T "ARTIST=%a" -T "TITLE=%t" -T "ALBUM=%g" -T "DATE=%y" -T "TRACKNUMBER=%n" -T "GENRE=%m" -T "COMMENT=%e" %s -o %d

TOC of the extracted CD

     Track |   Start  |  Length  | Start sector | End sector
    ---------------------------------------------------------
        1  |  0:00.32 |  3:38.58 |        32    |    16439
        2  |  3:39.15 |  7:01.37 |     16440    |    48051
        3  | 10:40.52 | 10:15.08 |     48052    |    94184
        4  | 20:55.60 |  6:49.72 |     94185    |   124931
        5  | 27:45.57 | 14:44.35 |    124932    |   191266
        6  | 42:30.17 |  3:34.15 |    191267    |   207331
        7  | 46:04.32 |  5:17.10 |    207332    |   231116
        8  | 51:21.42 |  5:58.60 |    231117    |   258026
        9  | 57:20.27 | 10:31.40 |    258027    |   305391
       10  | 67:51.67 |  7:22.40 |    305392    |   338581

Track  1

     Filename D:\EAC\01 - Fire.wav

     Pre-gap length  0:00:02.32

     Peak level 73.0 %
     Track quality 100.0 %
     Test CRC B1C9148B
     Copy CRC B1C9148B
     Track not present in AccurateRip database
     Copy OK

Track  2

     Filename D:\EAC\02 - Getting My Heart Back Together Again.wav

     Peak level 65.8 %
     Track quality 100.0 %
     Test CRC DCFBC673
     Copy CRC DCFBC673
     Track not present in AccurateRip database
     Copy OK

Track  3

     Filename D:\EAC\03 - Spanish Castle Magic.wav

     Peak level 68.4 %
     Track quality 100.0 %
     Test CRC 90746AB5
     Copy CRC 90746AB5
     Track not present in AccurateRip database
     Copy OK

Track  4

     Filename D:\EAC\04 - Purple Haze.wav

     Peak level 61.6 %
     Track quality 100.0 %
     Test CRC 3F096B2F
     Copy CRC 3F096B2F
     Track not present in AccurateRip database
     Copy OK

Track  5

     Filename D:\EAC\05 - Tax Free.wav

     Peak level 91.0 %
     Track quality 100.0 %
     Test CRC 99D2810C
     Copy CRC 99D2810C
     Track not present in AccurateRip database
     Copy OK

Track  6

     Filename D:\EAC\06 - Message To Love.wav

     Peak level 86.7 %
     Track quality 99.9 %
     Test CRC C747258B
     Copy CRC C747258B
     Track not present in AccurateRip database
     Copy OK

Track  7

     Filename D:\EAC\07 - Red House.wav

     Peak level 79.3 %
     Track quality 99.9 %
     Test CRC EC79DC13
     Copy CRC EC79DC13
     Track not present in AccurateRip database
     Copy OK

Track  8

     Filename D:\EAC\08 - Voodoo Chile (Slight Return).wav

     Peak level 93.3 %
     Track quality 100.0 %
     Test CRC 4C8FAE52
     Copy CRC 4C8FAE52
     Track not present in AccurateRip database
     Copy OK

Track  9

     Filename D:\EAC\09 - Machine Gun.wav

     Peak level 95.4 %
     Track quality 100.0 %
     Test CRC 1DED32F9
     Copy CRC 1DED32F9
     Track not present in AccurateRip database
     Copy OK

Track 10

     Filename D:\EAC\10 - Hey Baby (New Rising Sun).wav

     Peak level 59.0 %
     Track quality 100.0 %
     Test CRC 7A2161E1
     Copy CRC 7A2161E1
     Track not present in AccurateRip database
     Copy OK

None of the tracks are present in the AccurateRip database

No errors occurred

End of status report
Код:

-----------------------

DON'T MODIFY THIS FILE

-----------------------

PERFORMER: auCDtect Task Manager, ver. 1.6.0 RC1 build 1.6.0.1
Copyright (c) 2008-2010 y-soft. All rights reserved
http://y-soft.org

ANALYZER: auCDtect: CD records authenticity detector, version 0.8.2
Copyright (c) 2004 Oleg Berngardt. All rights reserved.
Copyright (c) 2004 Alexander Djourik. All rights reserved.

FILE: 10 - Hey Baby (New Rising Sun).flac
  Size: 33046792 Hash: 0980E6FD61BF5F30AF601532F47E6E7F Accuracy: -m0
  Conclusion: CDDA 100%
  Signature: 14FAF5692407BD9AE8201D49ADCA4FCA1132799E
FILE: 09 - Machine Gun.flac
  Size: 67773739 Hash: D6356B999B58A60A962B6CD534FCDB6C Accuracy: -m0
  Conclusion: CDDA 100%
  Signature: 2F3B81921EBAC135C8A9904E465C6A822F5C2FC2
FILE: 08 - Voodoo Chile (Slight Return).flac
  Size: 39179918 Hash: 8D0653F491BE9CA43DB30F37AEA94887 Accuracy: -m0
  Conclusion: CDDA 100%
  Signature: D8ED7AB7FD576BA969ACB67D5EB354B7CA7DD2C3
FILE: 07 - Red House.flac
  Size: 31754465 Hash: A952A9A4D79EFB64678AAD1752267520 Accuracy: -m0
  Conclusion: CDDA 100%
  Signature: 8D7D2689DA9A3C359F7E269ADA5DB5633A2AAEB3
FILE: 06 - Message To Love.flac
  Size: 23721596 Hash: 32A82E8C444ACF470933A1BF8766AD64 Accuracy: -m0
  Conclusion: CDDA 99%
  Signature: 5B11D79E46CB14A15D5A9B4BC73CED156119B2A9
FILE: 05 - Tax Free.flac
  Size: 103490584 Hash: 479D7393BCF891053F1967315A44B822 Accuracy: -m0
  Conclusion: CDDA 99%
  Signature: 621FAD92EE504DC10EB5246670E5D9264171C671
FILE: 04 - Purple Haze.flac
  Size: 40879763 Hash: 09F6866994FE288E987B70ED421FC1FE Accuracy: -m0
  Conclusion: CDDA 100%
  Signature: BED92554F25AC17DFACB9C456A08E819EC3BD4BE
FILE: 03 - Spanish Castle Magic.flac
  Size: 62528221 Hash: EA4C5B83379BE97E71A80819E07B5378 Accuracy: -m0
  Conclusion: CDDA 100%
  Signature: 1E37091894DE65A1976EE62D53033186B730E8FB
FILE: 02 - Getting My Heart Back Together Again.flac
  Size: 37885891 Hash: FE13EEF4D86BB2728F91378152C53AE5 Accuracy: -m0
  Conclusion: CDDA 100%
  Signature: 095A37BAE6FF1A1975CFFA477CBE79D9EC4CC27E
FILE: 01 - Fire.flac
  Size: 21260419 Hash: 545D347AB6078D482745411B7DD2B029 Accuracy: -m0
  Conclusion: CDDA 100%
  Signature: FC1551AD795E6D94DB92DF9DCE70F40B51A4185D
Время раздачи: 24/7
[NNM-Club.me]_Jimi Hendrix - 51st Anniversary - The Story Of Life (1993).torrent
 Торрент: Платиновая раздача  Зарегистрирован
 
Скачать


Примагнититься
 Зарегистрирован:   08 Дек 2013 17:57:56
 Размер:   3,12 GB  (
 Рейтинг:   4,9 (Голосов: 20)
 Поблагодарили:   65
 Проверка:   Оформление проверено модератором 09 Дек 2013 04:03:40
Как cкачать  ·  Как раздать  ·  Правильно оформить  ·  Поднять ратио!  
Показать сообщения:   
Начать новую тему   Ответить на тему    Торрент-трекер NNM-Club -> Rock, Alternative, Punk, Metal -> Rock (Lossless) Часовой пояс: GMT + 3
Страница 1 из 1