Классический форум-трекер
canvas not supported
Нас вместе: 4 079 101

Скрипка пионера (1971) SATRip


 
 
RSS
Начать новую тему   Ответить на тему    Торрент-трекер NNM-Club -> Мультфильмы -> Отечественные Мультфильмы для детей
Автор Сообщение
nnmclub0112 ®
Стаж: 7 лет 9 мес.
Сообщений: 3894
Ratio: 96,826
Поблагодарили: 249662
100%
Скрипка пионера (1971) SATRip
Год выпуска: 1971
Жанр: Рисованная анимация

Режиссер: Борис Степанцев

Описание фильма:
Рассказ о подвиге юного героя, отдавшего жизнь во имя Родины


Продолжительность: 00:07:45
Качество видео: SATRip

Видеокодек: Xvid
Битрейт видео: ~1101 Кбит/сек
Размер кадра: 576x464
Аудиокодек: MP3, 1 сh
Битрейт аудио: 96,0 Кбит/сек
Общее
Полное имя : E:\3Этап\Скрипка пионера\Скрипка пионера (1971) SATRip.avi
Формат : AVI
Формат/Информация : Audio Video Interleave
Размер файла : 67,0 Мбайт
Продолжительность : 7 м. 45 с.
Общий поток : 1207 Кбит/сек
Программа кодирования : VirtualDubMod 1.5.10.2 (build 2542/release)
Библиотека кодирования : VirtualDub build 30009/release

Видео
Идентификатор : 0
Формат : MPEG-4 Visual
Профиль формата : Advanced Simple@L5
Параметр BVOP формата : 2
Параметр QPel формата : Нет
Параметр GMC формата : Без точки перехода
Параметр матрицы формата : Default (H.263)
Режим смешивания : Сжатый битовый поток
Идентификатор кодека : XVID
Идентификатор кодека/Подсказка : XviD
Продолжительность : 7 м. 45 с.
Битрейт : 1101 Кбит/сек
Ширина : 576 пикселей
Высота : 464 пикселя
Соотношение сторон : 5:4
Частота кадров : 25,000 кадров/сек
Цветовое пространство : YUV
Субдискретизация насыщенности : 4:2:0
Битовая глубина : 8 бит
Тип развёртки : Прогрессивная
Метод сжатия : С потерями
Бит/(Пиксели*Кадры) : 0.165
Размер потока : 61,1 Мбайт (91%)
Библиотека кодирования : XviD 1.2.0.dev47 (UTC 2006-11-01)

Аудио
Идентификатор : 1
Формат : MPEG Audio
Версия формата : Version 1
Профиль формата : Layer 3
Идентификатор кодека : 55
Идентификатор кодека/Подсказка : MP3
Продолжительность : 7 м. 45 с.
Вид битрейта : Постоянный
Битрейт : 96,0 Кбит/сек
Каналы : 1 канал
Частота : 48,0 КГц
Метод сжатия : С потерями
Размер потока : 5,33 Мбайт (8%)
Выравнивание : Разделение по промежуткам
Продолжительность промежутка : 40 мс. (1,00 видеокадр)
Время предзагрузки промежутка : 500 мс.
Скриншоты:


Время раздачи: С 18:00 до 23:00
[NNM-Club.me]_Skripka pionera (1971) SATRip.avi.torrent
 Торрент: Платиновая раздача  Зарегистрирован
 
Скачать


Примагнититься
 Зарегистрирован:   14 Дек 2013 13:39:41
 Размер:   67 MB  (
 Рейтинг:   4,2 (Голосов: 17)
 Поблагодарили:   31
 Проверка:   Оформление проверено модератором 14 Дек 2013 19:47:10
Как cкачать  ·  Как раздать  ·  Правильно оформить  ·  Поднять ратио!  
Показать сообщения:   
Начать новую тему   Ответить на тему    Торрент-трекер NNM-Club -> Мультфильмы -> Отечественные Мультфильмы для детей Часовой пояс: GMT + 3
Страница 1 из 1