Классический форум-трекер
canvas not supported
Нас вместе: 4 079 137

Kachou Ouji: Hard Rock Save the Space / Black Heaven / The Legend of Black Heaven / Столоначальник Одзи [1999, TV, 13] DVDRip 544p raw


 
 
RSS
Начать новую тему   Ответить на тему    Торрент-трекер NNM-Club -> Аниме с субтитрами -> Аниме (SD)
Автор Сообщение
loki ®
Стаж: 8 лет 9 мес.
Сообщений: 4714
Ratio: 66
Поблагодарили: 36829
100%
Откуда: Днепр
roody.gif

Kachou Ouji: Hard Rock Save the Space
The Legend of Black Heaven
Столоначальник Одзи


Жанр: приключения, комедия, фантастика, музыкальный
Тип: TV сериал
Продолжительность: 13 эп., 25 мин.
Выпуск: c 08.07.1999 по 07.10.1999
Производство/студия: AIC & Studio A.P.P.P.
Автор оригинала: Хаяси Хироки
Режиссер: Кикути Ясухито
Качество видео: DVDRip
Энкод: artyfox
Контейнер: MKV
Видео: MPEG4/AVC
Битрейт видео: 1400 kbps; 29,970 fps
Размер кадра: 720x544
Аудио:
JAP; Vorbis; 48.0 KHz; 2ch; 276 kbps
Субтитры:
RUS; Юрий Яворовский ASS (ext)
Описание:
У клерка Одзи «Габриэля» Танаки есть нелюбимая работа, подозрительная жена и требующий постоянного внимания маленький сын. От прошлой жизни, в которой он был известным рок-музыкантом, остались только знакомые, к которым «Габ» иногда приходит поговорить насчет очередного диска Michael Schenker Group.

В быте служащего все меняется после знакомства с новой коллегой по работе Лейлой Юки: теперь он снова может извлекать монеткой в 10 иен из своей Gibson Flying V настоящий метал, Токио таинственным образом заполоняют предваряющие приезд Михаэля Шенкера концертные афиши и газетные статьи, а облысевшие напарники «Габа» по группе загораются желанием вновь вооружиться инструментами… Именно «вооружиться»: Лейла оказывается инопланетянкой, которой любой ценой нужно завербовать клерка в свой галактический отряд, ведь только звук его гитары, пропущенный сквозь специальный транслятор, может остановить флот пришельцев, находящийся в двух шагах от уничтожения Земли.
© Ярослав Гафнер, World Art
01. Лестница в небо
02. Долгая ночь
03. Горячий дом
04. Космическое дитя
05. Эти дни
06. Уходи
07. Необходимость
08. Теперь хорошо
09. Прочь с моих облаков
10. Десять лет спустя
11. Приятное чувство
12. На арене
13. Конец
Код:
Общее
Уникальный идентификатор                 : 222844725740306894895325971998542575307 (0xA7A6554123BE82CBB5872E3C3736B6CB)
Полное имя                               : [artyfox & hotFlash] Black Heaven - 01 (DVDRip 848x480 x264 Vorbis).mkv
Формат                                   : Matroska
Версия формата                           : Version 2
Размер файла                             : 308 Мбайт
Продолжительность                        : 25 м.
Режим общего битрейта                    : Переменный
Общий поток                              : 1685 Кбит/сек
Название фильма                          : Black Heaven 01 [artyfox & hotFlash]
Дата кодирования                         : UTC 2010-02-03 20:37:39
Программа кодирования                    : mkvmerge v3.1.0 ('Happy up here') built on Jan 19 2010 12:09:24
Библиотека кодирования                   : libebml v0.7.9 + libmatroska v0.8.1

Видео
Идентификатор                            : 1
Формат                                   : AVC
Формат/Информация                        : Advanced Video Codec
Профиль формата                          : High@L4.0
Параметр CABAC формата                   : Да
Параметр ReFrames формата                : 16 кадров
Идентификатор кодека                     : V_MPEG4/ISO/AVC
Продолжительность                        : 25 м.
Битрейт                                  : 1331 Кбит/сек
Номинальный битрейт                      : 1700 Кбит/сек
Ширина                                   : 720 пикселей
Высота                                   : 544 пикселя
Соотношение сторон                       : 4:3
Режим частоты кадров                     : Постоянный
Частота кадров                           : 23,976 кадра/сек
Частота кадров в оригинале               : 29,970 кадров/сек
Цветовое пространство                    : YUV
Субдискретизация насыщенности            : 4:2:0
Битовая глубина                          : 8 бит
Тип развёртки                            : Прогрессивная
Бит/(Пиксели*Кадры)                      : 0.142
Размер потока                            : 243 Мбайт (79%)
Заголовок                                : encode by artyfox
Библиотека кодирования                   : x264 core 68 r1183M f21daff
Настройки программы                      : cabac=1 / ref=16 / deblock=1:1:1 / analyse=0x3:0x133 / me=tesa / subme=9 / psy_rd=1.0:0.0 / mixed_ref=1 / me_range=16 / chroma_me=1 / trellis=0 / 8x8dct=1 / cqm=0 / deadzone=21,11 / chroma_qp_offset=-2 / threads=6 / nr=0 / decimate=0 / mbaff=0 / bframes=16 / b_pyramid=1 / b_adapt=2 / b_bias=0 / direct=1 / wpredb=1 / keyint=100 / keyint_min=25 / scenecut=40 / rc=2pass / bitrate=1700 / ratetol=1.0 / qcomp=0.60 / qpmin=10 / qpmax=51 / qpstep=4 / cplxblur=20.0 / qblur=0.5 / ip_ratio=1.40 / pb_ratio=1.30 / aq=1:1.00
Язык                                     : Japanese
Default                                  : Да
Forced                                   : Нет

Аудио
Идентификатор                            : 2
Формат                                   : Vorbis
Параметр Floor формата                   : 1
Идентификатор кодека                     : A_VORBIS
Продолжительность                        : 25 м.
Вид битрейта                             : Переменный
Битрейт                                  : 320 Кбит/сек
Каналы                                   : 2 канала
Частота                                  : 48,0 КГц
Метод сжатия                             : С потерями
Размер потока                            : 58,5 Мбайт (19%)
Заголовок                                : Original 2.0 Sound
Библиотека кодирования                   : libVorbis 1.0 (UTC 2002-07-17)
Язык                                     : Japanese
Default                                  : Да
Forced                                   : Нет

Меню
00:00:00.000                             : :Intro
00:01:42.811                             : :OP
00:03:39.011                             : :Main
00:23:30.160                             : :ED
00:25:01.293                             : :Preview
Код:
File: [artyfox & hotFlash] Black Heaven - 01 (DVDRip 848x480 x264 Vorbis).mkv
 Duration: 00:25:33 (1532.57)
 Track #1: default video (encode by artyfox)
  lang: jpn (2)
  codc: V_MPEG4/ISO/AVC -> H264/AVC (22)
  reso: 720x544 (45x34) -> Unknown (aka not common)
  fram: hybrid (vfr)
  rate: 1404 kbps (1404.22)
  dura: 00:25:33 (1532.53)
  size: 256.54 MB (269001162)
 Track #2: default audio (Original 2.0 Sound)
  lang: jpn -> Japanese (2)
  codc: A_VORBIS -> Ogg Vorbis (8)
  chan: 2 -> Stereo
  samp: 48000 Hz
  rate: 276 kbps (276.42)
  dura: 00:25:32 (1532.25)
  size: 50.49 MB (52944172)
 Sizes: (check sanity)
  disk: 307.79 MB (322738976)
  trac: 307.03 MB (321945334) [based on track size]
  bitr: 307.04 MB (321954924) [based on bitrate]
  tdif: 775.04 KB (793642) 0.24%
  bdif: 765.68 KB (784051) 0.24%

Official page

ANN || AniDB || MAL || World Art




Время раздачи: 24/7
[NNM-Club.me]_Black Heaven TV 1999 (DVDRip 720x544 x264 Vorbis) @artyfox.torrent
 Торрент: Платиновая раздача  Зарегистрирован
 
Скачать


Примагнититься
 Зарегистрирован:   15 Дек 2013 19:44:37
 Размер:   4,09 GB  (
 Рейтинг:   4,1 (Голосов: 22)
 Поблагодарили:   35
 Проверка:   Оформление проверено модератором 15 Дек 2013 20:44:23
Как cкачать  ·  Как раздать  ·  Правильно оформить  ·  Поднять ратио!  
Загрузка...
xxxhhh667
Стаж: 8 лет 8 мес.
Сообщений: 8713
Ratio: 75,282
Поблагодарили: 3542
100%
Откуда: 0000
roody.gif
:Всё равно это никто не прочитает: более лучший перевод от ergo, Raziell, Sados.

_________________
Если долго всматриваться в бездну — бездна начнёт всматриваться в тебя. (ↄ)
loki ®
Стаж: 8 лет 9 мес.
Сообщений: 4714
Ratio: 66
Поблагодарили: 36829
100%
Откуда: Днепр
roody.gif
xxxhhh667 писал(а): Перейти к сообщению
Всё равно это никто не прочитает

стопицот
Показать сообщения:   
Начать новую тему   Ответить на тему    Торрент-трекер NNM-Club -> Аниме с субтитрами -> Аниме (SD) Часовой пояс: GMT + 3
Страница 1 из 1