Классический форум-трекер
canvas not supported
Нас вместе: 4 113 936

CCCP. Обратный отсчёт. Жила-была Ёлочка (2012) SATRip [H.264]


 
 
RSS
Начать новую тему   Ответить на тему    Торрент-трекер NNM-Club -> Документалистика и Телепередачи -> Кинолетопись Страны Советской
Автор Сообщение
nnmclub0112 ®
Стаж: 8 лет 4 мес.
Сообщений: 3919
Ratio: 80,767
Поблагодарили: 252453
100%
CCCP. Обратный отсчёт. Жила-была Ёлочка (2012) SATRip [H.264]
Название: CCCP. Обратный отсчёт. Жила-была Ёлочка

Режиссер / Телекомпания: Людмила Клинцова / ЗАО "Второй национальный канал"
Год выпуска: 2012
Жанр: Документальный

Описание:
Фильмы проекта «Обратный отсчет» рассказывают зрителям о малоизвестных страницах нашей истории. Совместно с белорусскими исследователями, архивистами, историками мы раскрываем о фактах и событиях, о которых в советское время принято было молчать.
Передача посвящена истории создания известной песенки "В лесу родилась ёлочка"

Продолжительность: 00:25:46
Видеокодек: MPEG-4 AVC/H.264
Битрейт видео: 1190 Кбит/сек
Размер кадра: 640x480
Качество видео: SATRip
Аудиокодек: MP3, 2 ch
Битрейт аудио: 128 Кбит/сек
Общее
Уникальный идентификатор : 168348648403719580577546155723716462494 (0x7EA6C532C2870C1E037BA147C20E879E)
Полное имя : G:\nF\Докум\!5 Кинолетопись страны Советской\СССР. Обратный отсчет\!СССР. Обратный отсчет [Беларусь ТВ]\Обратный отсчёт. Жила-была Ёлочка (2912) SATRip\Обратный отсчёт. Жила-была Ёлочка (2012) SATRip.mkv
Формат : Matroska
Версия формата : Version 2
Размер файла : 248 Мбайт
Продолжительность : 25 м.
Общий поток : 1345 Кбит/сек
Программа кодирования : Lavf51.12.1
Библиотека кодирования : Lavf51.12.1

Видео
Идентификатор : 1
Формат : AVC
Формат/Информация : Advanced Video Codec
Профиль формата : Baseline@L3.0
Параметр CABAC формата : Нет
Параметр ReFrames формата : 1 кадр
Параметр GOP формата : M=1, N=12
Идентификатор кодека : V_MPEG4/ISO/AVC
Продолжительность : 25 м.
Битрейт : 1190 Кбит/сек
Ширина : 640 пикселей
Высота : 480 пикселей
Соотношение сторон : 4:3
Режим частоты кадров : Постоянный
Частота кадров : 25,000 кадров/сек
Цветовое пространство : YUV
Субдискретизация насыщенности : 4:2:0
Битовая глубина : 8 бит
Тип развёртки : Прогрессивная
Бит/(Пиксели*Кадры) : 0.155
Размер потока : 219 Мбайт (88%)
Язык : English
Default : Да
Forced : Нет

Аудио
Идентификатор : 2
Формат : MPEG Audio
Версия формата : Version 1
Профиль формата : Layer 3
Режим : Joint stereo
Расширение режима : MS Stereo
Идентификатор кодека : A_MPEG/L3
Идентификатор кодека/Подсказка : MP3
Продолжительность : 25 м.
Вид битрейта : Постоянный
Битрейт : 128 Кбит/сек
Каналы : 2 канала
Частота : 44,1 КГц
Метод сжатия : С потерями
Размер потока : 23,6 Мбайт (10%)
Библиотека кодирования : LAME3.97
Default : Да
Forced : Нет
Скриншоты:






Время раздачи: С 10:00 до 23:00

Серия передач "ССCР. Обратный отсчет" на NoNaMe Club
[NNM-Club.me]_Obratnyiy otschet. ZHila-byila Elochka (2012) SATRip.mkv.torrent
 Торрент:   Зарегистрирован
 
Зарегистрируйтесь и скачайте торрент!
19,7 KB

Примагнититься
 Зарегистрирован:   31 Дек 2013 17:38:27
 Размер:   248 MB  (
 Рейтинг:   4,6 (Голосов: 21)
 Поблагодарили:   63
 Проверка:   Оформление проверено модератором 31 Дек 2013 19:26:08
Как cкачать  ·  Как раздать  ·  Правильно оформить  ·  Поднять ратио!  
xarvy
Стаж: 9 лет 1 мес.
Сообщений: 33
Ratio: 21,859
100%
ukraine.gif
cпасибо. С Новым годом.
Показать сообщения:   
Начать новую тему   Ответить на тему    Торрент-трекер NNM-Club -> Документалистика и Телепередачи -> Кинолетопись Страны Советской Часовой пояс: GMT + 3
Страница 1 из 1