Классический форум-трекер
canvas not supported
Нас вместе: 4 079 210

C.S.I. Место преступления: Лас-Вегас / CSI: Crime Scene Investigation: Las Vegas (2000-2001) [720p] BDRip (сезон 1, серии 1-23 из 23) ДТВ


 
 
RSS
Начать новую тему   Ответить на тему    Торрент-трекер NNM-Club -> Зарубежные сериалы -> Место преступления / CSI
Автор Сообщение
WOLF 80 ®
Uploader 100+
Стаж: 10 лет 2 мес.
Сообщений: 480
Ratio: 3902,785
Раздал: 156,9 TB
Поблагодарили: 30370
100%
Откуда: Санкт-Петербург
russia.gif
C.S.I. Место преступления: Лас-Вегас /
CSI: Crime Scene Investigation: Las Vegas

«Как следует подготовься к сезону убийств»
Год выпуска: 2000-2001
Жанр: Детектив, триллер, драма, криминал

Перевод: Профессиональный многоголосый закадровый - ДТВ


Дата мировой премьеры: с 06.10.2000 по 17.05.2001

Режиссер: Кеннет Финк, Ричард Дж. Льюис, Алек Смайт
Актеры: Уильям Л. Питерсен (Gil Grissom), Марж Хелгенбергер (Catherine Willows), Джордж Идс (Nick Stokes), Гари Дурдан (Warrick Brown), Джоржа Фокс (Sara Sidle), Пол Гилфойл (Captain Jim Brass), Эрик Шманда (Greg Sanders), Роберт Дэвид Холл (Dr. Al Robbins), Дэвид Берман (David Phillips), Уоллес Лэнгэм (David Hodges), Арчи Као (Archie Johnson), Лиз Вэсси (Wendy Simms)

Описание фильма: Лас-Вегас… Своими яркими неоновыми огнями, сотнями игровых клубов и казино он манит всё новых и новых людей. Но далеко не все из них оказываются добропорядочными гражданами. В огромном людском потоке частенько прячутся преступники всех мастей. Они убеждены, что их злодеяния останутся незамеченными. Но они сильно ошибаются, ведь в городе работает неутомимая команда полиции C.S.I. Когда следствие заходит в тупик, в игру вступает группа супер профессиональных криминалистов во главе с капитаном Гриссомом. В культовом сериале, лауреате престижных американских премий «Эмми» и «Золотой глобус», столь полюбившиеся зрителям члены команды криминалистической лаборатории C.S.I. продолжат самоотверженно распутывать казалось бы безнадёжные случаи и с честью выходить из самых сложных ситуаций. Героям сериала при помощи новейших научных и технических разработок предстоит расследовать череду загадочных убийств, похищений и даже ритуальных жертвоприношений. Для них нет ничего невозможного. В городе разбитых надежд и несбывшихся мечтаний они найдут ключи к тайнам самых загадочных преступлений. И тогда всё тайное станет явным.
2 СЕЗОН WEB-DL 720p
3 СЕЗОН WEB-DL 720p
4 СЕЗОН WEB-DL 720p
5 СЕЗОН WEB-DL 720p
6 СЕЗОН WEB-DL 720p
7 СЕЗОН WEB-DL 720p
8 СЕЗОН BDRip 720p
9 СЕЗОН BDRip 720p
10 СЕЗОН WEB-DL 720p

Общее
Уникальный идентификатор : 231983065472318298614289476932038203176 (0xAE86503064195FE6B86F6BBF06E69728)
Полное имя : D:\UPLOADED\МОИ\CSI\CSI - Las-Vegas\S 01. CSI - Las-Vegas\01. Pilot (Пилот).mkv
Формат : Matroska
Версия формата : Version 4 / Version 2
Размер файла : 2,25 Гбайт
Продолжительность : 45 м.
Общий поток : 7084 Кбит/сек
Название фильма : 01. Pilot (Пилот)
Дата кодирования : UTC 2014-01-04 13:02:45
Программа кодирования : mkvmerge v6.3.0 ('You can't stop me!') built on Jul 19 2013 16:27:38
Библиотека кодирования : libebml v1.3.0 + libmatroska v1.4.1

Видео
Идентификатор : 1
Формат : AVC
Формат/Информация : Advanced Video Codec
Профиль формата : High@L3.1
Параметр CABAC формата : Да
Параметр ReFrames формата : 5 кадров
Идентификатор кодека : V_MPEG4/ISO/AVC
Продолжительность : 45 м.
Битрейт : 5381 Кбит/сек
Ширина : 1280 пикселей
Высота : 720 пикселей
Соотношение сторон : 16:9
Режим частоты кадров : Постоянный
Частота кадров : 23,976 кадра/сек
Цветовое пространство : YUV
Субдискретизация насыщенности : 4:2:0
Битовая глубина : 8 бит
Тип развёртки : Прогрессивная
Бит/(Пиксели*Кадры) : 0.244
Размер потока : 1,66 Гбайт (74%)
Заголовок : 01. Pilot (Пилот)
Библиотека кодирования : x264 core 67 r1145 d2e1e1c
Настройки программы : cabac=1 / ref=5 / deblock=1:0:0 / analyse=0x3:0x113 / me=umh / subme=7 / psy_rd=1.0:0.0 / mixed_ref=1 / me_range=16 / chroma_me=1 / trellis=1 / 8x8dct=1 / cqm=0 / deadzone=21,11 / chroma_qp_offset=-2 / threads=12 / nr=0 / decimate=1 / mbaff=0 / bframes=3 / b_pyramid=1 / b_adapt=1 / b_bias=0 / direct=1 / wpredb=1 / keyint=250 / keyint_min=25 / scenecut=40 / rc=2pass / bitrate=5381 / ratetol=1.0 / qcomp=0.60 / qpmin=10 / qpmax=51 / qpstep=4 / cplxblur=20.0 / qblur=0.5 / ip_ratio=1.40 / pb_ratio=1.30 / aq=1:1.00
Язык : English
Default : Да
Forced : Нет

Аудио #1
Идентификатор : 2
Формат : AC-3
Формат/Информация : Audio Coding 3
Расширение режима : CM (complete main)
Параметр Endianness формата : Big
Идентификатор кодека : A_AC3
Продолжительность : 45 м.
Вид битрейта : Постоянный
Битрейт : 192 Кбит/сек
Каналы : 2 канала
Расположение каналов : Front: L R
Частота : 48,0 КГц
Битовая глубина : 16 бит
Метод сжатия : С потерями
Размер потока : 62,4 Мбайт (3%)
Заголовок : ДТВ
Язык : Russian
Default : Да
Forced : Да

Аудио #2
Идентификатор : 3
Формат : DTS
Формат/Информация : Digital Theater Systems
Режим : 16
Параметр Endianness формата : Big
Идентификатор кодека : A_DTS
Продолжительность : 45 м.
Вид битрейта : Постоянный
Битрейт : 1509 Кбит/сек
Каналы : 6 каналов
Расположение каналов : Front: L C R, Side: L R, LFE
Частота : 48,0 КГц
Битовая глубина : 24 бит
Метод сжатия : С потерями
Размер потока : 490 Мбайт (21%)
Заголовок : ENG DD5.1
Язык : English
Default : Нет
Forced : Нет
Общее
Уникальный идентификатор : 242580206873297122754782552192675174256 (0xB67F3F9953061696936A3E2C44635770)
Полное имя : D:\UPLOADED\МОИ\CSI\CSI - Las-Vegas\S 01. CSI - Las-Vegas\02. Cool Change (Крутая перемена).mkv
Формат : Matroska
Версия формата : Version 4 / Version 2
Размер файла : 2,24 Гбайт
Продолжительность : 43 м.
Общий поток : 7420 Кбит/сек
Название фильма : 02. Cool Change (Крутая перемена)
Дата кодирования : UTC 2014-01-04 14:32:23
Программа кодирования : mkvmerge v6.3.0 ('You can't stop me!') built on Jul 19 2013 16:27:38
Библиотека кодирования : libebml v1.3.0 + libmatroska v1.4.1

Видео
Идентификатор : 1
Формат : AVC
Формат/Информация : Advanced Video Codec
Профиль формата : High@L3.1
Параметр CABAC формата : Да
Параметр ReFrames формата : 5 кадров
Идентификатор кодека : V_MPEG4/ISO/AVC
Продолжительность : 43 м.
Битрейт : 5718 Кбит/сек
Ширина : 1280 пикселей
Высота : 720 пикселей
Соотношение сторон : 16:9
Режим частоты кадров : Постоянный
Частота кадров : 23,976 кадра/сек
Цветовое пространство : YUV
Субдискретизация насыщенности : 4:2:0
Битовая глубина : 8 бит
Тип развёртки : Прогрессивная
Бит/(Пиксели*Кадры) : 0.259
Размер потока : 1,69 Гбайт (75%)
Заголовок : 02. Cool Change (Крутая перемена)
Библиотека кодирования : x264 core 67 r1145 d2e1e1c
Настройки программы : cabac=1 / ref=5 / deblock=1:0:0 / analyse=0x3:0x113 / me=umh / subme=7 / psy_rd=1.0:0.0 / mixed_ref=1 / me_range=16 / chroma_me=1 / trellis=1 / 8x8dct=1 / cqm=0 / deadzone=21,11 / chroma_qp_offset=-2 / threads=12 / nr=0 / decimate=1 / mbaff=0 / bframes=3 / b_pyramid=1 / b_adapt=1 / b_bias=0 / direct=1 / wpredb=1 / keyint=250 / keyint_min=25 / scenecut=40 / rc=2pass / bitrate=5718 / ratetol=1.0 / qcomp=0.60 / qpmin=10 / qpmax=51 / qpstep=4 / cplxblur=20.0 / qblur=0.5 / ip_ratio=1.40 / pb_ratio=1.30 / aq=1:1.00
Язык : English
Default : Да
Forced : Нет

Аудио #1
Идентификатор : 2
Формат : AC-3
Формат/Информация : Audio Coding 3
Расширение режима : CM (complete main)
Параметр Endianness формата : Big
Идентификатор кодека : A_AC3
Продолжительность : 43 м.
Вид битрейта : Постоянный
Битрейт : 192 Кбит/сек
Каналы : 2 канала
Расположение каналов : Front: L R
Частота : 48,0 КГц
Битовая глубина : 16 бит
Метод сжатия : С потерями
Размер потока : 59,5 Мбайт (3%)
Заголовок : ДТВ
Язык : Russian
Default : Да
Forced : Да

Аудио #2
Идентификатор : 3
Формат : DTS
Формат/Информация : Digital Theater Systems
Режим : 16
Параметр Endianness формата : Big
Идентификатор кодека : A_DTS
Продолжительность : 43 м.
Вид битрейта : Постоянный
Битрейт : 1509 Кбит/сек
Каналы : 6 каналов
Расположение каналов : Front: L C R, Side: L R, LFE
Частота : 48,0 КГц
Битовая глубина : 24 бит
Метод сжатия : С потерями
Размер потока : 467 Мбайт (20%)
Заголовок : ENG DD5.1
Язык : English
Default : Нет
Forced : Нет
Общее
Уникальный идентификатор : 245983331350648072425230390875743707882 (0xB90EAA97044F72EDAF842B8ADE35E2EA)
Полное имя : D:\UPLOADED\МОИ\CSI\CSI - Las-Vegas\S 01. CSI - Las-Vegas\03. Crate 'n Burial (Похороненная в ящике).mkv
Формат : Matroska
Версия формата : Version 4 / Version 2
Размер файла : 2,25 Гбайт
Продолжительность : 44 м.
Общий поток : 7283 Кбит/сек
Название фильма : 03. Crate 'n Burial (Похороненная в ящике)
Дата кодирования : UTC 2014-01-04 14:39:24
Программа кодирования : mkvmerge v6.3.0 ('You can't stop me!') built on Jul 19 2013 16:27:38
Библиотека кодирования : libebml v1.3.0 + libmatroska v1.4.1

Видео
Идентификатор : 1
Формат : AVC
Формат/Информация : Advanced Video Codec
Профиль формата : High@L3.1
Параметр CABAC формата : Да
Параметр ReFrames формата : 5 кадров
Идентификатор кодека : V_MPEG4/ISO/AVC
Продолжительность : 44 м.
Битрейт : 5580 Кбит/сек
Ширина : 1280 пикселей
Высота : 720 пикселей
Соотношение сторон : 16:9
Режим частоты кадров : Постоянный
Частота кадров : 23,976 кадра/сек
Цветовое пространство : YUV
Субдискретизация насыщенности : 4:2:0
Битовая глубина : 8 бит
Тип развёртки : Прогрессивная
Бит/(Пиксели*Кадры) : 0.253
Размер потока : 1,68 Гбайт (75%)
Заголовок : 03. Crate 'n Burial (Похороненная в ящике)
Библиотека кодирования : x264 core 67 r1145 d2e1e1c
Настройки программы : cabac=1 / ref=5 / deblock=1:0:0 / analyse=0x3:0x113 / me=umh / subme=7 / psy_rd=1.0:0.0 / mixed_ref=1 / me_range=16 / chroma_me=1 / trellis=1 / 8x8dct=1 / cqm=0 / deadzone=21,11 / chroma_qp_offset=-2 / threads=12 / nr=0 / decimate=1 / mbaff=0 / bframes=3 / b_pyramid=1 / b_adapt=1 / b_bias=0 / direct=1 / wpredb=1 / keyint=250 / keyint_min=25 / scenecut=40 / rc=2pass / bitrate=5580 / ratetol=1.0 / qcomp=0.60 / qpmin=10 / qpmax=51 / qpstep=4 / cplxblur=20.0 / qblur=0.5 / ip_ratio=1.40 / pb_ratio=1.30 / aq=1:1.00
Язык : English
Default : Да
Forced : Нет

Аудио #1
Идентификатор : 2
Формат : AC-3
Формат/Информация : Audio Coding 3
Расширение режима : CM (complete main)
Параметр Endianness формата : Big
Идентификатор кодека : A_AC3
Продолжительность : 44 м.
Вид битрейта : Постоянный
Битрейт : 192 Кбит/сек
Каналы : 2 канала
Расположение каналов : Front: L R
Частота : 48,0 КГц
Битовая глубина : 16 бит
Метод сжатия : С потерями
Размер потока : 60,6 Мбайт (3%)
Заголовок : ДТВ
Язык : Russian
Default : Да
Forced : Да

Аудио #2
Идентификатор : 3
Формат : DTS
Формат/Информация : Digital Theater Systems
Режим : 16
Параметр Endianness формата : Big
Идентификатор кодека : A_DTS
Продолжительность : 44 м.
Вид битрейта : Постоянный
Битрейт : 1509 Кбит/сек
Каналы : 6 каналов
Расположение каналов : Front: L C R, Side: L R, LFE
Частота : 48,0 КГц
Битовая глубина : 24 бит
Метод сжатия : С потерями
Размер потока : 477 Мбайт (21%)
Заголовок : ENG DD5.1
Язык : English
Default : Нет
Forced : Нет
Общее
Уникальный идентификатор : 239615842554617879249150596104461848620 (0xB4445527682AA72E88778B74BFA5902C)
Полное имя : D:\UPLOADED\МОИ\CSI\CSI - Las-Vegas\S 01. CSI - Las-Vegas\04. Pledging Mr. Johnson (Обязательный мистер Джонсон).mkv
Формат : Matroska
Версия формата : Version 4 / Version 2
Размер файла : 2,25 Гбайт
Продолжительность : 44 м.
Общий поток : 7188 Кбит/сек
Название фильма : 04. Pledging Mr. Johnson (Обязательный мистер Джонсон)
Дата кодирования : UTC 2014-01-04 14:43:12
Программа кодирования : mkvmerge v6.3.0 ('You can't stop me!') built on Jul 19 2013 16:27:38
Библиотека кодирования : libebml v1.3.0 + libmatroska v1.4.1

Видео
Идентификатор : 1
Формат : AVC
Формат/Информация : Advanced Video Codec
Профиль формата : High@L3.1
Параметр CABAC формата : Да
Параметр ReFrames формата : 5 кадров
Идентификатор кодека : V_MPEG4/ISO/AVC
Продолжительность : 44 м.
Битрейт : 5486 Кбит/сек
Ширина : 1280 пикселей
Высота : 720 пикселей
Соотношение сторон : 16:9
Режим частоты кадров : Постоянный
Частота кадров : 23,976 кадра/сек
Цветовое пространство : YUV
Субдискретизация насыщенности : 4:2:0
Битовая глубина : 8 бит
Тип развёртки : Прогрессивная
Бит/(Пиксели*Кадры) : 0.248
Размер потока : 1,67 Гбайт (74%)
Заголовок : 04. Pledging Mr. Johnson (Обязательный мистер Джонсон)
Библиотека кодирования : x264 core 67 r1145 d2e1e1c
Настройки программы : cabac=1 / ref=5 / deblock=1:0:0 / analyse=0x3:0x113 / me=umh / subme=7 / psy_rd=1.0:0.0 / mixed_ref=1 / me_range=16 / chroma_me=1 / trellis=1 / 8x8dct=1 / cqm=0 / deadzone=21,11 / chroma_qp_offset=-2 / threads=12 / nr=0 / decimate=1 / mbaff=0 / bframes=3 / b_pyramid=1 / b_adapt=1 / b_bias=0 / direct=1 / wpredb=1 / keyint=250 / keyint_min=25 / scenecut=40 / rc=2pass / bitrate=5486 / ratetol=1.0 / qcomp=0.60 / qpmin=10 / qpmax=51 / qpstep=4 / cplxblur=20.0 / qblur=0.5 / ip_ratio=1.40 / pb_ratio=1.30 / aq=1:1.00
Язык : English
Default : Да
Forced : Нет

Аудио #1
Идентификатор : 2
Формат : AC-3
Формат/Информация : Audio Coding 3
Расширение режима : CM (complete main)
Параметр Endianness формата : Big
Идентификатор кодека : A_AC3
Продолжительность : 44 м.
Вид битрейта : Постоянный
Битрейт : 192 Кбит/сек
Каналы : 2 канала
Расположение каналов : Front: L R
Частота : 48,0 КГц
Битовая глубина : 16 бит
Метод сжатия : С потерями
Размер потока : 61,4 Мбайт (3%)
Заголовок : ДТВ
Язык : Russian
Default : Да
Forced : Да

Аудио #2
Идентификатор : 3
Формат : DTS
Формат/Информация : Digital Theater Systems
Режим : 16
Параметр Endianness формата : Big
Идентификатор кодека : A_DTS
Продолжительность : 44 м.
Вид битрейта : Постоянный
Битрейт : 1509 Кбит/сек
Каналы : 6 каналов
Расположение каналов : Front: L C R, Side: L R, LFE
Частота : 48,0 КГц
Битовая глубина : 24 бит
Метод сжатия : С потерями
Размер потока : 483 Мбайт (21%)
Заголовок : ENG DD5.1
Язык : English
Default : Нет
Forced : Нет
Общее
Уникальный идентификатор : 189713960305563760768008503932811810568 (0x8EB994675AF9024D880AD7EEB8711708)
Полное имя : D:\UPLOADED\МОИ\CSI\CSI - Las-Vegas\S 01. CSI - Las-Vegas\05. Friends & Lovers (Друзья и любовники).mkv
Формат : Matroska
Версия формата : Version 4 / Version 2
Размер файла : 2,25 Гбайт
Продолжительность : 45 м.
Общий поток : 7095 Кбит/сек
Название фильма : 05. Friends & Lovers (Друзья и любовники)
Дата кодирования : UTC 2014-01-04 14:59:28
Программа кодирования : mkvmerge v6.3.0 ('You can't stop me!') built on Jul 19 2013 16:27:38
Библиотека кодирования : libebml v1.3.0 + libmatroska v1.4.1

Видео
Идентификатор : 1
Формат : AVC
Формат/Информация : Advanced Video Codec
Профиль формата : High@L4.1
Параметр CABAC формата : Да
Параметр ReFrames формата : 5 кадров
Идентификатор кодека : V_MPEG4/ISO/AVC
Продолжительность : 45 м.
Битрейт : 5392 Кбит/сек
Ширина : 1280 пикселей
Высота : 720 пикселей
Соотношение сторон : 16:9
Режим частоты кадров : Постоянный
Частота кадров : 23,976 кадра/сек
Цветовое пространство : YUV
Субдискретизация насыщенности : 4:2:0
Битовая глубина : 8 бит
Тип развёртки : Прогрессивная
Бит/(Пиксели*Кадры) : 0.244
Размер потока : 1,66 Гбайт (74%)
Заголовок : 05. Friends & Lovers (Друзья и любовники)
Библиотека кодирования : x264 core 67 r1145M d2e1e1c
Настройки программы : cabac=1 / ref=5 / deblock=1:0:0 / analyse=0x3:0x133 / me=umh / subme=7 / psy_rd=1.0:0.0 / mixed_ref=1 / me_range=16 / chroma_me=1 / trellis=1 / 8x8dct=1 / cqm=0 / deadzone=21,11 / chroma_qp_offset=-2 / threads=6 / nr=0 / decimate=0 / mbaff=0 / bframes=3 / b_pyramid=1 / b_adapt=1 / b_bias=0 / direct=1 / wpredb=1 / keyint=250 / keyint_min=25 / scenecut=40 / rc=2pass / bitrate=5392 / ratetol=1.0 / qcomp=0.60 / qpmin=10 / qpmax=51 / qpstep=4 / cplxblur=20.0 / qblur=0.5 / ip_ratio=1.40 / pb_ratio=1.30 / aq=1:1.00
Язык : English
Default : Да
Forced : Нет

Аудио #1
Идентификатор : 2
Формат : AC-3
Формат/Информация : Audio Coding 3
Расширение режима : CM (complete main)
Параметр Endianness формата : Big
Идентификатор кодека : A_AC3
Продолжительность : 45 м.
Вид битрейта : Постоянный
Битрейт : 192 Кбит/сек
Каналы : 2 канала
Расположение каналов : Front: L R
Частота : 48,0 КГц
Битовая глубина : 16 бит
Метод сжатия : С потерями
Размер потока : 62,3 Мбайт (3%)
Заголовок : ДТВ
Язык : Russian
Default : Да
Forced : Да

Аудио #2
Идентификатор : 3
Формат : DTS
Формат/Информация : Digital Theater Systems
Режим : 16
Параметр Endianness формата : Big
Идентификатор кодека : A_DTS
Продолжительность : 45 м.
Вид битрейта : Постоянный
Битрейт : 1509 Кбит/сек
Каналы : 6 каналов
Расположение каналов : Front: L C R, Side: L R, LFE
Частота : 48,0 КГц
Битовая глубина : 24 бит
Метод сжатия : С потерями
Размер потока : 489 Мбайт (21%)
Заголовок : ENG DD5.1
Язык : English
Default : Нет
Forced : Нет
Общее
Уникальный идентификатор : 174702107843684719094365819673434147628 (0x836E66EF005C3A0DB1A4D270A4FC4B2C)
Полное имя : D:\UPLOADED\МОИ\CSI\CSI - Las-Vegas\S 01. CSI - Las-Vegas\06. Who Are You (Кто ты).mkv
Формат : Matroska
Версия формата : Version 4 / Version 2
Размер файла : 2,25 Гбайт
Продолжительность : 45 м.
Общий поток : 7094 Кбит/сек
Название фильма : 06. Who Are You? (Кто ты?)
Дата кодирования : UTC 2014-01-04 15:29:22
Программа кодирования : mkvmerge v6.3.0 ('You can't stop me!') built on Jul 19 2013 16:27:38
Библиотека кодирования : libebml v1.3.0 + libmatroska v1.4.1

Видео
Идентификатор : 1
Формат : AVC
Формат/Информация : Advanced Video Codec
Профиль формата : High@L3.1
Параметр CABAC формата : Да
Параметр ReFrames формата : 5 кадров
Идентификатор кодека : V_MPEG4/ISO/AVC
Продолжительность : 45 м.
Битрейт : 5391 Кбит/сек
Ширина : 1280 пикселей
Высота : 720 пикселей
Соотношение сторон : 16:9
Режим частоты кадров : Постоянный
Частота кадров : 23,976 кадра/сек
Цветовое пространство : YUV
Субдискретизация насыщенности : 4:2:0
Битовая глубина : 8 бит
Тип развёртки : Прогрессивная
Бит/(Пиксели*Кадры) : 0.244
Размер потока : 1,66 Гбайт (74%)
Заголовок : 06. Who Are You? (Кто ты?)
Библиотека кодирования : x264 core 67 r1145 d2e1e1c
Настройки программы : cabac=1 / ref=5 / deblock=1:0:0 / analyse=0x3:0x113 / me=umh / subme=7 / psy_rd=1.0:0.0 / mixed_ref=1 / me_range=16 / chroma_me=1 / trellis=1 / 8x8dct=1 / cqm=0 / deadzone=21,11 / chroma_qp_offset=-2 / threads=12 / nr=0 / decimate=1 / mbaff=0 / bframes=3 / b_pyramid=1 / b_adapt=1 / b_bias=0 / direct=1 / wpredb=1 / keyint=250 / keyint_min=25 / scenecut=40 / rc=2pass / bitrate=5391 / ratetol=1.0 / qcomp=0.60 / qpmin=10 / qpmax=51 / qpstep=4 / cplxblur=20.0 / qblur=0.5 / ip_ratio=1.40 / pb_ratio=1.30 / aq=1:1.00
Язык : English
Default : Да
Forced : Нет

Аудио #1
Идентификатор : 2
Формат : AC-3
Формат/Информация : Audio Coding 3
Расширение режима : CM (complete main)
Параметр Endianness формата : Big
Идентификатор кодека : A_AC3
Продолжительность : 45 м.
Вид битрейта : Постоянный
Битрейт : 192 Кбит/сек
Каналы : 2 канала
Расположение каналов : Front: L R
Частота : 48,0 КГц
Битовая глубина : 16 бит
Метод сжатия : С потерями
Размер потока : 62,3 Мбайт (3%)
Заголовок : ДТВ
Язык : Russian
Default : Да
Forced : Да

Аудио #2
Идентификатор : 3
Формат : DTS
Формат/Информация : Digital Theater Systems
Режим : 16
Параметр Endianness формата : Big
Идентификатор кодека : A_DTS
Продолжительность : 45 м.
Вид битрейта : Постоянный
Битрейт : 1509 Кбит/сек
Каналы : 6 каналов
Расположение каналов : Front: L C R, Side: L R, LFE
Частота : 48,0 КГц
Битовая глубина : 24 бит
Метод сжатия : С потерями
Размер потока : 489 Мбайт (21%)
Заголовок : ENG DD5.1
Язык : English
Default : Нет
Forced : Нет
Общее
Уникальный идентификатор : 213156071703444901957959484318517210472 (0xA05C5DBAD65CA4AAA394BEACD2BAAD68)
Полное имя : D:\UPLOADED\МОИ\CSI\CSI - Las-Vegas\S 01. CSI - Las-Vegas\07. Blood Drops (Капли крови).mkv
Формат : Matroska
Версия формата : Version 4 / Version 2
Размер файла : 2,25 Гбайт
Продолжительность : 44 м.
Общий поток : 7182 Кбит/сек
Название фильма : 07. Blood Drops (Капли крови)
Дата кодирования : UTC 2014-01-04 15:32:34
Программа кодирования : mkvmerge v6.3.0 ('You can't stop me!') built on Jul 19 2013 16:27:38
Библиотека кодирования : libebml v1.3.0 + libmatroska v1.4.1

Видео
Идентификатор : 1
Формат : AVC
Формат/Информация : Advanced Video Codec
Профиль формата : High@L3.1
Параметр CABAC формата : Да
Параметр ReFrames формата : 5 кадров
Идентификатор кодека : V_MPEG4/ISO/AVC
Продолжительность : 44 м.
Битрейт : 5479 Кбит/сек
Ширина : 1280 пикселей
Высота : 720 пикселей
Соотношение сторон : 16:9
Режим частоты кадров : Постоянный
Частота кадров : 23,976 кадра/сек
Цветовое пространство : YUV
Субдискретизация насыщенности : 4:2:0
Битовая глубина : 8 бит
Тип развёртки : Прогрессивная
Бит/(Пиксели*Кадры) : 0.248
Размер потока : 1,67 Гбайт (74%)
Заголовок : 07. Blood Drops (Капли крови)
Библиотека кодирования : x264 core 67 r1145 d2e1e1c
Настройки программы : cabac=1 / ref=5 / deblock=1:0:0 / analyse=0x3:0x113 / me=umh / subme=7 / psy_rd=1.0:0.0 / mixed_ref=1 / me_range=16 / chroma_me=1 / trellis=1 / 8x8dct=1 / cqm=0 / deadzone=21,11 / chroma_qp_offset=-2 / threads=12 / nr=0 / decimate=1 / mbaff=0 / bframes=3 / b_pyramid=1 / b_adapt=1 / b_bias=0 / direct=1 / wpredb=1 / keyint=250 / keyint_min=25 / scenecut=40 / rc=2pass / bitrate=5479 / ratetol=1.0 / qcomp=0.60 / qpmin=10 / qpmax=51 / qpstep=4 / cplxblur=20.0 / qblur=0.5 / ip_ratio=1.40 / pb_ratio=1.30 / aq=1:1.00
Язык : English
Default : Да
Forced : Нет

Аудио #1
Идентификатор : 2
Формат : AC-3
Формат/Информация : Audio Coding 3
Расширение режима : CM (complete main)
Параметр Endianness формата : Big
Идентификатор кодека : A_AC3
Продолжительность : 44 м.
Вид битрейта : Постоянный
Битрейт : 192 Кбит/сек
Каналы : 2 канала
Расположение каналов : Front: L R
Частота : 48,0 КГц
Битовая глубина : 16 бит
Метод сжатия : С потерями
Размер потока : 61,5 Мбайт (3%)
Заголовок : ДТВ
Язык : Russian
Default : Да
Forced : Да

Аудио #2
Идентификатор : 3
Формат : DTS
Формат/Информация : Digital Theater Systems
Режим : 16
Параметр Endianness формата : Big
Идентификатор кодека : A_DTS
Продолжительность : 44 м.
Вид битрейта : Постоянный
Битрейт : 1509 Кбит/сек
Каналы : 6 каналов
Расположение каналов : Front: L C R, Side: L R, LFE
Частота : 48,0 КГц
Битовая глубина : 24 бит
Метод сжатия : С потерями
Размер потока : 483 Мбайт (21%)
Заголовок : ENG DD5.1
Язык : English
Default : Нет
Forced : Нет
Общее
Уникальный идентификатор : 201756026395364843034568630867586777552 (0x97C8CC19DB4EB603A8DDD3F09EFD01D0)
Полное имя : D:\UPLOADED\МОИ\CSI\CSI - Las-Vegas\S 01. CSI - Las-Vegas\08. Anonymous (Аноним).mkv
Формат : Matroska
Версия формата : Version 4 / Version 2
Размер файла : 2,25 Гбайт
Продолжительность : 44 м.
Общий поток : 7174 Кбит/сек
Название фильма : 08. Anonymous (Аноним)
Дата кодирования : UTC 2014-01-04 15:43:00
Программа кодирования : mkvmerge v6.3.0 ('You can't stop me!') built on Jul 19 2013 16:27:38
Библиотека кодирования : libebml v1.3.0 + libmatroska v1.4.1

Видео
Идентификатор : 1
Формат : AVC
Формат/Информация : Advanced Video Codec
Профиль формата : High@L3.1
Параметр CABAC формата : Да
Параметр ReFrames формата : 5 кадров
Идентификатор кодека : V_MPEG4/ISO/AVC
Продолжительность : 44 м.
Битрейт : 5505 Кбит/сек
Ширина : 1280 пикселей
Высота : 720 пикселей
Соотношение сторон : 16:9
Режим частоты кадров : Постоянный
Частота кадров : 23,976 кадра/сек
Цветовое пространство : YUV
Субдискретизация насыщенности : 4:2:0
Битовая глубина : 8 бит
Тип развёртки : Прогрессивная
Бит/(Пиксели*Кадры) : 0.249
Размер потока : 1,67 Гбайт (74%)
Заголовок : 08. Anonymous (Аноним)
Библиотека кодирования : x264 core 67 r1145 d2e1e1c
Настройки программы : cabac=1 / ref=5 / deblock=1:0:0 / analyse=0x3:0x113 / me=umh / subme=7 / psy_rd=1.0:0.0 / mixed_ref=1 / me_range=16 / chroma_me=1 / trellis=1 / 8x8dct=1 / cqm=0 / deadzone=21,11 / chroma_qp_offset=-2 / threads=12 / nr=0 / decimate=1 / mbaff=0 / bframes=3 / b_pyramid=1 / b_adapt=1 / b_bias=0 / direct=1 / wpredb=1 / keyint=250 / keyint_min=25 / scenecut=40 / rc=2pass / bitrate=5505 / ratetol=1.0 / qcomp=0.60 / qpmin=10 / qpmax=51 / qpstep=4 / cplxblur=20.0 / qblur=0.5 / ip_ratio=1.40 / pb_ratio=1.30 / aq=1:1.00
Язык : English
Default : Да
Forced : Нет

Аудио #1
Идентификатор : 2
Формат : AC-3
Формат/Информация : Audio Coding 3
Расширение режима : CM (complete main)
Параметр Endianness формата : Big
Идентификатор кодека : A_AC3
Продолжительность : 44 м.
Вид битрейта : Постоянный
Битрейт : 192 Кбит/сек
Каналы : 2 канала
Расположение каналов : Front: L R
Частота : 48,0 КГц
Битовая глубина : 16 бит
Метод сжатия : С потерями
Размер потока : 61,6 Мбайт (3%)
Заголовок : ДТВ
Язык : Russian
Default : Да
Forced : Да

Аудио #2
Идентификатор : 3
Формат : DTS
Формат/Информация : Digital Theater Systems
Режим : 16
Параметр Endianness формата : Big
Идентификатор кодека : A_DTS
Продолжительность : 44 м.
Вид битрейта : Постоянный
Битрейт : 1509 Кбит/сек
Каналы : 6 каналов
Расположение каналов : Front: L C R, Side: L R, LFE
Частота : 48,0 КГц
Битовая глубина : 24 бит
Метод сжатия : С потерями
Размер потока : 484 Мбайт (21%)
Заголовок : ENG DD5.1
Язык : English
Default : Нет
Forced : Нет
Общее
Уникальный идентификатор : 215751893904311009955790501010526355584 (0xA2504DA5418BD1A2AE77774A73AEC080)
Полное имя : D:\UPLOADED\МОИ\CSI\CSI - Las-Vegas\S 01. CSI - Las-Vegas\09. Unfriendly Skies (Враждебные небеса).mkv
Формат : Matroska
Версия формата : Version 4 / Version 2
Размер файла : 2,25 Гбайт
Продолжительность : 44 м.
Общий поток : 7173 Кбит/сек
Название фильма : 09. Unfriendly Skies (Враждебные небеса)
Дата кодирования : UTC 2014-01-04 15:57:56
Программа кодирования : mkvmerge v6.3.0 ('You can't stop me!') built on Jul 19 2013 16:27:38
Библиотека кодирования : libebml v1.3.0 + libmatroska v1.4.1

Видео
Идентификатор : 1
Формат : AVC
Формат/Информация : Advanced Video Codec
Профиль формата : High@L3.1
Параметр CABAC формата : Да
Параметр ReFrames формата : 5 кадров
Идентификатор кодека : V_MPEG4/ISO/AVC
Продолжительность : 44 м.
Битрейт : 5471 Кбит/сек
Ширина : 1280 пикселей
Высота : 720 пикселей
Соотношение сторон : 16:9
Режим частоты кадров : Постоянный
Частота кадров : 23,976 кадра/сек
Цветовое пространство : YUV
Субдискретизация насыщенности : 4:2:0
Битовая глубина : 8 бит
Тип развёртки : Прогрессивная
Бит/(Пиксели*Кадры) : 0.248
Размер потока : 1,67 Гбайт (74%)
Заголовок : 09. Unfriendly Skies (Враждебные небеса)
Библиотека кодирования : x264 core 67 r1145 d2e1e1c
Настройки программы : cabac=1 / ref=5 / deblock=1:0:0 / analyse=0x3:0x113 / me=umh / subme=7 / psy_rd=1.0:0.0 / mixed_ref=1 / me_range=16 / chroma_me=1 / trellis=1 / 8x8dct=1 / cqm=0 / deadzone=21,11 / chroma_qp_offset=-2 / threads=12 / nr=0 / decimate=1 / mbaff=0 / bframes=3 / b_pyramid=1 / b_adapt=1 / b_bias=0 / direct=1 / wpredb=1 / keyint=250 / keyint_min=25 / scenecut=40 / rc=2pass / bitrate=5471 / ratetol=1.0 / qcomp=0.60 / qpmin=10 / qpmax=51 / qpstep=4 / cplxblur=20.0 / qblur=0.5 / ip_ratio=1.40 / pb_ratio=1.30 / aq=1:1.00
Язык : English
Default : Да
Forced : Нет

Аудио #1
Идентификатор : 2
Формат : AC-3
Формат/Информация : Audio Coding 3
Расширение режима : CM (complete main)
Параметр Endianness формата : Big
Идентификатор кодека : A_AC3
Продолжительность : 44 м.
Вид битрейта : Постоянный
Битрейт : 192 Кбит/сек
Каналы : 2 канала
Расположение каналов : Front: L R
Частота : 48,0 КГц
Битовая глубина : 16 бит
Метод сжатия : С потерями
Размер потока : 61,6 Мбайт (3%)
Заголовок : ДТВ
Язык : Russian
Default : Да
Forced : Да

Аудио #2
Идентификатор : 3
Формат : DTS
Формат/Информация : Digital Theater Systems
Режим : 16
Параметр Endianness формата : Big
Идентификатор кодека : A_DTS
Продолжительность : 44 м.
Вид битрейта : Постоянный
Битрейт : 1509 Кбит/сек
Каналы : 6 каналов
Расположение каналов : Front: L C R, Side: L R, LFE
Частота : 48,0 КГц
Битовая глубина : 24 бит
Метод сжатия : С потерями
Размер потока : 484 Мбайт (21%)
Заголовок : ENG DD5.1
Язык : English
Default : Нет
Forced : Нет
Общее
Уникальный идентификатор : 204435245376965112399850937764017812037 (0x99CCCBCBA26A855280C6E5187E1B3245)
Полное имя : D:\UPLOADED\МОИ\CSI\CSI - Las-Vegas\S 01. CSI - Las-Vegas\10. Sex, Lies and Larvae (Секс, ложь и личинки).mkv
Формат : Matroska
Версия формата : Version 4 / Version 2
Размер файла : 2,25 Гбайт
Продолжительность : 45 м.
Общий поток : 7134 Кбит/сек
Название фильма : 10. Sex, Lies and Larvae (Секс, ложь и личинки)
Дата кодирования : UTC 2014-01-04 16:26:13
Программа кодирования : mkvmerge v6.3.0 ('You can't stop me!') built on Jul 19 2013 16:27:38
Библиотека кодирования : libebml v1.3.0 + libmatroska v1.4.1

Видео
Идентификатор : 1
Формат : AVC
Формат/Информация : Advanced Video Codec
Профиль формата : High@L3.1
Параметр CABAC формата : Да
Параметр ReFrames формата : 5 кадров
Идентификатор кодека : V_MPEG4/ISO/AVC
Продолжительность : 45 м.
Битрейт : 5431 Кбит/сек
Ширина : 1280 пикселей
Высота : 720 пикселей
Соотношение сторон : 16:9
Режим частоты кадров : Постоянный
Частота кадров : 23,976 кадра/сек
Цветовое пространство : YUV
Субдискретизация насыщенности : 4:2:0
Битовая глубина : 8 бит
Тип развёртки : Прогрессивная
Бит/(Пиксели*Кадры) : 0.246
Размер потока : 1,67 Гбайт (74%)
Заголовок : 10. Sex, Lies and Larvae (Секс, ложь и личинки)
Библиотека кодирования : x264 core 67 r1145 d2e1e1c
Настройки программы : cabac=1 / ref=5 / deblock=1:0:0 / analyse=0x3:0x113 / me=umh / subme=7 / psy_rd=1.0:0.0 / mixed_ref=1 / me_range=16 / chroma_me=1 / trellis=1 / 8x8dct=1 / cqm=0 / deadzone=21,11 / chroma_qp_offset=-2 / threads=6 / nr=0 / decimate=1 / mbaff=0 / bframes=3 / b_pyramid=1 / b_adapt=1 / b_bias=0 / direct=1 / wpredb=1 / keyint=250 / keyint_min=25 / scenecut=40 / rc=2pass / bitrate=5431 / ratetol=1.0 / qcomp=0.60 / qpmin=10 / qpmax=51 / qpstep=4 / cplxblur=20.0 / qblur=0.5 / ip_ratio=1.40 / pb_ratio=1.30 / aq=1:1.00
Язык : English
Default : Да
Forced : Нет

Аудио #1
Идентификатор : 2
Формат : AC-3
Формат/Информация : Audio Coding 3
Расширение режима : CM (complete main)
Параметр Endianness формата : Big
Идентификатор кодека : A_AC3
Продолжительность : 45 м.
Вид битрейта : Постоянный
Битрейт : 192 Кбит/сек
Каналы : 2 канала
Расположение каналов : Front: L R
Частота : 48,0 КГц
Битовая глубина : 16 бит
Метод сжатия : С потерями
Размер потока : 61,9 Мбайт (3%)
Заголовок : ДТВ
Язык : Russian
Default : Да
Forced : Да

Аудио #2
Идентификатор : 3
Формат : DTS
Формат/Информация : Digital Theater Systems
Режим : 16
Параметр Endianness формата : Big
Идентификатор кодека : A_DTS
Продолжительность : 45 м.
Вид битрейта : Постоянный
Битрейт : 1509 Кбит/сек
Каналы : 6 каналов
Расположение каналов : Front: L C R, Side: L R, LFE
Частота : 48,0 КГц
Битовая глубина : 24 бит
Метод сжатия : С потерями
Размер потока : 487 Мбайт (21%)
Заголовок : ENG DD5.1
Язык : English
Default : Нет
Forced : Нет
Общее
Уникальный идентификатор : 198154126276901964118299843255538384779 (0x951318B6D965C38C9F2C3B74EE417F8B)
Полное имя : D:\UPLOADED\МОИ\CSI\CSI - Las-Vegas\S 01. CSI - Las-Vegas\11. I-15 Murders (Убийства на автостраде I-15).mkv
Формат : Matroska
Версия формата : Version 4 / Version 2
Размер файла : 2,24 Гбайт
Продолжительность : 43 м.
Общий поток : 7449 Кбит/сек
Название фильма : 11. I-15 Murders (Убийства на автостраде I-15)
Дата кодирования : UTC 2014-01-04 16:30:54
Программа кодирования : mkvmerge v6.3.0 ('You can't stop me!') built on Jul 19 2013 16:27:38
Библиотека кодирования : libebml v1.3.0 + libmatroska v1.4.1

Видео
Идентификатор : 1
Формат : AVC
Формат/Информация : Advanced Video Codec
Профиль формата : High@L3.1
Параметр CABAC формата : Да
Параметр ReFrames формата : 5 кадров
Идентификатор кодека : V_MPEG4/ISO/AVC
Продолжительность : 43 м.
Битрейт : 5746 Кбит/сек
Ширина : 1280 пикселей
Высота : 720 пикселей
Соотношение сторон : 16:9
Режим частоты кадров : Постоянный
Частота кадров : 23,976 кадра/сек
Цветовое пространство : YUV
Субдискретизация насыщенности : 4:2:0
Битовая глубина : 8 бит
Тип развёртки : Прогрессивная
Бит/(Пиксели*Кадры) : 0.260
Размер потока : 1,69 Гбайт (75%)
Заголовок : 11. I-15 Murders (Убийства на автостраде I-15)
Библиотека кодирования : x264 core 67 r1145 d2e1e1c
Настройки программы : cabac=1 / ref=5 / deblock=1:0:0 / analyse=0x3:0x113 / me=umh / subme=7 / psy_rd=1.0:0.0 / mixed_ref=1 / me_range=16 / chroma_me=1 / trellis=1 / 8x8dct=1 / cqm=0 / deadzone=21,11 / chroma_qp_offset=-2 / threads=6 / nr=0 / decimate=1 / mbaff=0 / bframes=3 / b_pyramid=1 / b_adapt=1 / b_bias=0 / direct=1 / wpredb=1 / keyint=250 / keyint_min=25 / scenecut=40 / rc=2pass / bitrate=5746 / ratetol=1.0 / qcomp=0.60 / qpmin=10 / qpmax=51 / qpstep=4 / cplxblur=20.0 / qblur=0.5 / ip_ratio=1.40 / pb_ratio=1.30 / aq=1:1.00
Язык : English
Default : Да
Forced : Нет

Аудио #1
Идентификатор : 2
Формат : AC-3
Формат/Информация : Audio Coding 3
Расширение режима : CM (complete main)
Параметр Endianness формата : Big
Идентификатор кодека : A_AC3
Продолжительность : 43 м.
Вид битрейта : Постоянный
Битрейт : 192 Кбит/сек
Каналы : 2 канала
Расположение каналов : Front: L R
Частота : 48,0 КГц
Битовая глубина : 16 бит
Метод сжатия : С потерями
Размер потока : 59,2 Мбайт (3%)
Заголовок : ДТВ
Язык : Russian
Default : Да
Forced : Да

Аудио #2
Идентификатор : 3
Формат : DTS
Формат/Информация : Digital Theater Systems
Режим : 16
Параметр Endianness формата : Big
Идентификатор кодека : A_DTS
Продолжительность : 43 м.
Вид битрейта : Постоянный
Битрейт : 1509 Кбит/сек
Каналы : 6 каналов
Расположение каналов : Front: L C R, Side: L R, LFE
Частота : 48,0 КГц
Битовая глубина : 24 бит
Метод сжатия : С потерями
Размер потока : 466 Мбайт (20%)
Заголовок : ENG DD5.1
Язык : English
Default : Нет
Forced : Нет
Общее
Уникальный идентификатор : 195134400701859956284247061208370916088 (0x92CD84BFA38C78DA9139B1A7BE2A2AF8)
Полное имя : D:\UPLOADED\МОИ\CSI\CSI - Las-Vegas\S 01. CSI - Las-Vegas\12. Fahrenheit 932 (932 градуса по Фаренгейту).mkv
Формат : Matroska
Версия формата : Version 4 / Version 2
Размер файла : 2,25 Гбайт
Продолжительность : 44 м.
Общий поток : 7152 Кбит/сек
Название фильма : 12. Fahrenheit 932 (932 градуса по Фаренгейту)
Дата кодирования : UTC 2014-01-04 16:34:02
Программа кодирования : mkvmerge v6.3.0 ('You can't stop me!') built on Jul 19 2013 16:27:38
Библиотека кодирования : libebml v1.3.0 + libmatroska v1.4.1

Видео
Идентификатор : 1
Формат : AVC
Формат/Информация : Advanced Video Codec
Профиль формата : High@L3.1
Параметр CABAC формата : Да
Параметр ReFrames формата : 5 кадров
Идентификатор кодека : V_MPEG4/ISO/AVC
Продолжительность : 44 м.
Битрейт : 5450 Кбит/сек
Ширина : 1280 пикселей
Высота : 720 пикселей
Соотношение сторон : 16:9
Режим частоты кадров : Постоянный
Частота кадров : 23,976 кадра/сек
Цветовое пространство : YUV
Субдискретизация насыщенности : 4:2:0
Битовая глубина : 8 бит
Тип развёртки : Прогрессивная
Бит/(Пиксели*Кадры) : 0.247
Размер потока : 1,67 Гбайт (74%)
Заголовок : 12. Fahrenheit 932 (932 градуса по Фаренгейту)
Библиотека кодирования : x264 core 67 r1145 d2e1e1c
Настройки программы : cabac=1 / ref=5 / deblock=1:0:0 / analyse=0x3:0x113 / me=umh / subme=7 / psy_rd=1.0:0.0 / mixed_ref=1 / me_range=16 / chroma_me=1 / trellis=1 / 8x8dct=1 / cqm=0 / deadzone=21,11 / chroma_qp_offset=-2 / threads=6 / nr=0 / decimate=1 / mbaff=0 / bframes=3 / b_pyramid=1 / b_adapt=1 / b_bias=0 / direct=1 / wpredb=1 / keyint=250 / keyint_min=25 / scenecut=40 / rc=2pass / bitrate=5450 / ratetol=1.0 / qcomp=0.60 / qpmin=10 / qpmax=51 / qpstep=4 / cplxblur=20.0 / qblur=0.5 / ip_ratio=1.40 / pb_ratio=1.30 / aq=1:1.00
Язык : English
Default : Да
Forced : Нет

Аудио #1
Идентификатор : 2
Формат : AC-3
Формат/Информация : Audio Coding 3
Расширение режима : CM (complete main)
Параметр Endianness формата : Big
Идентификатор кодека : A_AC3
Продолжительность : 44 м.
Вид битрейта : Постоянный
Битрейт : 192 Кбит/сек
Каналы : 2 канала
Расположение каналов : Front: L R
Частота : 48,0 КГц
Битовая глубина : 16 бит
Метод сжатия : С потерями
Размер потока : 61,8 Мбайт (3%)
Заголовок : ДТВ
Язык : Russian
Default : Да
Forced : Да

Аудио #2
Идентификатор : 3
Формат : DTS
Формат/Информация : Digital Theater Systems
Режим : 16
Параметр Endianness формата : Big
Идентификатор кодека : A_DTS
Продолжительность : 44 м.
Вид битрейта : Постоянный
Битрейт : 1509 Кбит/сек
Каналы : 6 каналов
Расположение каналов : Front: L C R, Side: L R, LFE
Частота : 48,0 КГц
Битовая глубина : 24 бит
Метод сжатия : С потерями
Размер потока : 485 Мбайт (21%)
Заголовок : ENG DD5.1
Язык : English
Default : Нет
Forced : Нет
Общее
Уникальный идентификатор : 224802318449291246677004115626540309649 (0xA91F5A06D7D18722810C8DA1FE2A9C91)
Полное имя : D:\UPLOADED\МОИ\CSI\CSI - Las-Vegas\S 01. CSI - Las-Vegas\13. Boom (Взрыв).mkv
Формат : Matroska
Версия формата : Version 4 / Version 2
Размер файла : 2,25 Гбайт
Продолжительность : 45 м.
Общий поток : 7090 Кбит/сек
Название фильма : 13. Boom (Взрыв)
Дата кодирования : UTC 2014-01-04 16:37:37
Программа кодирования : mkvmerge v6.3.0 ('You can't stop me!') built on Jul 19 2013 16:27:38
Библиотека кодирования : libebml v1.3.0 + libmatroska v1.4.1

Видео
Идентификатор : 1
Формат : AVC
Формат/Информация : Advanced Video Codec
Профиль формата : High@L3.1
Параметр CABAC формата : Да
Параметр ReFrames формата : 5 кадров
Идентификатор кодека : V_MPEG4/ISO/AVC
Продолжительность : 45 м.
Битрейт : 5387 Кбит/сек
Ширина : 1280 пикселей
Высота : 720 пикселей
Соотношение сторон : 16:9
Режим частоты кадров : Постоянный
Частота кадров : 23,976 кадра/сек
Цветовое пространство : YUV
Субдискретизация насыщенности : 4:2:0
Битовая глубина : 8 бит
Тип развёртки : Прогрессивная
Бит/(Пиксели*Кадры) : 0.244
Размер потока : 1,66 Гбайт (74%)
Заголовок : 13. Boom (Взрыв)
Библиотека кодирования : x264 core 67 r1145 d2e1e1c
Настройки программы : cabac=1 / ref=5 / deblock=1:0:0 / analyse=0x3:0x113 / me=umh / subme=7 / psy_rd=1.0:0.0 / mixed_ref=1 / me_range=16 / chroma_me=1 / trellis=1 / 8x8dct=1 / cqm=0 / deadzone=21,11 / chroma_qp_offset=-2 / threads=6 / nr=0 / decimate=1 / mbaff=0 / bframes=3 / b_pyramid=1 / b_adapt=1 / b_bias=0 / direct=1 / wpredb=1 / keyint=250 / keyint_min=25 / scenecut=40 / rc=2pass / bitrate=5387 / ratetol=1.0 / qcomp=0.60 / qpmin=10 / qpmax=51 / qpstep=4 / cplxblur=20.0 / qblur=0.5 / ip_ratio=1.40 / pb_ratio=1.30 / aq=1:1.00
Язык : English
Default : Да
Forced : Нет

Аудио #1
Идентификатор : 2
Формат : AC-3
Формат/Информация : Audio Coding 3
Расширение режима : CM (complete main)
Параметр Endianness формата : Big
Идентификатор кодека : A_AC3
Продолжительность : 45 м.
Вид битрейта : Постоянный
Битрейт : 192 Кбит/сек
Каналы : 2 канала
Расположение каналов : Front: L R
Частота : 48,0 КГц
Битовая глубина : 16 бит
Метод сжатия : С потерями
Размер потока : 62,3 Мбайт (3%)
Заголовок : ДТВ
Язык : Russian
Default : Да
Forced : Да

Аудио #2
Идентификатор : 3
Формат : DTS
Формат/Информация : Digital Theater Systems
Режим : 16
Параметр Endianness формата : Big
Идентификатор кодека : A_DTS
Продолжительность : 45 м.
Вид битрейта : Постоянный
Битрейт : 1509 Кбит/сек
Каналы : 6 каналов
Расположение каналов : Front: L C R, Side: L R, LFE
Частота : 48,0 КГц
Битовая глубина : 24 бит
Метод сжатия : С потерями
Размер потока : 490 Мбайт (21%)
Заголовок : ENG DD5.1
Язык : English
Default : Нет
Forced : Нет
Общее
Уникальный идентификатор : 185756505854767692009237560957615048988 (0x8BBF66D5BFA0CFA580D009F0E529891C)
Полное имя : D:\UPLOADED\МОИ\CSI\CSI - Las-Vegas\S 01. CSI - Las-Vegas\14. To Halve and to Hold (Уменьшить и сохранить).mkv
Формат : Matroska
Версия формата : Version 4 / Version 2
Размер файла : 2,25 Гбайт
Продолжительность : 43 м.
Общий поток : 7322 Кбит/сек
Название фильма : 14. To Halve and to Hold (Уменьшить и сохранить)
Дата кодирования : UTC 2014-01-04 21:46:35
Программа кодирования : mkvmerge v6.3.0 ('You can't stop me!') built on Jul 19 2013 16:27:38
Библиотека кодирования : libebml v1.3.0 + libmatroska v1.4.1

Видео
Идентификатор : 1
Формат : AVC
Формат/Информация : Advanced Video Codec
Профиль формата : High@L3.1
Параметр CABAC формата : Да
Параметр ReFrames формата : 5 кадров
Идентификатор кодека : V_MPEG4/ISO/AVC
Продолжительность : 43 м.
Битрейт : 5619 Кбит/сек
Ширина : 1280 пикселей
Высота : 720 пикселей
Соотношение сторон : 16:9
Режим частоты кадров : Постоянный
Частота кадров : 23,976 кадра/сек
Цветовое пространство : YUV
Субдискретизация насыщенности : 4:2:0
Битовая глубина : 8 бит
Тип развёртки : Прогрессивная
Бит/(Пиксели*Кадры) : 0.254
Размер потока : 1,68 Гбайт (75%)
Заголовок : 14. To Halve and to Hold (Уменьшить и сохранить)
Библиотека кодирования : x264 core 67 r1145 d2e1e1c
Настройки программы : cabac=1 / ref=5 / deblock=1:0:0 / analyse=0x3:0x113 / me=umh / subme=7 / psy_rd=1.0:0.0 / mixed_ref=1 / me_range=16 / chroma_me=1 / trellis=1 / 8x8dct=1 / cqm=0 / deadzone=21,11 / chroma_qp_offset=-2 / threads=6 / nr=0 / decimate=1 / mbaff=0 / bframes=3 / b_pyramid=1 / b_adapt=1 / b_bias=0 / direct=1 / wpredb=1 / keyint=250 / keyint_min=25 / scenecut=40 / rc=2pass / bitrate=5619 / ratetol=1.0 / qcomp=0.60 / qpmin=10 / qpmax=51 / qpstep=4 / cplxblur=20.0 / qblur=0.5 / ip_ratio=1.40 / pb_ratio=1.30 / aq=1:1.00
Язык : English
Default : Да
Forced : Нет

Аудио #1
Идентификатор : 2
Формат : AC-3
Формат/Информация : Audio Coding 3
Расширение режима : CM (complete main)
Параметр Endianness формата : Big
Идентификатор кодека : A_AC3
Продолжительность : 43 м.
Вид битрейта : Постоянный
Битрейт : 192 Кбит/сек
Каналы : 2 канала
Расположение каналов : Front: L R
Частота : 48,0 КГц
Битовая глубина : 16 бит
Метод сжатия : С потерями
Размер потока : 60,3 Мбайт (3%)
Заголовок : ДТВ
Язык : Russian
Default : Да
Forced : Да

Аудио #2
Идентификатор : 3
Формат : DTS
Формат/Информация : Digital Theater Systems
Режим : 16
Параметр Endianness формата : Big
Идентификатор кодека : A_DTS
Продолжительность : 43 м.
Вид битрейта : Постоянный
Битрейт : 1509 Кбит/сек
Каналы : 6 каналов
Расположение каналов : Front: L C R, Side: L R, LFE
Частота : 48,0 КГц
Битовая глубина : 24 бит
Метод сжатия : С потерями
Размер потока : 474 Мбайт (21%)
Заголовок : ENG DD5.1
Язык : English
Default : Нет
Forced : Нет
Общее
Уникальный идентификатор : 250458657745662705003159338072940857946 (0xBC6C953783D262C4BEA7B296DFA1CA5A)
Полное имя : D:\UPLOADED\МОИ\CSI\CSI - Las-Vegas\S 01. CSI - Las-Vegas\15. Table Stakes (Сходство улик).mkv
Формат : Matroska
Версия формата : Version 4 / Version 2
Размер файла : 2,25 Гбайт
Продолжительность : 45 м.
Общий поток : 7087 Кбит/сек
Название фильма : 15. Table Stakes (Сходство улик)
Дата кодирования : UTC 2014-01-04 21:51:50
Программа кодирования : mkvmerge v6.3.0 ('You can't stop me!') built on Jul 19 2013 16:27:38
Библиотека кодирования : libebml v1.3.0 + libmatroska v1.4.1

Видео
Идентификатор : 1
Формат : AVC
Формат/Информация : Advanced Video Codec
Профиль формата : High@L4.1
Параметр CABAC формата : Да
Параметр ReFrames формата : 5 кадров
Идентификатор кодека : V_MPEG4/ISO/AVC
Продолжительность : 45 м.
Битрейт : 5384 Кбит/сек
Ширина : 1280 пикселей
Высота : 720 пикселей
Соотношение сторон : 16:9
Режим частоты кадров : Постоянный
Частота кадров : 23,976 кадра/сек
Цветовое пространство : YUV
Субдискретизация насыщенности : 4:2:0
Битовая глубина : 8 бит
Тип развёртки : Прогрессивная
Бит/(Пиксели*Кадры) : 0.244
Размер потока : 1,66 Гбайт (74%)
Заголовок : 15. Table Stakes (Сходство улик)
Библиотека кодирования : x264 core 67 r1145M d2e1e1c
Настройки программы : cabac=1 / ref=5 / deblock=1:0:0 / analyse=0x3:0x133 / me=umh / subme=7 / psy_rd=1.0:0.0 / mixed_ref=1 / me_range=16 / chroma_me=1 / trellis=1 / 8x8dct=1 / cqm=0 / deadzone=21,11 / chroma_qp_offset=-2 / threads=3 / nr=0 / decimate=0 / mbaff=0 / bframes=3 / b_pyramid=1 / b_adapt=1 / b_bias=0 / direct=1 / wpredb=1 / keyint=250 / keyint_min=25 / scenecut=40 / rc=2pass / bitrate=5384 / ratetol=1.0 / qcomp=0.60 / qpmin=10 / qpmax=51 / qpstep=4 / cplxblur=20.0 / qblur=0.5 / ip_ratio=1.40 / pb_ratio=1.30 / aq=1:1.00
Язык : English
Default : Да
Forced : Нет

Аудио #1
Идентификатор : 2
Формат : AC-3
Формат/Информация : Audio Coding 3
Расширение режима : CM (complete main)
Параметр Endianness формата : Big
Идентификатор кодека : A_AC3
Продолжительность : 45 м.
Вид битрейта : Постоянный
Битрейт : 192 Кбит/сек
Каналы : 2 канала
Расположение каналов : Front: L R
Частота : 48,0 КГц
Битовая глубина : 16 бит
Метод сжатия : С потерями
Размер потока : 62,3 Мбайт (3%)
Заголовок : ДТВ
Язык : Russian
Default : Да
Forced : Да

Аудио #2
Идентификатор : 3
Формат : DTS
Формат/Информация : Digital Theater Systems
Режим : 16
Параметр Endianness формата : Big
Идентификатор кодека : A_DTS
Продолжительность : 45 м.
Вид битрейта : Постоянный
Битрейт : 1509 Кбит/сек
Каналы : 6 каналов
Расположение каналов : Front: L C R, Side: L R, LFE
Частота : 48,0 КГц
Битовая глубина : 24 бит
Метод сжатия : С потерями
Размер потока : 490 Мбайт (21%)
Заголовок : ENG DD5.1
Язык : English
Default : Нет
Forced : Нет
Общее
Уникальный идентификатор : 224542642396293243088032631453698761457 (0xA8ED57024369496A9B202B86DF7822F1)
Полное имя : D:\UPLOADED\МОИ\CSI\CSI - Las-Vegas\S 01. CSI - Las-Vegas\16. Too Tough to Die (Слишком тяжело умереть).mkv
Формат : Matroska
Версия формата : Version 4 / Version 2
Размер файла : 2,24 Гбайт
Продолжительность : 43 м.
Общий поток : 7403 Кбит/сек
Название фильма : 16. Too Tough to Die (Слишком тяжело умереть)
Дата кодирования : UTC 2014-01-04 21:56:38
Программа кодирования : mkvmerge v6.3.0 ('You can't stop me!') built on Jul 19 2013 16:27:38
Библиотека кодирования : libebml v1.3.0 + libmatroska v1.4.1

Видео
Идентификатор : 1
Формат : AVC
Формат/Информация : Advanced Video Codec
Профиль формата : High@L3.1
Параметр CABAC формата : Да
Параметр ReFrames формата : 5 кадров
Идентификатор кодека : V_MPEG4/ISO/AVC
Продолжительность : 43 м.
Битрейт : 5701 Кбит/сек
Ширина : 1280 пикселей
Высота : 720 пикселей
Соотношение сторон : 16:9
Режим частоты кадров : Постоянный
Частота кадров : 23,976 кадра/сек
Цветовое пространство : YUV
Субдискретизация насыщенности : 4:2:0
Битовая глубина : 8 бит
Тип развёртки : Прогрессивная
Бит/(Пиксели*Кадры) : 0.258
Размер потока : 1,68 Гбайт (75%)
Заголовок : 16. Too Tough to Die (Слишком тяжело умереть)
Библиотека кодирования : x264 core 67 r1145 d2e1e1c
Настройки программы : cabac=1 / ref=5 / deblock=1:0:0 / analyse=0x3:0x113 / me=umh / subme=7 / psy_rd=1.0:0.0 / mixed_ref=1 / me_range=16 / chroma_me=1 / trellis=1 / 8x8dct=1 / cqm=0 / deadzone=21,11 / chroma_qp_offset=-2 / threads=12 / nr=0 / decimate=1 / mbaff=0 / bframes=3 / b_pyramid=1 / b_adapt=1 / b_bias=0 / direct=1 / wpredb=1 / keyint=250 / keyint_min=25 / scenecut=40 / rc=2pass / bitrate=5701 / ratetol=1.0 / qcomp=0.60 / qpmin=10 / qpmax=51 / qpstep=4 / cplxblur=20.0 / qblur=0.5 / ip_ratio=1.40 / pb_ratio=1.30 / aq=1:1.00
Язык : English
Default : Да
Forced : Нет

Аудио #1
Идентификатор : 2
Формат : AC-3
Формат/Информация : Audio Coding 3
Расширение режима : CM (complete main)
Параметр Endianness формата : Big
Идентификатор кодека : A_AC3
Продолжительность : 43 м.
Вид битрейта : Постоянный
Битрейт : 192 Кбит/сек
Каналы : 2 канала
Расположение каналов : Front: L R
Частота : 48,0 КГц
Битовая глубина : 16 бит
Метод сжатия : С потерями
Размер потока : 59,6 Мбайт (3%)
Заголовок : ДТВ
Язык : Russian
Default : Да
Forced : Да

Аудио #2
Идентификатор : 3
Формат : DTS
Формат/Информация : Digital Theater Systems
Режим : 16
Параметр Endianness формата : Big
Идентификатор кодека : A_DTS
Продолжительность : 43 м.
Вид битрейта : Постоянный
Битрейт : 1509 Кбит/сек
Каналы : 6 каналов
Расположение каналов : Front: L C R, Side: L R, LFE
Частота : 48,0 КГц
Битовая глубина : 24 бит
Метод сжатия : С потерями
Размер потока : 468 Мбайт (20%)
Заголовок : ENG DD5.1
Язык : English
Default : Нет
Forced : Нет
Общее
Уникальный идентификатор : 232103545631945374776844806004614135355 (0xAE9D8451CBAA2F9F9417E0C3DF047E3B)
Полное имя : D:\UPLOADED\МОИ\CSI\CSI - Las-Vegas\S 01. CSI - Las-Vegas\17. Face Lift (Раздвоение личности).mkv
Формат : Matroska
Версия формата : Version 4 / Version 2
Размер файла : 2,25 Гбайт
Продолжительность : 45 м.
Общий поток : 7110 Кбит/сек
Название фильма : 17. Face Lift (Раздвоение личности)
Дата кодирования : UTC 2014-01-04 22:04:13
Программа кодирования : mkvmerge v6.3.0 ('You can't stop me!') built on Jul 19 2013 16:27:38
Библиотека кодирования : libebml v1.3.0 + libmatroska v1.4.1

Видео
Идентификатор : 1
Формат : AVC
Формат/Информация : Advanced Video Codec
Профиль формата : High@L3.1
Параметр CABAC формата : Да
Параметр ReFrames формата : 5 кадров
Идентификатор кодека : V_MPEG4/ISO/AVC
Продолжительность : 45 м.
Битрейт : 5407 Кбит/сек
Ширина : 1280 пикселей
Высота : 720 пикселей
Соотношение сторон : 16:9
Режим частоты кадров : Постоянный
Частота кадров : 23,976 кадра/сек
Цветовое пространство : YUV
Субдискретизация насыщенности : 4:2:0
Битовая глубина : 8 бит
Тип развёртки : Прогрессивная
Бит/(Пиксели*Кадры) : 0.245
Размер потока : 1,66 Гбайт (74%)
Заголовок : 17. Face Lift (Раздвоение личности)
Библиотека кодирования : x264 core 67 r1145 d2e1e1c
Настройки программы : cabac=1 / ref=5 / deblock=1:0:0 / analyse=0x3:0x113 / me=umh / subme=7 / psy_rd=1.0:0.0 / mixed_ref=1 / me_range=16 / chroma_me=1 / trellis=1 / 8x8dct=1 / cqm=0 / deadzone=21,11 / chroma_qp_offset=-2 / threads=12 / nr=0 / decimate=1 / mbaff=0 / bframes=3 / b_pyramid=1 / b_adapt=1 / b_bias=0 / direct=1 / wpredb=1 / keyint=250 / keyint_min=25 / scenecut=40 / rc=2pass / bitrate=5407 / ratetol=1.0 / qcomp=0.60 / qpmin=10 / qpmax=51 / qpstep=4 / cplxblur=20.0 / qblur=0.5 / ip_ratio=1.40 / pb_ratio=1.30 / aq=1:1.00
Язык : English
Default : Да
Forced : Нет

Аудио #1
Идентификатор : 2
Формат : AC-3
Формат/Информация : Audio Coding 3
Расширение режима : CM (complete main)
Параметр Endianness формата : Big
Идентификатор кодека : A_AC3
Продолжительность : 45 м.
Вид битрейта : Постоянный
Битрейт : 192 Кбит/сек
Каналы : 2 канала
Расположение каналов : Front: L R
Частота : 48,0 КГц
Битовая глубина : 16 бит
Метод сжатия : С потерями
Размер потока : 62,1 Мбайт (3%)
Заголовок : ДТВ
Язык : Russian
Default : Да
Forced : Да

Аудио #2
Идентификатор : 3
Формат : DTS
Формат/Информация : Digital Theater Systems
Режим : 16
Параметр Endianness формата : Big
Идентификатор кодека : A_DTS
Продолжительность : 45 м.
Вид битрейта : Постоянный
Битрейт : 1509 Кбит/сек
Каналы : 6 каналов
Расположение каналов : Front: L C R, Side: L R, LFE
Частота : 48,0 КГц
Битовая глубина : 24 бит
Метод сжатия : С потерями
Размер потока : 488 Мбайт (21%)
Заголовок : ENG DD5.1
Язык : English
Default : Нет
Forced : Нет
Общее
Уникальный идентификатор : 191532158490238368598851707844127740221 (0x9017C07ECF06F43BBB6621A9D53DD13D)
Полное имя : D:\UPLOADED\МОИ\CSI\CSI - Las-Vegas\S 01. CSI - Las-Vegas\18. $35K O.B.O.(Убийство ценой 35000 долларов).mkv
Формат : Matroska
Версия формата : Version 4 / Version 2
Размер файла : 2,25 Гбайт
Продолжительность : 44 м.
Общий поток : 7296 Кбит/сек
Название фильма : 18. $35K O.B.O.(Убийство ценой 35000 долларов)
Дата кодирования : UTC 2014-01-04 22:08:46
Программа кодирования : mkvmerge v6.3.0 ('You can't stop me!') built on Jul 19 2013 16:27:38
Библиотека кодирования : libebml v1.3.0 + libmatroska v1.4.1

Видео
Идентификатор : 1
Формат : AVC
Формат/Информация : Advanced Video Codec
Профиль формата : High@L3.1
Параметр CABAC формата : Да
Параметр ReFrames формата : 5 кадров
Идентификатор кодека : V_MPEG4/ISO/AVC
Продолжительность : 44 м.
Битрейт : 5593 Кбит/сек
Ширина : 1280 пикселей
Высота : 720 пикселей
Соотношение сторон : 16:9
Режим частоты кадров : Постоянный
Частота кадров : 23,976 кадра/сек
Цветовое пространство : YUV
Субдискретизация насыщенности : 4:2:0
Битовая глубина : 8 бит
Тип развёртки : Прогрессивная
Бит/(Пиксели*Кадры) : 0.253
Размер потока : 1,68 Гбайт (75%)
Заголовок : 18. $35K O.B.O.(Убийство ценой 35000 долларов)
Библиотека кодирования : x264 core 67 r1145 d2e1e1c
Настройки программы : cabac=1 / ref=5 / deblock=1:0:0 / analyse=0x3:0x113 / me=umh / subme=7 / psy_rd=1.0:0.0 / mixed_ref=1 / me_range=16 / chroma_me=1 / trellis=1 / 8x8dct=1 / cqm=0 / deadzone=21,11 / chroma_qp_offset=-2 / threads=12 / nr=0 / decimate=1 / mbaff=0 / bframes=3 / b_pyramid=1 / b_adapt=1 / b_bias=0 / direct=1 / wpredb=1 / keyint=250 / keyint_min=25 / scenecut=40 / rc=2pass / bitrate=5593 / ratetol=1.0 / qcomp=0.60 / qpmin=10 / qpmax=51 / qpstep=4 / cplxblur=20.0 / qblur=0.5 / ip_ratio=1.40 / pb_ratio=1.30 / aq=1:1.00
Язык : English
Default : Да
Forced : Нет

Аудио #1
Идентификатор : 2
Формат : AC-3
Формат/Информация : Audio Coding 3
Расширение режима : CM (complete main)
Параметр Endianness формата : Big
Идентификатор кодека : A_AC3
Продолжительность : 44 м.
Вид битрейта : Постоянный
Битрейт : 192 Кбит/сек
Каналы : 2 канала
Расположение каналов : Front: L R
Частота : 48,0 КГц
Битовая глубина : 16 бит
Метод сжатия : С потерями
Размер потока : 60,5 Мбайт (3%)
Заголовок : ДТВ
Язык : Russian
Default : Да
Forced : Да

Аудио #2
Идентификатор : 3
Формат : DTS
Формат/Информация : Digital Theater Systems
Режим : 16
Параметр Endianness формата : Big
Идентификатор кодека : A_DTS
Продолжительность : 44 м.
Вид битрейта : Постоянный
Битрейт : 1509 Кбит/сек
Каналы : 6 каналов
Расположение каналов : Front: L C R, Side: L R, LFE
Частота : 48,0 КГц
Битовая глубина : 24 бит
Метод сжатия : С потерями
Размер потока : 476 Мбайт (21%)
Заголовок : ENG DD5.1
Язык : English
Default : Нет
Forced : Нет
Общее
Уникальный идентификатор : 171476969631948546608141616470999935879 (0x81014357D08C1F939029B22CC30BAB87)
Полное имя : D:\UPLOADED\МОИ\CSI\CSI - Las-Vegas\S 01. CSI - Las-Vegas\19. Gentle, Gentle (Осторожнее, осторожнее).mkv
Формат : Matroska
Версия формата : Version 4 / Version 2
Размер файла : 2,25 Гбайт
Продолжительность : 45 м.
Общий поток : 7087 Кбит/сек
Название фильма : 19. Gentle, Gentle (Осторожнее, осторожнее)
Дата кодирования : UTC 2014-01-04 22:14:07
Программа кодирования : mkvmerge v6.3.0 ('You can't stop me!') built on Jul 19 2013 16:27:38
Библиотека кодирования : libebml v1.3.0 + libmatroska v1.4.1

Видео
Идентификатор : 1
Формат : AVC
Формат/Информация : Advanced Video Codec
Профиль формата : High@L3.1
Параметр CABAC формата : Да
Параметр ReFrames формата : 5 кадров
Идентификатор кодека : V_MPEG4/ISO/AVC
Продолжительность : 45 м.
Битрейт : 5384 Кбит/сек
Ширина : 1280 пикселей
Высота : 720 пикселей
Соотношение сторон : 16:9
Режим частоты кадров : Постоянный
Частота кадров : 23,976 кадра/сек
Цветовое пространство : YUV
Субдискретизация насыщенности : 4:2:0
Битовая глубина : 8 бит
Тип развёртки : Прогрессивная
Бит/(Пиксели*Кадры) : 0.244
Размер потока : 1,66 Гбайт (74%)
Заголовок : 19. Gentle, Gentle (Осторожнее, осторожнее)
Библиотека кодирования : x264 core 67 r1145 d2e1e1c
Настройки программы : cabac=1 / ref=5 / deblock=1:0:0 / analyse=0x3:0x113 / me=umh / subme=7 / psy_rd=1.0:0.0 / mixed_ref=1 / me_range=16 / chroma_me=1 / trellis=1 / 8x8dct=1 / cqm=0 / deadzone=21,11 / chroma_qp_offset=-2 / threads=12 / nr=0 / decimate=1 / mbaff=0 / bframes=3 / b_pyramid=1 / b_adapt=1 / b_bias=0 / direct=1 / wpredb=1 / keyint=250 / keyint_min=25 / scenecut=40 / rc=2pass / bitrate=5384 / ratetol=1.0 / qcomp=0.60 / qpmin=10 / qpmax=51 / qpstep=4 / cplxblur=20.0 / qblur=0.5 / ip_ratio=1.40 / pb_ratio=1.30 / aq=1:1.00
Язык : English
Default : Да
Forced : Нет

Аудио #1
Идентификатор : 2
Формат : AC-3
Формат/Информация : Audio Coding 3
Расширение режима : CM (complete main)
Параметр Endianness формата : Big
Идентификатор кодека : A_AC3
Продолжительность : 45 м.
Вид битрейта : Постоянный
Битрейт : 192 Кбит/сек
Каналы : 2 канала
Расположение каналов : Front: L R
Частота : 48,0 КГц
Битовая глубина : 16 бит
Метод сжатия : С потерями
Размер потока : 62,3 Мбайт (3%)
Заголовок : ДТВ
Язык : Russian
Default : Да
Forced : Да

Аудио #2
Идентификатор : 3
Формат : DTS
Формат/Информация : Digital Theater Systems
Режим : 16
Параметр Endianness формата : Big
Идентификатор кодека : A_DTS
Продолжительность : 45 м.
Вид битрейта : Постоянный
Битрейт : 1509 Кбит/сек
Каналы : 6 каналов
Расположение каналов : Front: L C R, Side: L R, LFE
Частота : 48,0 КГц
Битовая глубина : 24 бит
Метод сжатия : С потерями
Размер потока : 490 Мбайт (21%)
Заголовок : ENG DD5.1
Язык : English
Default : Нет
Forced : Нет
Общее
Уникальный идентификатор : 222907893121360193648459836964081697179 (0xA7B27FA593F78C91AF1C55982E6F019B)
Полное имя : D:\UPLOADED\МОИ\CSI\CSI - Las-Vegas\S 01. CSI - Las-Vegas\20. Sounds of Silence (Звук тишины).mkv
Формат : Matroska
Версия формата : Version 4 / Version 2
Размер файла : 2,25 Гбайт
Продолжительность : 45 м.
Общий поток : 7086 Кбит/сек
Название фильма : 20. Sounds of Silence (Звук тишины)
Дата кодирования : UTC 2014-01-04 22:16:52
Программа кодирования : mkvmerge v6.3.0 ('You can't stop me!') built on Jul 19 2013 16:27:38
Библиотека кодирования : libebml v1.3.0 + libmatroska v1.4.1

Видео
Идентификатор : 1
Формат : AVC
Формат/Информация : Advanced Video Codec
Профиль формата : High@L3.1
Параметр CABAC формата : Да
Параметр ReFrames формата : 5 кадров
Идентификатор кодека : V_MPEG4/ISO/AVC
Продолжительность : 45 м.
Битрейт : 5384 Кбит/сек
Ширина : 1280 пикселей
Высота : 720 пикселей
Соотношение сторон : 16:9
Режим частоты кадров : Постоянный
Частота кадров : 23,976 кадра/сек
Цветовое пространство : YUV
Субдискретизация насыщенности : 4:2:0
Битовая глубина : 8 бит
Тип развёртки : Прогрессивная
Бит/(Пиксели*Кадры) : 0.244
Размер потока : 1,66 Гбайт (74%)
Заголовок : 20. Sounds of Silence (Звук тишины)
Библиотека кодирования : x264 core 67 r1145 d2e1e1c
Настройки программы : cabac=1 / ref=5 / deblock=1:0:0 / analyse=0x3:0x113 / me=umh / subme=7 / psy_rd=1.0:0.0 / mixed_ref=1 / me_range=16 / chroma_me=1 / trellis=1 / 8x8dct=1 / cqm=0 / deadzone=21,11 / chroma_qp_offset=-2 / threads=6 / nr=0 / decimate=1 / mbaff=0 / bframes=3 / b_pyramid=1 / b_adapt=1 / b_bias=0 / direct=1 / wpredb=1 / keyint=250 / keyint_min=25 / scenecut=40 / rc=2pass / bitrate=5384 / ratetol=1.0 / qcomp=0.60 / qpmin=10 / qpmax=51 / qpstep=4 / cplxblur=20.0 / qblur=0.5 / ip_ratio=1.40 / pb_ratio=1.30 / aq=1:1.00
Язык : English
Default : Да
Forced : Нет

Аудио #1
Идентификатор : 2
Формат : AC-3
Формат/Информация : Audio Coding 3
Расширение режима : CM (complete main)
Параметр Endianness формата : Big
Идентификатор кодека : A_AC3
Продолжительность : 45 м.
Вид битрейта : Постоянный
Битрейт : 192 Кбит/сек
Каналы : 2 канала
Расположение каналов : Front: L R
Частота : 48,0 КГц
Битовая глубина : 16 бит
Метод сжатия : С потерями
Размер потока : 62,3 Мбайт (3%)
Заголовок : ДТВ
Язык : Russian
Default : Да
Forced : Да

Аудио #2
Идентификатор : 3
Формат : DTS
Формат/Информация : Digital Theater Systems
Режим : 16
Параметр Endianness формата : Big
Идентификатор кодека : A_DTS
Продолжительность : 45 м.
Вид битрейта : Постоянный
Битрейт : 1509 Кбит/сек
Каналы : 6 каналов
Расположение каналов : Front: L C R, Side: L R, LFE
Частота : 48,0 КГц
Битовая глубина : 24 бит
Метод сжатия : С потерями
Размер потока : 490 Мбайт (21%)
Заголовок : ENG DD5.1
Язык : English
Default : Нет
Forced : Нет
Общее
Уникальный идентификатор : 246272132397739848709553325372464739863 (0xB9464994B42EC7BDABCE1EB333ECB617)
Полное имя : D:\UPLOADED\МОИ\CSI\CSI - Las-Vegas\S 01. CSI - Las-Vegas\21. Justice Is Served (Справедливость восстановлена).mkv
Формат : Matroska
Версия формата : Version 4 / Version 2
Размер файла : 2,24 Гбайт
Продолжительность : 43 м.
Общий поток : 7377 Кбит/сек
Название фильма : 21. Justice Is Served (Справедливость восстановлена)
Дата кодирования : UTC 2014-01-04 22:23:21
Программа кодирования : mkvmerge v6.3.0 ('You can't stop me!') built on Jul 19 2013 16:27:38
Библиотека кодирования : libebml v1.3.0 + libmatroska v1.4.1

Видео
Идентификатор : 1
Формат : AVC
Формат/Информация : Advanced Video Codec
Профиль формата : High@L3.1
Параметр CABAC формата : Да
Параметр ReFrames формата : 5 кадров
Идентификатор кодека : V_MPEG4/ISO/AVC
Продолжительность : 43 м.
Битрейт : 5674 Кбит/сек
Ширина : 1280 пикселей
Высота : 720 пикселей
Соотношение сторон : 16:9
Режим частоты кадров : Постоянный
Частота кадров : 23,976 кадра/сек
Цветовое пространство : YUV
Субдискретизация насыщенности : 4:2:0
Битовая глубина : 8 бит
Тип развёртки : Прогрессивная
Бит/(Пиксели*Кадры) : 0.257
Размер потока : 1,68 Гбайт (75%)
Заголовок : 21. Justice Is Served (Справедливость восстановлена)
Библиотека кодирования : x264 core 67 r1145 d2e1e1c
Настройки программы : cabac=1 / ref=5 / deblock=1:0:0 / analyse=0x3:0x113 / me=umh / subme=7 / psy_rd=1.0:0.0 / mixed_ref=1 / me_range=16 / chroma_me=1 / trellis=1 / 8x8dct=1 / cqm=0 / deadzone=21,11 / chroma_qp_offset=-2 / threads=6 / nr=0 / decimate=1 / mbaff=0 / bframes=3 / b_pyramid=1 / b_adapt=1 / b_bias=0 / direct=1 / wpredb=1 / keyint=250 / keyint_min=25 / scenecut=40 / rc=2pass / bitrate=5674 / ratetol=1.0 / qcomp=0.60 / qpmin=10 / qpmax=51 / qpstep=4 / cplxblur=20.0 / qblur=0.5 / ip_ratio=1.40 / pb_ratio=1.30 / aq=1:1.00
Язык : English
Default : Да
Forced : Нет

Аудио #1
Идентификатор : 2
Формат : AC-3
Формат/Информация : Audio Coding 3
Расширение режима : CM (complete main)
Параметр Endianness формата : Big
Идентификатор кодека : A_AC3
Продолжительность : 43 м.
Вид битрейта : Постоянный
Битрейт : 192 Кбит/сек
Каналы : 2 канала
Расположение каналов : Front: L R
Частота : 48,0 КГц
Битовая глубина : 16 бит
Метод сжатия : С потерями
Размер потока : 59,8 Мбайт (3%)
Заголовок : ДТВ
Язык : Russian
Default : Да
Forced : Да

Аудио #2
Идентификатор : 3
Формат : DTS
Формат/Информация : Digital Theater Systems
Режим : 16
Параметр Endianness формата : Big
Идентификатор кодека : A_DTS
Продолжительность : 43 м.
Вид битрейта : Постоянный
Битрейт : 1509 Кбит/сек
Каналы : 6 каналов
Расположение каналов : Front: L C R, Side: L R, LFE
Частота : 48,0 КГц
Битовая глубина : 24 бит
Метод сжатия : С потерями
Размер потока : 470 Мбайт (20%)
Заголовок : ENG DD5.1
Язык : English
Default : Нет
Forced : Нет
Общее
Уникальный идентификатор : 186880353150081047809068510653452907769 (0x8C97D8C8DD2A2D18B18C3A0585C7F4F9)
Полное имя : D:\UPLOADED\МОИ\CSI\CSI - Las-Vegas\S 01. CSI - Las-Vegas\22. Evaluation Day (День тестирования).mkv
Формат : Matroska
Версия формата : Version 4 / Version 2
Размер файла : 2,25 Гбайт
Продолжительность : 44 м.
Общий поток : 7242 Кбит/сек
Название фильма : 22. Evaluation Day (День тестирования)
Дата кодирования : UTC 2014-01-04 22:26:13
Программа кодирования : mkvmerge v6.3.0 ('You can't stop me!') built on Jul 19 2013 16:27:38
Библиотека кодирования : libebml v1.3.0 + libmatroska v1.4.1

Видео
Идентификатор : 1
Формат : AVC
Формат/Информация : Advanced Video Codec
Профиль формата : High@L3.1
Параметр CABAC формата : Да
Параметр ReFrames формата : 5 кадров
Идентификатор кодека : V_MPEG4/ISO/AVC
Продолжительность : 44 м.
Битрейт : 5539 Кбит/сек
Ширина : 1280 пикселей
Высота : 720 пикселей
Соотношение сторон : 16:9
Режим частоты кадров : Постоянный
Частота кадров : 23,976 кадра/сек
Цветовое пространство : YUV
Субдискретизация насыщенности : 4:2:0
Битовая глубина : 8 бит
Тип развёртки : Прогрессивная
Бит/(Пиксели*Кадры) : 0.251
Размер потока : 1,67 Гбайт (75%)
Заголовок : 22. Evaluation Day (День тестирования)
Библиотека кодирования : x264 core 67 r1145 d2e1e1c
Настройки программы : cabac=1 / ref=5 / deblock=1:0:0 / analyse=0x3:0x113 / me=umh / subme=7 / psy_rd=1.0:0.0 / mixed_ref=1 / me_range=16 / chroma_me=1 / trellis=1 / 8x8dct=1 / cqm=0 / deadzone=21,11 / chroma_qp_offset=-2 / threads=6 / nr=0 / decimate=1 / mbaff=0 / bframes=3 / b_pyramid=1 / b_adapt=1 / b_bias=0 / direct=1 / wpredb=1 / keyint=250 / keyint_min=25 / scenecut=40 / rc=2pass / bitrate=5539 / ratetol=1.0 / qcomp=0.60 / qpmin=10 / qpmax=51 / qpstep=4 / cplxblur=20.0 / qblur=0.5 / ip_ratio=1.40 / pb_ratio=1.30 / aq=1:1.00
Язык : English
Default : Да
Forced : Нет

Аудио #1
Идентификатор : 2
Формат : AC-3
Формат/Информация : Audio Coding 3
Расширение режима : CM (complete main)
Параметр Endianness формата : Big
Идентификатор кодека : A_AC3
Продолжительность : 44 м.
Вид битрейта : Постоянный
Битрейт : 192 Кбит/сек
Каналы : 2 канала
Расположение каналов : Front: L R
Частота : 48,0 КГц
Битовая глубина : 16 бит
Метод сжатия : С потерями
Размер потока : 61,0 Мбайт (3%)
Заголовок : ДТВ
Язык : Russian
Default : Да
Forced : Да

Аудио #2
Идентификатор : 3
Формат : DTS
Формат/Информация : Digital Theater Systems
Режим : 16
Параметр Endianness формата : Big
Идентификатор кодека : A_DTS
Продолжительность : 44 м.
Вид битрейта : Постоянный
Битрейт : 1509 Кбит/сек
Каналы : 6 каналов
Расположение каналов : Front: L C R, Side: L R, LFE
Частота : 48,0 КГц
Битовая глубина : 24 бит
Метод сжатия : С потерями
Размер потока : 479 Мбайт (21%)
Заголовок : ENG DD5.1
Язык : English
Default : Нет
Forced : Нет
Общее
Уникальный идентификатор : 242828337898903831929845739287215134740 (0xB6AF09672C00DB5F80817555AD50D814)
Полное имя : D:\UPLOADED\МОИ\CSI\CSI - Las-Vegas\S 01. CSI - Las-Vegas\23. Strip Strangler (Удушитель).mkv
Формат : Matroska
Версия формата : Version 4 / Version 2
Размер файла : 2,25 Гбайт
Продолжительность : 45 м.
Общий поток : 7083 Кбит/сек
Название фильма : 23. Strip Strangler (Удушитель)
Дата кодирования : UTC 2014-01-04 22:29:14
Программа кодирования : mkvmerge v6.3.0 ('You can't stop me!') built on Jul 19 2013 16:27:38
Библиотека кодирования : libebml v1.3.0 + libmatroska v1.4.1

Видео
Идентификатор : 1
Формат : AVC
Формат/Информация : Advanced Video Codec
Профиль формата : High@L3.1
Параметр CABAC формата : Да
Параметр ReFrames формата : 5 кадров
Идентификатор кодека : V_MPEG4/ISO/AVC
Продолжительность : 45 м.
Битрейт : 5381 Кбит/сек
Ширина : 1280 пикселей
Высота : 720 пикселей
Соотношение сторон : 16:9
Режим частоты кадров : Постоянный
Частота кадров : 23,976 кадра/сек
Цветовое пространство : YUV
Субдискретизация насыщенности : 4:2:0
Битовая глубина : 8 бит
Тип развёртки : Прогрессивная
Бит/(Пиксели*Кадры) : 0.244
Размер потока : 1,66 Гбайт (74%)
Заголовок : 23. Strip Strangler (Удушитель)
Библиотека кодирования : x264 core 67 r1145 d2e1e1c
Настройки программы : cabac=1 / ref=5 / deblock=1:0:0 / analyse=0x3:0x113 / me=umh / subme=7 / psy_rd=1.0:0.0 / mixed_ref=1 / me_range=16 / chroma_me=1 / trellis=1 / 8x8dct=1 / cqm=0 / deadzone=21,11 / chroma_qp_offset=-2 / threads=6 / nr=0 / decimate=1 / mbaff=0 / bframes=3 / b_pyramid=1 / b_adapt=1 / b_bias=0 / direct=1 / wpredb=1 / keyint=250 / keyint_min=25 / scenecut=40 / rc=2pass / bitrate=5381 / ratetol=1.0 / qcomp=0.60 / qpmin=10 / qpmax=51 / qpstep=4 / cplxblur=20.0 / qblur=0.5 / ip_ratio=1.40 / pb_ratio=1.30 / aq=1:1.00
Язык : English
Default : Да
Forced : Нет

Аудио #1
Идентификатор : 2
Формат : AC-3
Формат/Информация : Audio Coding 3
Расширение режима : CM (complete main)
Параметр Endianness формата : Big
Идентификатор кодека : A_AC3
Продолжительность : 45 м.
Вид битрейта : Постоянный
Битрейт : 192 Кбит/сек
Каналы : 2 канала
Расположение каналов : Front: L R
Частота : 48,0 КГц
Битовая глубина : 16 бит
Метод сжатия : С потерями
Размер потока : 62,4 Мбайт (3%)
Заголовок : ДТВ
Язык : Russian
Default : Да
Forced : Да

Аудио #2
Идентификатор : 3
Формат : DTS
Формат/Информация : Digital Theater Systems
Режим : 16
Параметр Endianness формата : Big
Идентификатор кодека : A_DTS
Продолжительность : 45 м.
Вид битрейта : Постоянный
Битрейт : 1509 Кбит/сек
Каналы : 6 каналов
Расположение каналов : Front: L C R, Side: L R, LFE
Частота : 48,0 КГц
Битовая глубина : 24 бит
Метод сжатия : С потерями
Размер потока : 490 Мбайт (21%)
Заголовок : ENG DD5.1
Язык : English
Default : Нет
Forced : Нет

01. Pilot (Пилот)
02. Cool Change (Крутая перемена)
03. Crate 'n Burial (Похороненная в ящике)
04. Pledging Mr. Johnson (Обязательный мистер Джонсон)
05. Friends & Lovers (Друзья и любовники)
06. Who Are You? (Кто ты?)
07. Blood Drops (Капли крови)
08. Anonymous (Аноним)
09. Unfriendly Skies (Враждебные небеса)
10. Sex, Lies and Larvae (Секс, ложь и личинки)
11. I-15 Murders (Убийства на автостраде I-15)
12. Fahrenheit 932 (932 градуса по Фаренгейту)
13. Boom (Взрыв)
14. To Halve and to Hold (Уменьшить и сохранить)
15. Table Stakes (Сходство улик)
16. Too Tough to Die (Слишком тяжело умереть)
17. Face Lift (Раздвоение личности)
18. $35K O.B.O.(Убийство ценой 35000 долларов)
19. Gentle, Gentle (Осторожнее, осторожнее)
20. Sounds of Silence (Звук тишины)
21. Justice Is Served (Справедливость восстановлена)
22. Evaluation Day (День тестирования)
23. Strip Strangler (Удушитель)

Золотой глобус, 2001 год - Лучший драматический сериал, лучшая женская роль в драматическом сериале (Марж Хелгенбергер)
Золотой глобус, 2002 год - Лучший драматический сериал, лучшая женская роль на ТВ (Марж Хелгенбергер)
Золотой глобус, 2003 год - Лучшая женская роль на ТВ (Марж Хелгенбергер)
Эмми, 2004 год - Лучший драматический сериал
Золотой глобус, 2004 год - лучшая мужская роль (Уильям Л. Питерсен), лучший драматический сериал
Сатурн, 2005 год - лучший телесериал, созданный для телетрансляции
Сериал спародирован в:
1. Ангелы Чарли 2: Только вперед, 2003 (Charlie's Angels: Full Throttle)
2. CSI: Iowa, 2005
3. SSI: Sex Squad Investigation (видео), 2006
4. Американский выскочка, 2008 (An American Carol)
5. Hollywood's Nailin' Palin (видео), 2010
Уильям Петерсен (Гил Гриссом) работает в сериале по контракту «pay or play», показывающему, в общих словах, его незаменимость для проекта. Такой тип контрактов означает, что актёр получает деньги в любом случае — снимается он или нет. На нынешний момент Петерсен отсутствовал только в пяти эпизодах сериала, четыре из которых он пропустил по личным причинам.
Квентин Тарантино, режиссёр «Криминального чтива», снял два завершающих эпизода (24 и 25) 5 сезона сериала. Это произошло после того, как режиссёр признался в том, что он большой поклонник CSI и хотел бы сам снять «парочку серий» для него, а продюсеры ухватились за эту возможность и довели её до конца. Эпизоды, снятые Тарантино, безусловно выделяются из общего стиля сериала, и были выпущены в США на DVD в виде отдельного издания.
В каждом эпизоде сериала обязательно появляется несколько персонажей «на один эпизод», связанных с каким-то расследуемым преступлением. Некоторые из таких «одноэпизодных» актёров стали впоследствии звёздами в других сериалах. Например, это звезды сериала «Остаться в живых» — Джош Холлоуэй (Сойер), Дэниел Дэй Ким (Джин), Гарольд Перрино-мл. (Майкл), Иэн Сомерхолдер (Бун), Элизабет Митчелл (Джульет), Уильям Мапотер (Итан), Фредрик Лене (Маршал Эдвардс Марс), Кевин Дюранд (Мартин Кими). Также, в одном эпизоде CSI снималась звезда «Отчаянных домохозяек» Марсия Кросс (Бри Ван Де Камп). Ещё в одном эпизоде CSI играли: Майло Вентимилья — Питер Петрелли в сериале «Герои», Миша Коллинз — Кастиэль в сериале Сверхъестественное, Аманда Сейфрид Софи в «Мама Mia», любимец девушек Чад Майкл Мюррей, и юная звезда «Новолуния» Дакота Фаннинг. Так же в четырёх эпизодах вместо отсутствующего Уильяма Петерсена был введён персонаж Майкл Кепплер в исполнении Льва Шрайбера, а в пяти эпизодах появлялась Кей Панабэйкер, играющая Линдси Виллоу вместо Мэдисон МакРейнолдс. Так же звёздами эпизода были: Тейлор Свифт, Каризма Карпентер, Марк Дакаскос, Джастин Бибер
Сериал стал одной из главных причин возникновения так называемого «эффекта CSI», под которым понимают повышение общего уровня представлений о методах расследования преступлений, как у их жертв, так и у присяжных, рассматривающих дела в судах. «Эффект CSI» в целом повлиял на более критичную оценку доказательств, представляемых прокурорами на процессах, из-за чего последние стали предоставлять большее количество вещественных доказательств, в особенности тестов ДНК.
Хотя в целом сериал демонстрирует превосходство криминалистов над преступниками и трагическими обстоятельствами, в некоторых эпизодах показываются случаи когда закон и детективы бессильны и не способны наказать или даже найти преступника. Так, поиски «Миниатюриста» (вымышленного серийного убийцы, приносившего на места преступлений их миниатюрные модели со сценой убийства), длились весь 7 сезон и чуть не стоили жизни одному из криминалистов — Саре Сайдл. Косметолог, сделавший двум пациенткам смертельные внутривенные инъекции перекиси водорода, не был обвинён в уголовном преступлении, однако данные о его проступке были переданы семьям погибших для гражданского иска. Владелец казино, обвинявшийся в убийстве девушки, с помощью адвокатов и интриг был оправдан судом, несмотря на все усилия полицейских и криминалистов доказать его вину.
Несмотря на географическую привязанность к Лас-Вегасу, сериал в основном снимается в Калифорнии. В Лас-Вегасе работает только дополнительная съёмочная группа, которая по необходимости делает общие съёмки города. Первые пять сезонов снимались в городе Санта-Кларита, а с шестого — в Юниверсал Сити, городе расположенном на земле принадлежащей Universal Studios. Санта-Кларита была выбрана из-за своей похожести на окрестности настоящего Лас-Вегаса, причём все съёмки «вне помещений» до сих пор производятся там. При необходимости, однако, съёмочная группа и актёры выезжают в Лас-Вегас.
Отличительной особенностью сериала от реальной работы сотрудников криминалистических лабораторий является значительное отступление от процедуры полицейского расследования. В реальной жизни, преступления расследуют полицейские детективы, тогда как в сериале этим в основном занимаются сотрудники CSI, на самом деле не имеющие на это права. Случаи, когда полицейский детектив одновременно является и сотрудником криминалистической лаборатории, чрезвычайно редки.
Представители LGBT (сексуальных меньшинств) часто критикуют сериал за своё негативное представление, так как во многих сериях преступники или подозреваемые относятся к этим меньшинствам. С другой стороны, в сериале часто встречаются персонажи второго плана, которые относятся к LGBT, но показываются либо положительно, либо нейтрально, либо как жертвы преступлений из-за своего образа жизни.
В 9 сезоне главный герой сериала Гил Гриссом (Уильям Петерсен) уходит из шоу и актёр Лоуренс Фишборн начинает играть на постоянной основе. Однако, Гриссом появляется в одном из эпизодов 11 сезона...
jasinpapa
P.S. Большая просьба к скачавшим имеющим широкие каналы и объёмные винчестеры не уходить с раздачи как можно дольше!!!

Продолжительность: ~00:45:00 серия
Качество видео: BDRip 720p
Формат: MKV
Видеокодек: H.264
Битрейт видео: ~5600 Кбит/сек
Размер кадра: 1280x720 (16:9), 23,976 fps, h.264, ~ 5600 Kbps avg
Аудиокодек: AC3
Битрейт аудио:
аудио rus: AC-3 at 192 Kbps 2 channels, 48.0 KHz, Профессиональный многоголосый - ДТВ
аудио eng: DTS at ~1510 Kbps 6 channels, 48.0 KHz, оригинальная дорожка
Место преступления: Лас-Вегас / CSI: Crime Scene Investigation все раздачи сериала

Скриншоты:

Время Раздачи: 24/7 - круглосуточно до 5 скачавших
[NNM-Club.me]_S 01. CSI - Las-Vegas.torrent
 Торрент: Платиновая раздача  Зарегистрирован
 
Скачать


Примагнититься
 Зарегистрирован:   17 Янв 2014 17:35:28
 Размер:   51,7 GB  (
 Рейтинг:   4,7 (Голосов: 46)
 Поблагодарили:   157
 Проверка:   Оформление проверено модератором 18 Янв 2014 00:53:21
Как cкачать  ·  Как раздать  ·  Правильно оформить  ·  Поднять ратио!  

_________________
На первом месте у меня семья и дети, а хобби =>Мои РЕЛИЗЫ <= в свободное от них время
WOLF 80 ®
Uploader 100+
Стаж: 10 лет 2 мес.
Сообщений: 480
Ratio: 3902,785
Раздал: 156,9 TB
Поблагодарили: 30370
100%
Откуда: Санкт-Петербург
russia.gif
ТЫСЯЧУ ИЗВИНЕНИЙ!!!! В 8 серии изменилась русская дорожка (была случайно прикручена от 9 серии). ПЕРЕКАЧАЙТЕ ТОРРРЕНТ!!!

_________________
На первом месте у меня семья и дети, а хобби =>Мои РЕЛИЗЫ <= в свободное от них время
valyabogdan
Стаж: 8 лет 5 мес.
Сообщений: 3
Ratio: 3,348
0%
Дайте скорости пожалуйста
olegk181
Стаж: 8 лет 5 мес.
Сообщений: 33
Ratio: 46,365
100%
Откуда: Internet
valyabogdan писал(а): Перейти к сообщению
Дайте скорости пожалуйста

Поддерживаю.
ZulGami
Стаж: 8 лет 8 мес.
Сообщений: 4
Ratio: 24,751
100%
Откуда: Saint.P
russia.gif
Спасибо огромное, качаю и остаюсь на раздаче!

_________________
Показать сообщения:   
Начать новую тему   Ответить на тему    Торрент-трекер NNM-Club -> Зарубежные сериалы -> Место преступления / CSI Часовой пояс: GMT + 3
Страница 1 из 1