Классический форум-трекер
canvas not supported
Нас вместе: 4 077 966

C.S.I. Место преступления: Лас-Вегас / CSI: Crime Scene Investigation: Las Vegas (2001-2002) [720p] WEB-DL (сезон 2, серии 1-23 из 23) ДТВ


 
 
RSS
Начать новую тему   Ответить на тему    Торрент-трекер NNM-Club -> Зарубежные сериалы -> Место преступления / CSI
Автор Сообщение
WOLF 80 ®
Uploader 100+
Стаж: 10 лет 1 мес.
Сообщений: 480
Ratio: 3902,785
Раздал: 156,9 TB
Поблагодарили: 30310
100%
Откуда: Санкт-Петербург
russia.gif
C.S.I. Место преступления: Лас-Вегас /
CSI: Crime Scene Investigation: Las Vegas

«Как следует подготовься к сезону убийств»
Год выпуска: 2001-2002
Жанр: Детектив, триллер, драма, криминал

Перевод: Профессиональный многоголосый закадровый - ДТВ


Дата мировой премьеры: с 27.09.2001 по 16.05.2002

Режиссер: Кеннет Финк, Ричард Дж. Льюис, Алек Смайт
Актеры: Уильям Л. Питерсен (Gil Grissom), Марж Хелгенбергер (Catherine Willows), Джордж Идс (Nick Stokes), Гари Дурдан (Warrick Brown), Джоржа Фокс (Sara Sidle), Пол Гилфойл (Captain Jim Brass), Эрик Шманда (Greg Sanders), Роберт Дэвид Холл (Dr. Al Robbins), Дэвид Берман (David Phillips), Уоллес Лэнгэм (David Hodges), Арчи Као (Archie Johnson), Лиз Вэсси (Wendy Simms)

Описание фильма: Лас-Вегас… Своими яркими неоновыми огнями, сотнями игровых клубов и казино он манит всё новых и новых людей. Но далеко не все из них оказываются добропорядочными гражданами. В огромном людском потоке частенько прячутся преступники всех мастей. Они убеждены, что их злодеяния останутся незамеченными. Но они сильно ошибаются, ведь в городе работает неутомимая команда полиции C.S.I. Когда следствие заходит в тупик, в игру вступает группа супер профессиональных криминалистов во главе с капитаном Гриссомом. В культовом сериале, лауреате престижных американских премий «Эмми» и «Золотой глобус», столь полюбившиеся зрителям члены команды криминалистической лаборатории C.S.I. продолжат самоотверженно распутывать казалось бы безнадёжные случаи и с честью выходить из самых сложных ситуаций. Героям сериала при помощи новейших научных и технических разработок предстоит расследовать череду загадочных убийств, похищений и даже ритуальных жертвоприношений. Для них нет ничего невозможного. В городе разбитых надежд и несбывшихся мечтаний они найдут ключи к тайнам самых загадочных преступлений. И тогда всё тайное станет явным.
1 СЕЗОН BDRip 720p
3 СЕЗОН WEB-DL 720p
4 СЕЗОН WEB-DL 720p
5 СЕЗОН WEB-DL 720p
6 СЕЗОН WEB-DL 720p
7 СЕЗОН WEB-DL 720p
8 СЕЗОН BDRip 720p
9 СЕЗОН BDRip 720p
10 СЕЗОН WEB-DL 720p

Общее
Уникальный идентификатор : 243249848530868727056085639085006758708 (0xB700377B4F9B3153B91AA92F52F7A334)
Полное имя : D:\UPLOADED\МОИ\CSI\CSI - Las-Vegas\S 02. CSI - Las-Vegas\01. Burked (Неувязка).mkv
Формат : Matroska
Версия формата : Version 4 / Version 2
Размер файла : 1,45 Гбайт
Продолжительность : 44 м.
Общий поток : 4688 Кбит/сек
Название фильма : 01. Burked (Неувязка)
Дата кодирования : UTC 2013-12-31 17:42:57
Программа кодирования : mkvmerge v6.3.0 ('You can't stop me!') built on Jul 19 2013 16:27:38
Библиотека кодирования : libebml v1.3.0 + libmatroska v1.4.1

Видео
Идентификатор : 1
Формат : AVC
Формат/Информация : Advanced Video Codec
Профиль формата : High@L3.1
Параметр CABAC формата : Нет
Параметр ReFrames формата : 2 кадра
Идентификатор кодека : V_MPEG4/ISO/AVC
Продолжительность : 44 м.
Битрейт : 4019 Кбит/сек
Ширина : 1280 пикселей
Высота : 720 пикселей
Соотношение сторон : 16:9
Режим частоты кадров : Постоянный
Частота кадров : 23,976 кадра/сек
Цветовое пространство : YUV
Субдискретизация насыщенности : 4:2:0
Битовая глубина : 8 бит
Тип развёртки : Прогрессивная
Бит/(Пиксели*Кадры) : 0.182
Размер потока : 1,24 Гбайт (86%)
Заголовок : 01. Burked (Неувязка)
Язык : English
Default : Да
Forced : Нет
Основные цвета : BT.709
Характеристики трансфера : BT.709
Коэффициенты матрицы : BT.709

Аудио #1
Идентификатор : 2
Формат : AC-3
Формат/Информация : Audio Coding 3
Расширение режима : CM (complete main)
Параметр Endianness формата : Big
Идентификатор кодека : A_AC3
Продолжительность : 44 м.
Вид битрейта : Постоянный
Битрейт : 192 Кбит/сек
Каналы : 2 канала
Расположение каналов : Front: L R
Частота : 48,0 КГц
Битовая глубина : 16 бит
Метод сжатия : С потерями
Размер потока : 60,8 Мбайт (4%)
Заголовок : ДТВ
Язык : Russian
Default : Да
Forced : Да

Аудио #2
Идентификатор : 3
Формат : AC-3
Формат/Информация : Audio Coding 3
Расширение режима : CM (complete main)
Параметр Endianness формата : Big
Идентификатор кодека : A_AC3
Продолжительность : 44 м.
Вид битрейта : Постоянный
Битрейт : 384 Кбит/сек
Каналы : 6 каналов
Расположение каналов : Front: L C R, Side: L R, LFE
Частота : 48,0 КГц
Битовая глубина : 16 бит
Метод сжатия : С потерями
Размер потока : 122 Мбайт (8%)
Заголовок : ENG DD5.1
Язык : English
Default : Нет
Forced : Нет
Общее
Уникальный идентификатор : 225409756232330056697211252608567601358 (0xA99457058DA76C82911630DF0FCFE8CE)
Полное имя : D:\UPLOADED\МОИ\CSI\CSI - Las-Vegas\S 02. CSI - Las-Vegas\02. Chaos Theory (Теория хаоса).mkv
Формат : Matroska
Версия формата : Version 4 / Version 2
Размер файла : 1,43 Гбайт
Продолжительность : 43 м.
Общий поток : 4673 Кбит/сек
Название фильма : 02. Chaos Theory (Теория хаоса)
Дата кодирования : UTC 2013-12-31 17:47:39
Программа кодирования : mkvmerge v6.3.0 ('You can't stop me!') built on Jul 19 2013 16:27:38
Библиотека кодирования : libebml v1.3.0 + libmatroska v1.4.1

Видео
Идентификатор : 1
Формат : AVC
Формат/Информация : Advanced Video Codec
Профиль формата : High@L3.1
Параметр CABAC формата : Нет
Параметр ReFrames формата : 2 кадра
Идентификатор кодека : V_MPEG4/ISO/AVC
Продолжительность : 43 м.
Битрейт : 4004 Кбит/сек
Ширина : 1280 пикселей
Высота : 720 пикселей
Соотношение сторон : 16:9
Режим частоты кадров : Постоянный
Частота кадров : 23,976 кадра/сек
Цветовое пространство : YUV
Субдискретизация насыщенности : 4:2:0
Битовая глубина : 8 бит
Тип развёртки : Прогрессивная
Бит/(Пиксели*Кадры) : 0.181
Размер потока : 1,23 Гбайт (86%)
Заголовок : 02. Chaos Theory (Теория хаоса)
Язык : English
Default : Да
Forced : Нет
Основные цвета : BT.709
Характеристики трансфера : BT.709
Коэффициенты матрицы : BT.709

Аудио #1
Идентификатор : 2
Формат : AC-3
Формат/Информация : Audio Coding 3
Расширение режима : CM (complete main)
Параметр Endianness формата : Big
Идентификатор кодека : A_AC3
Продолжительность : 43 м.
Вид битрейта : Постоянный
Битрейт : 192 Кбит/сек
Каналы : 2 канала
Расположение каналов : Front: L R
Частота : 48,0 КГц
Битовая глубина : 16 бит
Метод сжатия : С потерями
Размер потока : 60,3 Мбайт (4%)
Заголовок : ДТВ
Язык : Russian
Default : Да
Forced : Да

Аудио #2
Идентификатор : 3
Формат : AC-3
Формат/Информация : Audio Coding 3
Расширение режима : CM (complete main)
Параметр Endianness формата : Big
Идентификатор кодека : A_AC3
Продолжительность : 43 м.
Вид битрейта : Постоянный
Битрейт : 384 Кбит/сек
Каналы : 6 каналов
Расположение каналов : Front: L C R, Side: L R, LFE
Частота : 48,0 КГц
Битовая глубина : 16 бит
Метод сжатия : С потерями
Размер потока : 121 Мбайт (8%)
Заголовок : ENG DD5.1
Язык : English
Default : Нет
Forced : Нет
Общее
Уникальный идентификатор : 190456622902531965639592443242802595803 (0x8F489C7F2BF164198E980BA2739047DB)
Полное имя : D:\UPLOADED\МОИ\CSI\CSI - Las-Vegas\S 02. CSI - Las-Vegas\03. Overload (Перегрузка).mkv
Формат : Matroska
Версия формата : Version 4 / Version 2
Размер файла : 1,44 Гбайт
Продолжительность : 44 м.
Общий поток : 4670 Кбит/сек
Название фильма : 03. Overload (Перегрузка)
Дата кодирования : UTC 2013-12-31 17:51:07
Программа кодирования : mkvmerge v6.3.0 ('You can't stop me!') built on Jul 19 2013 16:27:38
Библиотека кодирования : libebml v1.3.0 + libmatroska v1.4.1

Видео
Идентификатор : 1
Формат : AVC
Формат/Информация : Advanced Video Codec
Профиль формата : High@L3.1
Параметр CABAC формата : Нет
Параметр ReFrames формата : 2 кадра
Идентификатор кодека : V_MPEG4/ISO/AVC
Продолжительность : 44 м.
Битрейт : 4001 Кбит/сек
Ширина : 1280 пикселей
Высота : 720 пикселей
Соотношение сторон : 16:9
Режим частоты кадров : Постоянный
Частота кадров : 23,976 кадра/сек
Цветовое пространство : YUV
Субдискретизация насыщенности : 4:2:0
Битовая глубина : 8 бит
Тип развёртки : Прогрессивная
Бит/(Пиксели*Кадры) : 0.181
Размер потока : 1,23 Гбайт (86%)
Заголовок : 03. Overload (Перегрузка)
Язык : English
Default : Да
Forced : Нет
Основные цвета : BT.709
Характеристики трансфера : BT.709
Коэффициенты матрицы : BT.709

Аудио #1
Идентификатор : 2
Формат : AC-3
Формат/Информация : Audio Coding 3
Расширение режима : CM (complete main)
Параметр Endianness формата : Big
Идентификатор кодека : A_AC3
Продолжительность : 44 м.
Вид битрейта : Постоянный
Битрейт : 192 Кбит/сек
Каналы : 2 канала
Расположение каналов : Front: L R
Частота : 48,0 КГц
Битовая глубина : 16 бит
Метод сжатия : С потерями
Размер потока : 60,6 Мбайт (4%)
Заголовок : ДТВ
Язык : Russian
Default : Да
Forced : Да

Аудио #2
Идентификатор : 3
Формат : AC-3
Формат/Информация : Audio Coding 3
Расширение режима : CM (complete main)
Параметр Endianness формата : Big
Идентификатор кодека : A_AC3
Продолжительность : 44 м.
Вид битрейта : Постоянный
Битрейт : 384 Кбит/сек
Каналы : 6 каналов
Расположение каналов : Front: L C R, Side: L R, LFE
Частота : 48,0 КГц
Битовая глубина : 16 бит
Метод сжатия : С потерями
Размер потока : 121 Мбайт (8%)
Заголовок : ENG DD5.1
Язык : English
Default : Нет
Forced : Нет
Общее
Уникальный идентификатор : 254117858584845392017095352293691117194 (0xBF2D51BF4C0C12E2A09BC32D199E4E8A)
Полное имя : D:\UPLOADED\МОИ\CSI\CSI - Las-Vegas\S 02. CSI - Las-Vegas\04. Bully for You (Хулиган).mkv
Формат : Matroska
Версия формата : Version 4 / Version 2
Размер файла : 1,41 Гбайт
Продолжительность : 43 м.
Общий поток : 4674 Кбит/сек
Название фильма : 04. Bully for You (Хулиган)
Дата кодирования : UTC 2013-12-31 18:04:08
Программа кодирования : mkvmerge v6.3.0 ('You can't stop me!') built on Jul 19 2013 16:27:38
Библиотека кодирования : libebml v1.3.0 + libmatroska v1.4.1

Видео
Идентификатор : 1
Формат : AVC
Формат/Информация : Advanced Video Codec
Профиль формата : High@L3.1
Параметр CABAC формата : Нет
Параметр ReFrames формата : 2 кадра
Идентификатор кодека : V_MPEG4/ISO/AVC
Продолжительность : 43 м.
Битрейт : 4005 Кбит/сек
Ширина : 1280 пикселей
Высота : 720 пикселей
Соотношение сторон : 16:9
Режим частоты кадров : Постоянный
Частота кадров : 23,976 кадра/сек
Цветовое пространство : YUV
Субдискретизация насыщенности : 4:2:0
Битовая глубина : 8 бит
Тип развёртки : Прогрессивная
Бит/(Пиксели*Кадры) : 0.181
Размер потока : 1,21 Гбайт (86%)
Заголовок : 04. Bully for You (Хулиган)
Язык : English
Default : Да
Forced : Нет
Основные цвета : BT.709
Характеристики трансфера : BT.709
Коэффициенты матрицы : BT.709

Аудио #1
Идентификатор : 2
Формат : AC-3
Формат/Информация : Audio Coding 3
Расширение режима : CM (complete main)
Параметр Endianness формата : Big
Идентификатор кодека : A_AC3
Продолжительность : 43 м.
Вид битрейта : Постоянный
Битрейт : 192 Кбит/сек
Каналы : 2 канала
Расположение каналов : Front: L R
Частота : 48,0 КГц
Битовая глубина : 16 бит
Метод сжатия : С потерями
Размер потока : 59,3 Мбайт (4%)
Заголовок : ДТВ
Язык : Russian
Default : Да
Forced : Да

Аудио #2
Идентификатор : 3
Формат : AC-3
Формат/Информация : Audio Coding 3
Расширение режима : CM (complete main)
Параметр Endianness формата : Big
Идентификатор кодека : A_AC3
Продолжительность : 43 м.
Вид битрейта : Постоянный
Битрейт : 384 Кбит/сек
Каналы : 6 каналов
Расположение каналов : Front: L C R, Side: L R, LFE
Частота : 48,0 КГц
Битовая глубина : 16 бит
Метод сжатия : С потерями
Размер потока : 119 Мбайт (8%)
Заголовок : ENG DD5.1
Язык : English
Default : Нет
Forced : Нет
Общее
Уникальный идентификатор : 253741882484884323412925481084758948860 (0xBEE4E8B1C08CFA8AA486C17704367BFC)
Полное имя : D:\UPLOADED\МОИ\CSI\CSI - Las-Vegas\S 02. CSI - Las-Vegas\05. Scuba Doobie-Doo (Скуба Дуби-Ду).mkv
Формат : Matroska
Версия формата : Version 4 / Version 2
Размер файла : 1,35 Гбайт
Продолжительность : 42 м.
Общий поток : 4526 Кбит/сек
Название фильма : 05. Scuba Doobie-Doo (Скуба Дуби-Ду)
Дата кодирования : UTC 2013-12-31 18:08:18
Программа кодирования : mkvmerge v6.3.0 ('You can't stop me!') built on Jul 19 2013 16:27:38
Библиотека кодирования : libebml v1.3.0 + libmatroska v1.4.1

Видео
Идентификатор : 1
Формат : AVC
Формат/Информация : Advanced Video Codec
Профиль формата : High@L3.1
Параметр CABAC формата : Нет
Параметр ReFrames формата : 2 кадра
Идентификатор кодека : V_MPEG4/ISO/AVC
Продолжительность : 42 м.
Битрейт : 3860 Кбит/сек
Ширина : 1280 пикселей
Высота : 720 пикселей
Соотношение сторон : 16:9
Режим частоты кадров : Постоянный
Частота кадров : 23,976 кадра/сек
Цветовое пространство : YUV
Субдискретизация насыщенности : 4:2:0
Битовая глубина : 8 бит
Тип развёртки : Прогрессивная
Бит/(Пиксели*Кадры) : 0.175
Размер потока : 1,15 Гбайт (85%)
Заголовок : 05. Scuba Doobie-Doo (Скуба Дуби-Ду)
Язык : English
Default : Да
Forced : Нет
Основные цвета : BT.709
Характеристики трансфера : BT.709
Коэффициенты матрицы : BT.709

Аудио #1
Идентификатор : 2
Формат : AC-3
Формат/Информация : Audio Coding 3
Расширение режима : CM (complete main)
Параметр Endianness формата : Big
Идентификатор кодека : A_AC3
Продолжительность : 42 м.
Вид битрейта : Постоянный
Битрейт : 192 Кбит/сек
Каналы : 2 канала
Расположение каналов : Front: L R
Частота : 48,0 КГц
Битовая глубина : 16 бит
Метод сжатия : С потерями
Размер потока : 58,5 Мбайт (4%)
Заголовок : ДТВ
Язык : Russian
Default : Да
Forced : Да

Аудио #2
Идентификатор : 3
Формат : AC-3
Формат/Информация : Audio Coding 3
Расширение режима : CM (complete main)
Параметр Endianness формата : Big
Идентификатор кодека : A_AC3
Продолжительность : 42 м.
Вид битрейта : Постоянный
Битрейт : 384 Кбит/сек
Каналы : 6 каналов
Расположение каналов : Front: L C R, Side: L R, LFE
Частота : 48,0 КГц
Битовая глубина : 16 бит
Метод сжатия : С потерями
Размер потока : 117 Мбайт (8%)
Заголовок : ENG DD5.1
Язык : English
Default : Нет
Forced : Нет
Общее
Уникальный идентификатор : 183368663620678344579468118007584744908 (0x89F3851F914ECB6B9D3CDE65C73965CC)
Полное имя : D:\UPLOADED\МОИ\CSI\CSI - Las-Vegas\S 02. CSI - Las-Vegas\06. Alter Boys (Другие парни).mkv
Формат : Matroska
Версия формата : Version 4 / Version 2
Размер файла : 1,47 Гбайт
Продолжительность : 44 м.
Общий поток : 4702 Кбит/сек
Название фильма : 06. Alter Boys (Другие парни)
Дата кодирования : UTC 2013-12-31 18:14:48
Программа кодирования : mkvmerge v6.3.0 ('You can't stop me!') built on Jul 19 2013 16:27:38
Библиотека кодирования : libebml v1.3.0 + libmatroska v1.4.1

Видео
Идентификатор : 1
Формат : AVC
Формат/Информация : Advanced Video Codec
Профиль формата : High@L3.1
Параметр CABAC формата : Нет
Параметр ReFrames формата : 2 кадра
Идентификатор кодека : V_MPEG4/ISO/AVC
Продолжительность : 44 м.
Битрейт : 4033 Кбит/сек
Ширина : 1280 пикселей
Высота : 720 пикселей
Соотношение сторон : 16:9
Режим частоты кадров : Постоянный
Частота кадров : 23,976 кадра/сек
Цветовое пространство : YUV
Субдискретизация насыщенности : 4:2:0
Битовая глубина : 8 бит
Тип развёртки : Прогрессивная
Бит/(Пиксели*Кадры) : 0.183
Размер потока : 1,26 Гбайт (86%)
Заголовок : 06. Alter Boys (Другие парни)
Язык : English
Default : Да
Forced : Нет
Основные цвета : BT.709
Характеристики трансфера : BT.709
Коэффициенты матрицы : BT.709

Аудио #1
Идентификатор : 2
Формат : AC-3
Формат/Информация : Audio Coding 3
Расширение режима : CM (complete main)
Параметр Endianness формата : Big
Идентификатор кодека : A_AC3
Продолжительность : 44 м.
Вид битрейта : Постоянный
Битрейт : 192 Кбит/сек
Каналы : 2 канала
Расположение каналов : Front: L R
Частота : 48,0 КГц
Битовая глубина : 16 бит
Метод сжатия : С потерями
Размер потока : 61,4 Мбайт (4%)
Заголовок : ДТВ
Язык : Russian
Default : Да
Forced : Да

Аудио #2
Идентификатор : 3
Формат : AC-3
Формат/Информация : Audio Coding 3
Расширение режима : CM (complete main)
Параметр Endianness формата : Big
Идентификатор кодека : A_AC3
Продолжительность : 44 м.
Вид битрейта : Постоянный
Битрейт : 384 Кбит/сек
Каналы : 6 каналов
Расположение каналов : Front: L C R, Side: L R, LFE
Частота : 48,0 КГц
Битовая глубина : 16 бит
Метод сжатия : С потерями
Размер потока : 123 Мбайт (8%)
Заголовок : ENG DD5.1
Язык : English
Default : Нет
Forced : Нет
Общее
Уникальный идентификатор : 188700466783430891621769438303373545804 (0x8DF66350ADB09DE58AE3DE78D79CD14C)
Полное имя : D:\UPLOADED\МОИ\CSI\CSI - Las-Vegas\S 02. CSI - Las-Vegas\07. Caged (В ловушке).mkv
Формат : Matroska
Версия формата : Version 4 / Version 2
Размер файла : 1,46 Гбайт
Продолжительность : 44 м.
Общий поток : 4693 Кбит/сек
Название фильма : 07. Caged (В ловушке)
Дата кодирования : UTC 2013-12-31 18:18:51
Программа кодирования : mkvmerge v6.3.0 ('You can't stop me!') built on Jul 19 2013 16:27:38
Библиотека кодирования : libebml v1.3.0 + libmatroska v1.4.1

Видео
Идентификатор : 1
Формат : AVC
Формат/Информация : Advanced Video Codec
Профиль формата : High@L3.1
Параметр CABAC формата : Нет
Параметр ReFrames формата : 2 кадра
Идентификатор кодека : V_MPEG4/ISO/AVC
Продолжительность : 44 м.
Битрейт : 4024 Кбит/сек
Ширина : 1280 пикселей
Высота : 720 пикселей
Соотношение сторон : 16:9
Режим частоты кадров : Постоянный
Частота кадров : 23,976 кадра/сек
Цветовое пространство : YUV
Субдискретизация насыщенности : 4:2:0
Битовая глубина : 8 бит
Тип развёртки : Прогрессивная
Бит/(Пиксели*Кадры) : 0.182
Размер потока : 1,25 Гбайт (86%)
Заголовок : 07. Caged (В ловушке)
Язык : English
Default : Да
Forced : Нет
Основные цвета : BT.709
Характеристики трансфера : BT.709
Коэффициенты матрицы : BT.709

Аудио #1
Идентификатор : 2
Формат : AC-3
Формат/Информация : Audio Coding 3
Расширение режима : CM (complete main)
Параметр Endianness формата : Big
Идентификатор кодека : A_AC3
Продолжительность : 44 м.
Вид битрейта : Постоянный
Битрейт : 192 Кбит/сек
Каналы : 2 канала
Расположение каналов : Front: L R
Частота : 48,0 КГц
Битовая глубина : 16 бит
Метод сжатия : С потерями
Размер потока : 61,0 Мбайт (4%)
Заголовок : ДТВ
Язык : Russian
Default : Да
Forced : Да

Аудио #2
Идентификатор : 3
Формат : AC-3
Формат/Информация : Audio Coding 3
Расширение режима : CM (complete main)
Параметр Endianness формата : Big
Идентификатор кодека : A_AC3
Продолжительность : 44 м.
Вид битрейта : Постоянный
Битрейт : 384 Кбит/сек
Каналы : 6 каналов
Расположение каналов : Front: L C R, Side: L R, LFE
Частота : 48,0 КГц
Битовая глубина : 16 бит
Метод сжатия : С потерями
Размер потока : 122 Мбайт (8%)
Заголовок : ENG DD5.1
Язык : English
Default : Нет
Forced : Нет
Общее
Уникальный идентификатор : 187272339626326804808215680490344312307 (0x8CE35735C487A4EE855C2CC7FC146DF3)
Полное имя : D:\UPLOADED\МОИ\CSI\CSI - Las-Vegas\S 02. CSI - Las-Vegas\08. Slaves of Las Vegas (Рабы Лас-Вегаса).mkv
Формат : Matroska
Версия формата : Version 4 / Version 2
Размер файла : 1,45 Гбайт
Продолжительность : 44 м.
Общий поток : 4641 Кбит/сек
Название фильма : 08. Slaves of Las Vegas (Рабы Лас-Вегаса)
Дата кодирования : UTC 2013-12-31 19:11:28
Программа кодирования : mkvmerge v6.3.0 ('You can't stop me!') built on Jul 19 2013 16:27:38
Библиотека кодирования : libebml v1.3.0 + libmatroska v1.4.1

Видео
Идентификатор : 1
Формат : AVC
Формат/Информация : Advanced Video Codec
Профиль формата : High@L3.1
Параметр CABAC формата : Нет
Параметр ReFrames формата : 2 кадра
Идентификатор кодека : V_MPEG4/ISO/AVC
Продолжительность : 44 м.
Битрейт : 3973 Кбит/сек
Ширина : 1280 пикселей
Высота : 720 пикселей
Соотношение сторон : 16:9
Режим частоты кадров : Постоянный
Частота кадров : 23,976 кадра/сек
Цветовое пространство : YUV
Субдискретизация насыщенности : 4:2:0
Битовая глубина : 8 бит
Тип развёртки : Прогрессивная
Бит/(Пиксели*Кадры) : 0.180
Размер потока : 1,24 Гбайт (86%)
Заголовок : 08. Slaves of Las Vegas (Рабы Лас-Вегаса)
Язык : English
Default : Да
Forced : Нет
Основные цвета : BT.709
Характеристики трансфера : BT.709
Коэффициенты матрицы : BT.709

Аудио #1
Идентификатор : 2
Формат : AC-3
Формат/Информация : Audio Coding 3
Расширение режима : CM (complete main)
Параметр Endianness формата : Big
Идентификатор кодека : A_AC3
Продолжительность : 44 м.
Вид битрейта : Постоянный
Битрейт : 192 Кбит/сек
Каналы : 2 канала
Расположение каналов : Front: L R
Частота : 48,0 КГц
Битовая глубина : 16 бит
Метод сжатия : С потерями
Размер потока : 61,2 Мбайт (4%)
Заголовок : ДТВ
Язык : Russian
Default : Да
Forced : Да

Аудио #2
Идентификатор : 3
Формат : AC-3
Формат/Информация : Audio Coding 3
Расширение режима : CM (complete main)
Параметр Endianness формата : Big
Идентификатор кодека : A_AC3
Продолжительность : 44 м.
Вид битрейта : Постоянный
Битрейт : 384 Кбит/сек
Каналы : 6 каналов
Расположение каналов : Front: L C R, Side: L R, LFE
Частота : 48,0 КГц
Битовая глубина : 16 бит
Метод сжатия : С потерями
Размер потока : 122 Мбайт (8%)
Заголовок : ENG DD5.1
Язык : English
Default : Нет
Forced : Нет
Общее
Уникальный идентификатор : 251021291361304119935504538072889173649 (0xBCD8F13220DF937EA3FF99B234D42691)
Полное имя : D:\UPLOADED\МОИ\CSI\CSI - Las-Vegas\S 02. CSI - Las-Vegas\09. And Then There Were None (И никого не стало).mkv
Формат : Matroska
Версия формата : Version 4 / Version 2
Размер файла : 1,36 Гбайт
Продолжительность : 40 м.
Общий поток : 4788 Кбит/сек
Название фильма : 09. And Then There Were None (И никого не стало)
Дата кодирования : UTC 2013-12-31 19:18:59
Программа кодирования : mkvmerge v6.3.0 ('You can't stop me!') built on Jul 19 2013 16:27:38
Библиотека кодирования : libebml v1.3.0 + libmatroska v1.4.1

Видео
Идентификатор : 1
Формат : AVC
Формат/Информация : Advanced Video Codec
Профиль формата : High@L3.1
Параметр CABAC формата : Нет
Параметр ReFrames формата : 2 кадра
Идентификатор кодека : V_MPEG4/ISO/AVC
Продолжительность : 40 м.
Битрейт : 4117 Кбит/сек
Ширина : 1280 пикселей
Высота : 720 пикселей
Соотношение сторон : 16:9
Режим частоты кадров : Постоянный
Частота кадров : 23,976 кадра/сек
Цветовое пространство : YUV
Субдискретизация насыщенности : 4:2:0
Битовая глубина : 8 бит
Тип развёртки : Прогрессивная
Бит/(Пиксели*Кадры) : 0.186
Размер потока : 1,17 Гбайт (86%)
Заголовок : 09. And Then There Were None (И никого не стало)
Язык : English
Default : Да
Forced : Нет
Основные цвета : BT.709
Характеристики трансфера : BT.709
Коэффициенты матрицы : BT.709

Аудио #1
Идентификатор : 2
Формат : AC-3
Формат/Информация : Audio Coding 3
Расширение режима : CM (complete main)
Параметр Endianness формата : Big
Идентификатор кодека : A_AC3
Продолжительность : 40 м.
Вид битрейта : Постоянный
Битрейт : 192 Кбит/сек
Каналы : 2 канала
Расположение каналов : Front: L R
Частота : 48,0 КГц
Битовая глубина : 16 бит
Метод сжатия : С потерями
Размер потока : 56,0 Мбайт (4%)
Заголовок : ДТВ
Язык : Russian
Default : Да
Forced : Да

Аудио #2
Идентификатор : 3
Формат : AC-3
Формат/Информация : Audio Coding 3
Расширение режима : CM (complete main)
Параметр Endianness формата : Big
Идентификатор кодека : A_AC3
Продолжительность : 40 м.
Вид битрейта : Постоянный
Битрейт : 384 Кбит/сек
Каналы : 6 каналов
Расположение каналов : Front: L C R, Side: L R, LFE
Частота : 48,0 КГц
Битовая глубина : 16 бит
Метод сжатия : С потерями
Размер потока : 112 Мбайт (8%)
Заголовок : ENG DD5.1
Язык : English
Default : Нет
Forced : Нет
Общее
Уникальный идентификатор : 218133616610924021781531465992331028797 (0xA41B01A424276CCEA8EC3F1FEE4B693D)
Полное имя : D:\UPLOADED\МОИ\CSI\CSI - Las-Vegas\S 02. CSI - Las-Vegas\10. Ellie (Элли).mkv
Формат : Matroska
Версия формата : Version 4 / Version 2
Размер файла : 1,36 Гбайт
Продолжительность : 42 м.
Общий поток : 4529 Кбит/сек
Название фильма : 10. Ellie (Элли)
Дата кодирования : UTC 2013-12-31 19:21:46
Программа кодирования : mkvmerge v6.3.0 ('You can't stop me!') built on Jul 19 2013 16:27:38
Библиотека кодирования : libebml v1.3.0 + libmatroska v1.4.1

Видео
Идентификатор : 1
Формат : AVC
Формат/Информация : Advanced Video Codec
Профиль формата : High@L3.1
Параметр CABAC формата : Нет
Параметр ReFrames формата : 2 кадра
Идентификатор кодека : V_MPEG4/ISO/AVC
Продолжительность : 42 м.
Битрейт : 3862 Кбит/сек
Ширина : 1280 пикселей
Высота : 720 пикселей
Соотношение сторон : 16:9
Режим частоты кадров : Постоянный
Частота кадров : 23,976 кадра/сек
Цветовое пространство : YUV
Субдискретизация насыщенности : 4:2:0
Битовая глубина : 8 бит
Тип развёртки : Прогрессивная
Бит/(Пиксели*Кадры) : 0.175
Размер потока : 1,16 Гбайт (85%)
Заголовок : 10. Ellie (Элли)
Язык : English
Default : Да
Forced : Нет
Основные цвета : BT.709
Характеристики трансфера : BT.709
Коэффициенты матрицы : BT.709

Аудио #1
Идентификатор : 2
Формат : AC-3
Формат/Информация : Audio Coding 3
Расширение режима : CM (complete main)
Параметр Endianness формата : Big
Идентификатор кодека : A_AC3
Продолжительность : 42 м.
Вид битрейта : Постоянный
Битрейт : 192 Кбит/сек
Каналы : 2 канала
Расположение каналов : Front: L R
Частота : 48,0 КГц
Битовая глубина : 16 бит
Метод сжатия : С потерями
Размер потока : 58,9 Мбайт (4%)
Заголовок : ДТВ
Язык : Russian
Default : Да
Forced : Да

Аудио #2
Идентификатор : 3
Формат : AC-3
Формат/Информация : Audio Coding 3
Расширение режима : CM (complete main)
Параметр Endianness формата : Big
Идентификатор кодека : A_AC3
Продолжительность : 42 м.
Вид битрейта : Постоянный
Битрейт : 384 Кбит/сек
Каналы : 6 каналов
Расположение каналов : Front: L C R, Side: L R, LFE
Частота : 48,0 КГц
Битовая глубина : 16 бит
Метод сжатия : С потерями
Размер потока : 118 Мбайт (8%)
Заголовок : ENG DD5.1
Язык : English
Default : Нет
Forced : Нет
Общее
Уникальный идентификатор : 175810887714276080566808229112676693255 (0x8443F2007ADA74B6832C616A93513507)
Полное имя : D:\UPLOADED\МОИ\CSI\CSI - Las-Vegas\S 02. CSI - Las-Vegas\11. Organ Grinder (Донор).mkv
Формат : Matroska
Версия формата : Version 4 / Version 2
Размер файла : 1,31 Гбайт
Продолжительность : 41 м.
Общий поток : 4482 Кбит/сек
Название фильма : 11. Organ Grinder (Донор)
Дата кодирования : UTC 2013-12-31 19:31:24
Программа кодирования : mkvmerge v6.3.0 ('You can't stop me!') built on Jul 19 2013 16:27:38
Библиотека кодирования : libebml v1.3.0 + libmatroska v1.4.1

Видео
Идентификатор : 1
Формат : AVC
Формат/Информация : Advanced Video Codec
Профиль формата : High@L3.1
Параметр CABAC формата : Нет
Параметр ReFrames формата : 2 кадра
Идентификатор кодека : V_MPEG4/ISO/AVC
Продолжительность : 41 м.
Битрейт : 3816 Кбит/сек
Ширина : 1280 пикселей
Высота : 720 пикселей
Соотношение сторон : 16:9
Режим частоты кадров : Постоянный
Частота кадров : 23,976 кадра/сек
Цветовое пространство : YUV
Субдискретизация насыщенности : 4:2:0
Битовая глубина : 8 бит
Тип развёртки : Прогрессивная
Бит/(Пиксели*Кадры) : 0.173
Размер потока : 1,11 Гбайт (85%)
Заголовок : 11. Organ Grinder (Донор)
Язык : English
Default : Да
Forced : Нет
Основные цвета : BT.709
Характеристики трансфера : BT.709
Коэффициенты матрицы : BT.709

Аудио #1
Идентификатор : 2
Формат : AC-3
Формат/Информация : Audio Coding 3
Расширение режима : CM (complete main)
Параметр Endianness формата : Big
Идентификатор кодека : A_AC3
Продолжительность : 41 м.
Вид битрейта : Постоянный
Битрейт : 192 Кбит/сек
Каналы : 2 канала
Расположение каналов : Front: L R
Частота : 48,0 КГц
Битовая глубина : 16 бит
Метод сжатия : С потерями
Размер потока : 57,3 Мбайт (4%)
Заголовок : ДТВ
Язык : Russian
Default : Да
Forced : Да

Аудио #2
Идентификатор : 3
Формат : AC-3
Формат/Информация : Audio Coding 3
Расширение режима : CM (complete main)
Параметр Endianness формата : Big
Идентификатор кодека : A_AC3
Продолжительность : 41 м.
Вид битрейта : Постоянный
Битрейт : 384 Кбит/сек
Каналы : 6 каналов
Расположение каналов : Front: L C R, Side: L R, LFE
Частота : 48,0 КГц
Битовая глубина : 16 бит
Метод сжатия : С потерями
Размер потока : 115 Мбайт (9%)
Заголовок : ENG DD5.1
Язык : English
Default : Нет
Forced : Нет
Общее
Уникальный идентификатор : 244197879391040336848326206873417031736 (0xB7B6CD03080F1E5C81B7A5A63A902038)
Полное имя : D:\UPLOADED\МОИ\CSI\CSI - Las-Vegas\S 02. CSI - Las-Vegas\12. You've Got Male (У тебя был мужчина).mkv
Формат : Matroska
Версия формата : Version 4 / Version 2
Размер файла : 1,45 Гбайт
Продолжительность : 44 м.
Общий поток : 4705 Кбит/сек
Название фильма : 12. You've Got Male (У тебя был мужчина)
Дата кодирования : UTC 2013-12-31 19:43:19
Программа кодирования : mkvmerge v6.3.0 ('You can't stop me!') built on Jul 19 2013 16:27:38
Библиотека кодирования : libebml v1.3.0 + libmatroska v1.4.1

Видео
Идентификатор : 1
Формат : AVC
Формат/Информация : Advanced Video Codec
Профиль формата : High@L3.1
Параметр CABAC формата : Нет
Параметр ReFrames формата : 2 кадра
Идентификатор кодека : V_MPEG4/ISO/AVC
Продолжительность : 44 м.
Битрейт : 4035 Кбит/сек
Ширина : 1280 пикселей
Высота : 720 пикселей
Соотношение сторон : 16:9
Режим частоты кадров : Постоянный
Частота кадров : 23,976 кадра/сек
Цветовое пространство : YUV
Субдискретизация насыщенности : 4:2:0
Битовая глубина : 8 бит
Тип развёртки : Прогрессивная
Бит/(Пиксели*Кадры) : 0.183
Размер потока : 1,25 Гбайт (86%)
Заголовок : 12. You've Got Male (У тебя был мужчина)
Язык : English
Default : Да
Forced : Нет
Основные цвета : BT.709
Характеристики трансфера : BT.709
Коэффициенты матрицы : BT.709

Аудио #1
Идентификатор : 2
Формат : AC-3
Формат/Информация : Audio Coding 3
Расширение режима : CM (complete main)
Параметр Endianness формата : Big
Идентификатор кодека : A_AC3
Продолжительность : 44 м.
Вид битрейта : Постоянный
Битрейт : 192 Кбит/сек
Каналы : 2 канала
Расположение каналов : Front: L R
Частота : 48,0 КГц
Битовая глубина : 16 бит
Метод сжатия : С потерями
Размер потока : 60,8 Мбайт (4%)
Заголовок : ДТВ
Язык : Russian
Default : Да
Forced : Да

Аудио #2
Идентификатор : 3
Формат : AC-3
Формат/Информация : Audio Coding 3
Расширение режима : CM (complete main)
Параметр Endianness формата : Big
Идентификатор кодека : A_AC3
Продолжительность : 44 м.
Вид битрейта : Постоянный
Битрейт : 384 Кбит/сек
Каналы : 6 каналов
Расположение каналов : Front: L C R, Side: L R, LFE
Частота : 48,0 КГц
Битовая глубина : 16 бит
Метод сжатия : С потерями
Размер потока : 122 Мбайт (8%)
Заголовок : ENG DD5.1
Язык : English
Default : Нет
Forced : Нет
Общее
Уникальный идентификатор : 246415712749247860615818009545441318049 (0xB961F0A38555C1ADBE96E3391CA494A1)
Полное имя : D:\UPLOADED\МОИ\CSI\CSI - Las-Vegas\S 02. CSI - Las-Vegas\13. Identity Crisis (Кризис личности).mkv
Формат : Matroska
Версия формата : Version 4 / Version 2
Размер файла : 1,45 Гбайт
Продолжительность : 44 м.
Общий поток : 4680 Кбит/сек
Название фильма : 13. Identity Crisis (Кризис личности)
Дата кодирования : UTC 2013-12-31 19:49:20
Программа кодирования : mkvmerge v6.3.0 ('You can't stop me!') built on Jul 19 2013 16:27:38
Библиотека кодирования : libebml v1.3.0 + libmatroska v1.4.1

Видео
Идентификатор : 1
Формат : AVC
Формат/Информация : Advanced Video Codec
Профиль формата : High@L3.1
Параметр CABAC формата : Нет
Параметр ReFrames формата : 2 кадра
Идентификатор кодека : V_MPEG4/ISO/AVC
Продолжительность : 44 м.
Битрейт : 4011 Кбит/сек
Ширина : 1280 пикселей
Высота : 720 пикселей
Соотношение сторон : 16:9
Режим частоты кадров : Постоянный
Частота кадров : 23,976 кадра/сек
Цветовое пространство : YUV
Субдискретизация насыщенности : 4:2:0
Битовая глубина : 8 бит
Тип развёртки : Прогрессивная
Бит/(Пиксели*Кадры) : 0.182
Размер потока : 1,24 Гбайт (86%)
Заголовок : 13. Identity Crisis (Кризис личности)
Язык : English
Default : Да
Forced : Нет
Основные цвета : BT.709
Характеристики трансфера : BT.709
Коэффициенты матрицы : BT.709

Аудио #1
Идентификатор : 2
Формат : AC-3
Формат/Информация : Audio Coding 3
Расширение режима : CM (complete main)
Параметр Endianness формата : Big
Идентификатор кодека : A_AC3
Продолжительность : 44 м.
Вид битрейта : Постоянный
Битрейт : 192 Кбит/сек
Каналы : 2 канала
Расположение каналов : Front: L R
Частота : 48,0 КГц
Битовая глубина : 16 бит
Метод сжатия : С потерями
Размер потока : 60,8 Мбайт (4%)
Заголовок : ДТВ
Язык : Russian
Default : Да
Forced : Да

Аудио #2
Идентификатор : 3
Формат : AC-3
Формат/Информация : Audio Coding 3
Расширение режима : CM (complete main)
Параметр Endianness формата : Big
Идентификатор кодека : A_AC3
Продолжительность : 44 м.
Вид битрейта : Постоянный
Битрейт : 384 Кбит/сек
Каналы : 6 каналов
Расположение каналов : Front: L C R, Side: L R, LFE
Частота : 48,0 КГц
Битовая глубина : 16 бит
Метод сжатия : С потерями
Размер потока : 122 Мбайт (8%)
Заголовок : ENG DD5.1
Язык : English
Default : Нет
Forced : Нет
Общее
Уникальный идентификатор : 215890483328973987038535783349751798424 (0xA26AFEA1B84DE975BED6BE0B473E5A98)
Полное имя : D:\UPLOADED\МОИ\CSI\CSI - Las-Vegas\S 02. CSI - Las-Vegas\14. The Finger (Палец).mkv
Формат : Matroska
Версия формата : Version 4 / Version 2
Размер файла : 1,43 Гбайт
Продолжительность : 43 м.
Общий поток : 4679 Кбит/сек
Название фильма : 14. The Finger (Палец)
Дата кодирования : UTC 2013-12-31 19:53:28
Программа кодирования : mkvmerge v6.3.0 ('You can't stop me!') built on Jul 19 2013 16:27:38
Библиотека кодирования : libebml v1.3.0 + libmatroska v1.4.1

Видео
Идентификатор : 1
Формат : AVC
Формат/Информация : Advanced Video Codec
Профиль формата : High@L3.1
Параметр CABAC формата : Нет
Параметр ReFrames формата : 2 кадра
Идентификатор кодека : V_MPEG4/ISO/AVC
Продолжительность : 43 м.
Битрейт : 4010 Кбит/сек
Ширина : 1280 пикселей
Высота : 720 пикселей
Соотношение сторон : 16:9
Режим частоты кадров : Постоянный
Частота кадров : 23,976 кадра/сек
Цветовое пространство : YUV
Субдискретизация насыщенности : 4:2:0
Битовая глубина : 8 бит
Тип развёртки : Прогрессивная
Бит/(Пиксели*Кадры) : 0.181
Размер потока : 1,23 Гбайт (86%)
Заголовок : 14. The Finger (Палец)
Язык : English
Default : Да
Forced : Нет
Основные цвета : BT.709
Характеристики трансфера : BT.709
Коэффициенты матрицы : BT.709

Аудио #1
Идентификатор : 2
Формат : AC-3
Формат/Информация : Audio Coding 3
Расширение режима : CM (complete main)
Параметр Endianness формата : Big
Идентификатор кодека : A_AC3
Продолжительность : 43 м.
Вид битрейта : Постоянный
Битрейт : 192 Кбит/сек
Каналы : 2 канала
Расположение каналов : Front: L R
Частота : 48,0 КГц
Битовая глубина : 16 бит
Метод сжатия : С потерями
Размер потока : 60,1 Мбайт (4%)
Заголовок : ДТВ
Язык : Russian
Default : Да
Forced : Да

Аудио #2
Идентификатор : 3
Формат : AC-3
Формат/Информация : Audio Coding 3
Расширение режима : CM (complete main)
Параметр Endianness формата : Big
Идентификатор кодека : A_AC3
Продолжительность : 43 м.
Вид битрейта : Постоянный
Битрейт : 384 Кбит/сек
Каналы : 6 каналов
Расположение каналов : Front: L C R, Side: L R, LFE
Частота : 48,0 КГц
Битовая глубина : 16 бит
Метод сжатия : С потерями
Размер потока : 120 Мбайт (8%)
Заголовок : ENG DD5.1
Язык : English
Default : Нет
Forced : Нет
Общее
Уникальный идентификатор : 226572143762765255050360191602931577597 (0xAA743526D330CFF58E7A43409FB8B2FD)
Полное имя : D:\UPLOADED\МОИ\CSI\CSI - Las-Vegas\S 02. CSI - Las-Vegas\15. Burden of Proof (Весомые улики).mkv
Формат : Matroska
Версия формата : Version 4 / Version 2
Размер файла : 1,39 Гбайт
Продолжительность : 44 м.
Общий поток : 4458 Кбит/сек
Название фильма : 15. Burden of Proof (Весомые улики)
Дата кодирования : UTC 2013-12-31 19:56:23
Программа кодирования : mkvmerge v6.3.0 ('You can't stop me!') built on Jul 19 2013 16:27:38
Библиотека кодирования : libebml v1.3.0 + libmatroska v1.4.1

Видео
Идентификатор : 1
Формат : AVC
Формат/Информация : Advanced Video Codec
Профиль формата : High@L3.1
Параметр CABAC формата : Нет
Параметр ReFrames формата : 2 кадра
Идентификатор кодека : V_MPEG4/ISO/AVC
Продолжительность : 44 м.
Битрейт : 3793 Кбит/сек
Ширина : 1280 пикселей
Высота : 720 пикселей
Соотношение сторон : 16:9
Режим частоты кадров : Постоянный
Частота кадров : 23,976 кадра/сек
Цветовое пространство : YUV
Субдискретизация насыщенности : 4:2:0
Битовая глубина : 8 бит
Тип развёртки : Прогрессивная
Бит/(Пиксели*Кадры) : 0.172
Размер потока : 1,18 Гбайт (85%)
Заголовок : 15. Burden of Proof (Весомые улики)
Язык : English
Default : Да
Forced : Нет
Основные цвета : BT.709
Характеристики трансфера : BT.709
Коэффициенты матрицы : BT.709

Аудио #1
Идентификатор : 2
Формат : AC-3
Формат/Информация : Audio Coding 3
Расширение режима : CM (complete main)
Параметр Endianness формата : Big
Идентификатор кодека : A_AC3
Продолжительность : 44 м.
Вид битрейта : Постоянный
Битрейт : 192 Кбит/сек
Каналы : 2 канала
Расположение каналов : Front: L R
Частота : 48,0 КГц
Битовая глубина : 16 бит
Метод сжатия : С потерями
Размер потока : 61,2 Мбайт (4%)
Заголовок : ДТВ
Язык : Russian
Default : Да
Forced : Да

Аудио #2
Идентификатор : 3
Формат : AC-3
Формат/Информация : Audio Coding 3
Расширение режима : CM (complete main)
Параметр Endianness формата : Big
Идентификатор кодека : A_AC3
Продолжительность : 44 м.
Вид битрейта : Постоянный
Битрейт : 384 Кбит/сек
Каналы : 6 каналов
Расположение каналов : Front: L C R, Side: L R, LFE
Частота : 48,0 КГц
Битовая глубина : 16 бит
Метод сжатия : С потерями
Размер потока : 122 Мбайт (9%)
Заголовок : ENG DD5.1
Язык : English
Default : Нет
Forced : Нет
Общее
Уникальный идентификатор : 203468800328111917793057528039374210375 (0x9912AA602D554B6596F5FECC766A4547)
Полное имя : D:\UPLOADED\МОИ\CSI\CSI - Las-Vegas\S 02. CSI - Las-Vegas\16. Primum Non Nocere (Не навреди).mkv
Формат : Matroska
Версия формата : Version 4 / Version 2
Размер файла : 1,45 Гбайт
Продолжительность : 44 м.
Общий поток : 4666 Кбит/сек
Название фильма : 16. Primum Non Nocere (Не навреди)
Дата кодирования : UTC 2013-12-31 19:59:02
Программа кодирования : mkvmerge v6.3.0 ('You can't stop me!') built on Jul 19 2013 16:27:38
Библиотека кодирования : libebml v1.3.0 + libmatroska v1.4.1

Видео
Идентификатор : 1
Формат : AVC
Формат/Информация : Advanced Video Codec
Профиль формата : High@L3.1
Параметр CABAC формата : Нет
Параметр ReFrames формата : 2 кадра
Идентификатор кодека : V_MPEG4/ISO/AVC
Продолжительность : 44 м.
Битрейт : 3997 Кбит/сек
Ширина : 1280 пикселей
Высота : 720 пикселей
Соотношение сторон : 16:9
Режим частоты кадров : Постоянный
Частота кадров : 23,976 кадра/сек
Цветовое пространство : YUV
Субдискретизация насыщенности : 4:2:0
Битовая глубина : 8 бит
Тип развёртки : Прогрессивная
Бит/(Пиксели*Кадры) : 0.181
Размер потока : 1,24 Гбайт (86%)
Заголовок : 16. Primum Non Nocere (Не навреди)
Язык : English
Default : Да
Forced : Нет
Основные цвета : BT.709
Характеристики трансфера : BT.709
Коэффициенты матрицы : BT.709

Аудио #1
Идентификатор : 2
Формат : AC-3
Формат/Информация : Audio Coding 3
Расширение режима : CM (complete main)
Параметр Endianness формата : Big
Идентификатор кодека : A_AC3
Продолжительность : 44 м.
Вид битрейта : Постоянный
Битрейт : 192 Кбит/сек
Каналы : 2 канала
Расположение каналов : Front: L R
Частота : 48,0 КГц
Битовая глубина : 16 бит
Метод сжатия : С потерями
Размер потока : 61,0 Мбайт (4%)
Заголовок : ДТВ
Язык : Russian
Default : Да
Forced : Да

Аудио #2
Идентификатор : 3
Формат : AC-3
Формат/Информация : Audio Coding 3
Расширение режима : CM (complete main)
Параметр Endianness формата : Big
Идентификатор кодека : A_AC3
Продолжительность : 44 м.
Вид битрейта : Постоянный
Битрейт : 384 Кбит/сек
Каналы : 6 каналов
Расположение каналов : Front: L C R, Side: L R, LFE
Частота : 48,0 КГц
Битовая глубина : 16 бит
Метод сжатия : С потерями
Размер потока : 122 Мбайт (8%)
Заголовок : ENG DD5.1
Язык : English
Default : Нет
Forced : Нет
Общее
Уникальный идентификатор : 247404250680485234571093248762598562132 (0xBA2053525B7A971DADC4FDCA09BA9954)
Полное имя : D:\UPLOADED\МОИ\CSI\CSI - Las-Vegas\S 02. CSI - Las-Vegas\17. Felonious Monk (Оступившийся монах).mkv
Формат : Matroska
Версия формата : Version 4 / Version 2
Размер файла : 1,36 Гбайт
Продолжительность : 42 м.
Общий поток : 4595 Кбит/сек
Название фильма : 17. Felonious Monk (Оступившийся монах)
Дата кодирования : UTC 2013-12-31 20:03:39
Программа кодирования : mkvmerge v6.3.0 ('You can't stop me!') built on Jul 19 2013 16:27:38
Библиотека кодирования : libebml v1.3.0 + libmatroska v1.4.1

Видео
Идентификатор : 1
Формат : AVC
Формат/Информация : Advanced Video Codec
Профиль формата : High@L3.1
Параметр CABAC формата : Нет
Параметр ReFrames формата : 2 кадра
Идентификатор кодека : V_MPEG4/ISO/AVC
Продолжительность : 42 м.
Битрейт : 3928 Кбит/сек
Ширина : 1280 пикселей
Высота : 720 пикселей
Соотношение сторон : 16:9
Режим частоты кадров : Постоянный
Частота кадров : 23,976 кадра/сек
Цветовое пространство : YUV
Субдискретизация насыщенности : 4:2:0
Битовая глубина : 8 бит
Тип развёртки : Прогрессивная
Бит/(Пиксели*Кадры) : 0.178
Размер потока : 1,16 Гбайт (85%)
Заголовок : 17. Felonious Monk (Оступившийся монах)
Язык : English
Default : Да
Forced : Нет
Основные цвета : BT.709
Характеристики трансфера : BT.709
Коэффициенты матрицы : BT.709

Аудио #1
Идентификатор : 2
Формат : AC-3
Формат/Информация : Audio Coding 3
Расширение режима : CM (complete main)
Параметр Endianness формата : Big
Идентификатор кодека : A_AC3
Продолжительность : 42 м.
Вид битрейта : Постоянный
Битрейт : 192 Кбит/сек
Каналы : 2 канала
Расположение каналов : Front: L R
Частота : 48,0 КГц
Битовая глубина : 16 бит
Метод сжатия : С потерями
Размер потока : 58,3 Мбайт (4%)
Заголовок : ДТВ
Язык : Russian
Default : Да
Forced : Да

Аудио #2
Идентификатор : 3
Формат : AC-3
Формат/Информация : Audio Coding 3
Расширение режима : CM (complete main)
Параметр Endianness формата : Big
Идентификатор кодека : A_AC3
Продолжительность : 42 м.
Вид битрейта : Постоянный
Битрейт : 384 Кбит/сек
Каналы : 6 каналов
Расположение каналов : Front: L C R, Side: L R, LFE
Частота : 48,0 КГц
Битовая глубина : 16 бит
Метод сжатия : С потерями
Размер потока : 117 Мбайт (8%)
Заголовок : ENG DD5.1
Язык : English
Default : Нет
Forced : Нет
Общее
Уникальный идентификатор : 194759951224656480550797349837545256150 (0x928566F6C83923DAAF4FB6A04171B4D6)
Полное имя : D:\UPLOADED\МОИ\CSI\CSI - Las-Vegas\S 02. CSI - Las-Vegas\18. Chasing the Bus (Преследуя автобус).mkv
Формат : Matroska
Версия формата : Version 4 / Version 2
Размер файла : 1,43 Гбайт
Продолжительность : 43 м.
Общий поток : 4706 Кбит/сек
Название фильма : 18. Chasing the Bus (Преследуя автобус)
Дата кодирования : UTC 2014-01-01 06:57:00
Программа кодирования : mkvmerge v6.3.0 ('You can't stop me!') built on Jul 19 2013 16:27:38
Библиотека кодирования : libebml v1.3.0 + libmatroska v1.4.1

Видео
Идентификатор : 1
Формат : AVC
Формат/Информация : Advanced Video Codec
Профиль формата : High@L3.1
Параметр CABAC формата : Нет
Параметр ReFrames формата : 2 кадра
Идентификатор кодека : V_MPEG4/ISO/AVC
Продолжительность : 43 м.
Битрейт : 4037 Кбит/сек
Ширина : 1280 пикселей
Высота : 720 пикселей
Соотношение сторон : 16:9
Режим частоты кадров : Постоянный
Частота кадров : 23,976 кадра/сек
Цветовое пространство : YUV
Субдискретизация насыщенности : 4:2:0
Битовая глубина : 8 бит
Тип развёртки : Прогрессивная
Бит/(Пиксели*Кадры) : 0.183
Размер потока : 1,23 Гбайт (86%)
Заголовок : 18. Chasing the Bus (Преследуя автобус)
Язык : English
Default : Да
Forced : Нет
Основные цвета : BT.709
Характеристики трансфера : BT.709
Коэффициенты матрицы : BT.709

Аудио #1
Идентификатор : 2
Формат : AC-3
Формат/Информация : Audio Coding 3
Расширение режима : CM (complete main)
Параметр Endianness формата : Big
Идентификатор кодека : A_AC3
Продолжительность : 43 м.
Вид битрейта : Постоянный
Битрейт : 192 Кбит/сек
Каналы : 2 канала
Расположение каналов : Front: L R
Частота : 48,0 КГц
Битовая глубина : 16 бит
Метод сжатия : С потерями
Размер потока : 59,9 Мбайт (4%)
Заголовок : ДТВ
Язык : Russian
Default : Да
Forced : Да

Аудио #2
Идентификатор : 3
Формат : AC-3
Формат/Информация : Audio Coding 3
Расширение режима : CM (complete main)
Параметр Endianness формата : Big
Идентификатор кодека : A_AC3
Продолжительность : 43 м.
Вид битрейта : Постоянный
Битрейт : 384 Кбит/сек
Каналы : 6 каналов
Расположение каналов : Front: L C R, Side: L R, LFE
Частота : 48,0 КГц
Битовая глубина : 16 бит
Метод сжатия : С потерями
Размер потока : 120 Мбайт (8%)
Заголовок : ENG DD5.1
Язык : English
Default : Нет
Forced : Нет
Общее
Уникальный идентификатор : 186430435051672200118007294149073531532 (0x8C41321C16F9A6F2930A20C2198F728C)
Полное имя : D:\UPLOADED\МОИ\CSI\CSI - Las-Vegas\S 02. CSI - Las-Vegas\19. Stalker (Сталкер).mkv
Формат : Matroska
Версия формата : Version 4 / Version 2
Размер файла : 1,47 Гбайт
Продолжительность : 44 м.
Общий поток : 4710 Кбит/сек
Название фильма : 19. Stalker (Сталкер)
Дата кодирования : UTC 2014-01-01 07:00:10
Программа кодирования : mkvmerge v6.3.0 ('You can't stop me!') built on Jul 19 2013 16:27:38
Библиотека кодирования : libebml v1.3.0 + libmatroska v1.4.1

Видео
Идентификатор : 1
Формат : AVC
Формат/Информация : Advanced Video Codec
Профиль формата : High@L3.1
Параметр CABAC формата : Нет
Параметр ReFrames формата : 2 кадра
Идентификатор кодека : V_MPEG4/ISO/AVC
Продолжительность : 44 м.
Битрейт : 4041 Кбит/сек
Ширина : 1280 пикселей
Высота : 720 пикселей
Соотношение сторон : 16:9
Режим частоты кадров : Постоянный
Частота кадров : 23,976 кадра/сек
Цветовое пространство : YUV
Субдискретизация насыщенности : 4:2:0
Битовая глубина : 8 бит
Тип развёртки : Прогрессивная
Бит/(Пиксели*Кадры) : 0.183
Размер потока : 1,26 Гбайт (86%)
Заголовок : 19. Stalker (Сталкер)
Язык : English
Default : Да
Forced : Нет
Основные цвета : BT.709
Характеристики трансфера : BT.709
Коэффициенты матрицы : BT.709

Аудио #1
Идентификатор : 2
Формат : AC-3
Формат/Информация : Audio Coding 3
Расширение режима : CM (complete main)
Параметр Endianness формата : Big
Идентификатор кодека : A_AC3
Продолжительность : 44 м.
Вид битрейта : Постоянный
Битрейт : 192 Кбит/сек
Каналы : 2 канала
Расположение каналов : Front: L R
Частота : 48,0 КГц
Битовая глубина : 16 бит
Метод сжатия : С потерями
Размер потока : 61,2 Мбайт (4%)
Заголовок : ДТВ
Язык : Russian
Default : Да
Forced : Да

Аудио #2
Идентификатор : 3
Формат : AC-3
Формат/Информация : Audio Coding 3
Расширение режима : CM (complete main)
Параметр Endianness формата : Big
Идентификатор кодека : A_AC3
Продолжительность : 44 м.
Вид битрейта : Постоянный
Битрейт : 384 Кбит/сек
Каналы : 6 каналов
Расположение каналов : Front: L C R, Side: L R, LFE
Частота : 48,0 КГц
Битовая глубина : 16 бит
Метод сжатия : С потерями
Размер потока : 122 Мбайт (8%)
Заголовок : ENG DD5.1
Язык : English
Default : Нет
Forced : Нет
Общее
Уникальный идентификатор : 186301658382526431817663687601782064762 (0x8C2864EE03571DEF96C613740591067A)
Полное имя : D:\UPLOADED\МОИ\CSI\CSI - Las-Vegas\S 02. CSI - Las-Vegas\20. Cats in the Cradle... (Кошки на окошке...).mkv
Формат : Matroska
Версия формата : Version 4 / Version 2
Размер файла : 1,42 Гбайт
Продолжительность : 44 м.
Общий поток : 4546 Кбит/сек
Название фильма : 20. Cats in the Cradle... (Кошки на окошке...)
Дата кодирования : UTC 2014-01-01 07:02:37
Программа кодирования : mkvmerge v6.3.0 ('You can't stop me!') built on Jul 19 2013 16:27:38
Библиотека кодирования : libebml v1.3.0 + libmatroska v1.4.1

Видео
Идентификатор : 1
Формат : AVC
Формат/Информация : Advanced Video Codec
Профиль формата : High@L3.1
Параметр CABAC формата : Нет
Параметр ReFrames формата : 2 кадра
Идентификатор кодека : V_MPEG4/ISO/AVC
Продолжительность : 44 м.
Битрейт : 3879 Кбит/сек
Ширина : 1280 пикселей
Высота : 720 пикселей
Соотношение сторон : 16:9
Режим частоты кадров : Постоянный
Частота кадров : 23,976 кадра/сек
Цветовое пространство : YUV
Субдискретизация насыщенности : 4:2:0
Битовая глубина : 8 бит
Тип развёртки : Прогрессивная
Бит/(Пиксели*Кадры) : 0.176
Размер потока : 1,21 Гбайт (85%)
Заголовок : 20. Cats in the Cradle... (Кошки на окошке...)
Язык : English
Default : Да
Forced : Нет
Основные цвета : BT.709
Характеристики трансфера : BT.709
Коэффициенты матрицы : BT.709

Аудио #1
Идентификатор : 2
Формат : AC-3
Формат/Информация : Audio Coding 3
Расширение режима : CM (complete main)
Параметр Endianness формата : Big
Идентификатор кодека : A_AC3
Продолжительность : 44 м.
Вид битрейта : Постоянный
Битрейт : 192 Кбит/сек
Каналы : 2 канала
Расположение каналов : Front: L R
Частота : 48,0 КГц
Битовая глубина : 16 бит
Метод сжатия : С потерями
Размер потока : 61,5 Мбайт (4%)
Заголовок : ДТВ
Язык : Russian
Default : Да
Forced : Да

Аудио #2
Идентификатор : 3
Формат : AC-3
Формат/Информация : Audio Coding 3
Расширение режима : CM (complete main)
Параметр Endianness формата : Big
Идентификатор кодека : A_AC3
Продолжительность : 44 м.
Вид битрейта : Постоянный
Битрейт : 384 Кбит/сек
Каналы : 6 каналов
Расположение каналов : Front: L C R, Side: L R, LFE
Частота : 48,0 КГц
Битовая глубина : 16 бит
Метод сжатия : С потерями
Размер потока : 123 Мбайт (8%)
Заголовок : ENG DD5.1
Язык : English
Default : Нет
Forced : Нет
Общее
Уникальный идентификатор : 241957593182827290830811816920853464240 (0xB607565FBB9B59FB9573B8D3689744B0)
Полное имя : D:\UPLOADED\МОИ\CSI\CSI - Las-Vegas\S 02. CSI - Las-Vegas\21. Anatomy of a Lye (Анатомия щёлочи).mkv
Формат : Matroska
Версия формата : Version 4 / Version 2
Размер файла : 1,44 Гбайт
Продолжительность : 44 м.
Общий поток : 4617 Кбит/сек
Название фильма : 21. Anatomy of a Lye (Анатомия щёлочи)
Дата кодирования : UTC 2014-01-01 07:05:03
Программа кодирования : mkvmerge v6.3.0 ('You can't stop me!') built on Jul 19 2013 16:27:38
Библиотека кодирования : libebml v1.3.0 + libmatroska v1.4.1

Видео
Идентификатор : 1
Формат : AVC
Формат/Информация : Advanced Video Codec
Профиль формата : High@L3.1
Параметр CABAC формата : Нет
Параметр ReFrames формата : 2 кадра
Идентификатор кодека : V_MPEG4/ISO/AVC
Продолжительность : 44 м.
Битрейт : 3950 Кбит/сек
Ширина : 1280 пикселей
Высота : 720 пикселей
Соотношение сторон : 16:9
Режим частоты кадров : Постоянный
Частота кадров : 23,976 кадра/сек
Цветовое пространство : YUV
Субдискретизация насыщенности : 4:2:0
Битовая глубина : 8 бит
Тип развёртки : Прогрессивная
Бит/(Пиксели*Кадры) : 0.179
Размер потока : 1,23 Гбайт (86%)
Заголовок : 21. Anatomy of a Lye (Анатомия щёлочи)
Язык : English
Default : Да
Forced : Нет
Основные цвета : BT.709
Характеристики трансфера : BT.709
Коэффициенты матрицы : BT.709

Аудио #1
Идентификатор : 2
Формат : AC-3
Формат/Информация : Audio Coding 3
Расширение режима : CM (complete main)
Параметр Endianness формата : Big
Идентификатор кодека : A_AC3
Продолжительность : 44 м.
Вид битрейта : Постоянный
Битрейт : 192 Кбит/сек
Каналы : 2 канала
Расположение каналов : Front: L R
Частота : 48,0 КГц
Битовая глубина : 16 бит
Метод сжатия : С потерями
Размер потока : 61,5 Мбайт (4%)
Заголовок : ДТВ
Язык : Russian
Default : Да
Forced : Да

Аудио #2
Идентификатор : 3
Формат : AC-3
Формат/Информация : Audio Coding 3
Расширение режима : CM (complete main)
Параметр Endianness формата : Big
Идентификатор кодека : A_AC3
Продолжительность : 44 м.
Вид битрейта : Постоянный
Битрейт : 384 Кбит/сек
Каналы : 6 каналов
Расположение каналов : Front: L C R, Side: L R, LFE
Частота : 48,0 КГц
Битовая глубина : 16 бит
Метод сжатия : С потерями
Размер потока : 123 Мбайт (8%)
Заголовок : ENG DD5.1
Язык : English
Default : Нет
Forced : Нет
Общее
Уникальный идентификатор : 246899276822536979570091170808866511385 (0xB9BF123033C5AFE88A15223836E79A19)
Полное имя : D:\UPLOADED\МОИ\CSI\CSI - Las-Vegas\S 02. CSI - Las-Vegas\22. Cross-Jurisdictions (Совместное расследование).mkv
Формат : Matroska
Версия формата : Version 4 / Version 2
Размер файла : 1,53 Гбайт
Продолжительность : 46 м.
Общий поток : 4659 Кбит/сек
Название фильма : 22. Cross-Jurisdictions (Совместное расследование)
Дата кодирования : UTC 2014-01-01 07:07:49
Программа кодирования : mkvmerge v6.3.0 ('You can't stop me!') built on Jul 19 2013 16:27:38
Библиотека кодирования : libebml v1.3.0 + libmatroska v1.4.1

Видео
Идентификатор : 1
Формат : AVC
Формат/Информация : Advanced Video Codec
Профиль формата : High@L3.1
Параметр CABAC формата : Нет
Параметр ReFrames формата : 2 кадра
Идентификатор кодека : V_MPEG4/ISO/AVC
Продолжительность : 46 м.
Битрейт : 3990 Кбит/сек
Ширина : 1280 пикселей
Высота : 720 пикселей
Соотношение сторон : 16:9
Режим частоты кадров : Постоянный
Частота кадров : 23,976 кадра/сек
Цветовое пространство : YUV
Субдискретизация насыщенности : 4:2:0
Битовая глубина : 8 бит
Тип развёртки : Прогрессивная
Бит/(Пиксели*Кадры) : 0.181
Размер потока : 1,31 Гбайт (86%)
Заголовок : 22. Cross-Jurisdictions (Совместное расследование)
Язык : English
Default : Да
Forced : Нет
Основные цвета : BT.709
Характеристики трансфера : BT.709
Коэффициенты матрицы : BT.709

Аудио #1
Идентификатор : 2
Формат : AC-3
Формат/Информация : Audio Coding 3
Расширение режима : CM (complete main)
Параметр Endianness формата : Big
Идентификатор кодека : A_AC3
Продолжительность : 46 м.
Вид битрейта : Постоянный
Битрейт : 192 Кбит/сек
Каналы : 2 канала
Расположение каналов : Front: L R
Частота : 48,0 КГц
Битовая глубина : 16 бит
Метод сжатия : С потерями
Размер потока : 64,4 Мбайт (4%)
Заголовок : ДТВ
Язык : Russian
Default : Да
Forced : Да

Аудио #2
Идентификатор : 3
Формат : AC-3
Формат/Информация : Audio Coding 3
Расширение режима : CM (complete main)
Параметр Endianness формата : Big
Идентификатор кодека : A_AC3
Продолжительность : 46 м.
Вид битрейта : Постоянный
Битрейт : 384 Кбит/сек
Каналы : 6 каналов
Расположение каналов : Front: L C R, Side: L R, LFE
Частота : 48,0 КГц
Битовая глубина : 16 бит
Метод сжатия : С потерями
Размер потока : 129 Мбайт (8%)
Заголовок : ENG DD5.1
Язык : English
Default : Нет
Forced : Нет
Общее
Уникальный идентификатор : 207975284419881378287731575367747538135 (0x9C76953218D7A1A59616E7DAEB608CD7)
Полное имя : D:\UPLOADED\МОИ\CSI\CSI - Las-Vegas\S 02. CSI - Las-Vegas\23. The Hunger Artist (Голодная модель).mkv
Формат : Matroska
Версия формата : Version 4 / Version 2
Размер файла : 1,41 Гбайт
Продолжительность : 44 м.
Общий поток : 4533 Кбит/сек
Название фильма : 23. The Hunger Artist (Голодная модель)
Дата кодирования : UTC 2014-01-01 07:10:21
Программа кодирования : mkvmerge v6.3.0 ('You can't stop me!') built on Jul 19 2013 16:27:38
Библиотека кодирования : libebml v1.3.0 + libmatroska v1.4.1

Видео
Идентификатор : 1
Формат : AVC
Формат/Информация : Advanced Video Codec
Профиль формата : High@L3.1
Параметр CABAC формата : Нет
Параметр ReFrames формата : 2 кадра
Идентификатор кодека : V_MPEG4/ISO/AVC
Продолжительность : 44 м.
Битрейт : 3867 Кбит/сек
Ширина : 1280 пикселей
Высота : 720 пикселей
Соотношение сторон : 16:9
Режим частоты кадров : Постоянный
Частота кадров : 23,976 кадра/сек
Цветовое пространство : YUV
Субдискретизация насыщенности : 4:2:0
Битовая глубина : 8 бит
Тип развёртки : Прогрессивная
Бит/(Пиксели*Кадры) : 0.175
Размер потока : 1,20 Гбайт (85%)
Заголовок : 23. The Hunger Artist (Голодная модель)
Язык : English
Default : Да
Forced : Нет
Основные цвета : BT.709
Характеристики трансфера : BT.709
Коэффициенты матрицы : BT.709

Аудио #1
Идентификатор : 2
Формат : AC-3
Формат/Информация : Audio Coding 3
Расширение режима : CM (complete main)
Параметр Endianness формата : Big
Идентификатор кодека : A_AC3
Продолжительность : 44 м.
Вид битрейта : Постоянный
Битрейт : 192 Кбит/сек
Каналы : 2 канала
Расположение каналов : Front: L R
Частота : 48,0 КГц
Битовая глубина : 16 бит
Метод сжатия : С потерями
Размер потока : 61,2 Мбайт (4%)
Заголовок : ДТВ
Язык : Russian
Default : Да
Forced : Да

Аудио #2
Идентификатор : 3
Формат : AC-3
Формат/Информация : Audio Coding 3
Расширение режима : CM (complete main)
Параметр Endianness формата : Big
Идентификатор кодека : A_AC3
Продолжительность : 44 м.
Вид битрейта : Постоянный
Битрейт : 384 Кбит/сек
Каналы : 6 каналов
Расположение каналов : Front: L C R, Side: L R, LFE
Частота : 48,0 КГц
Битовая глубина : 16 бит
Метод сжатия : С потерями
Размер потока : 122 Мбайт (8%)
Заголовок : ENG DD5.1
Язык : English
Default : Нет
Forced : Нет

01. Burked (Неувязка)
02. Chaos Theory (Теория хаоса)
03. Overload (Перегрузка)
04. Bully for You (Хулиган)
05. Scuba Doobie-Doo (Скуба Дуби-Ду)
06. Alter Boys (Другие парни)
07. Caged (В ловушке)
08. Slaves of Las Vegas (Рабы Лас-Вегаса)
09. And Then There Were None (И никого не стало)
10. Ellie (Элли)
11. Organ Grinder (Донор)
12. You've Got Male (У тебя был мужчина)
13. Identity Crisis (Кризис личности)
14. The Finger (Палец)
15. Burden of Proof (Весомые улики)
16. Primum Non Nocere (Не навреди)
17. Felonious Monk (Оступившийся монах)
18. Chasing the Bus (Преследуя автобус)
19. Stalker (Сталкер)
20. Cats in the Cradle... (Кошки на окошке...)
21. Anatomy of a Lye (Анатомия щёлочи)
22. Cross-Jurisdictions (Совместное расследование)
23. The Hunger Artist (Голодная модель)

Золотой глобус, 2001 год - Лучший драматический сериал, лучшая женская роль в драматическом сериале (Марж Хелгенбергер)
Золотой глобус, 2002 год - Лучший драматический сериал, лучшая женская роль на ТВ (Марж Хелгенбергер)
Золотой глобус, 2003 год - Лучшая женская роль на ТВ (Марж Хелгенбергер)
Эмми, 2004 год - Лучший драматический сериал
Золотой глобус, 2004 год - лучшая мужская роль (Уильям Л. Питерсен), лучший драматический сериал
Сатурн, 2005 год - лучший телесериал, созданный для телетрансляции
Сериал спародирован в:
1. Ангелы Чарли 2: Только вперед, 2003 (Charlie's Angels: Full Throttle)
2. CSI: Iowa, 2005
3. SSI: Sex Squad Investigation (видео), 2006
4. Американский выскочка, 2008 (An American Carol)
5. Hollywood's Nailin' Palin (видео), 2010
Уильям Петерсен (Гил Гриссом) работает в сериале по контракту «pay or play», показывающему, в общих словах, его незаменимость для проекта. Такой тип контрактов означает, что актёр получает деньги в любом случае — снимается он или нет. На нынешний момент Петерсен отсутствовал только в пяти эпизодах сериала, четыре из которых он пропустил по личным причинам.
Квентин Тарантино, режиссёр «Криминального чтива», снял два завершающих эпизода (24 и 25) 5 сезона сериала. Это произошло после того, как режиссёр признался в том, что он большой поклонник CSI и хотел бы сам снять «парочку серий» для него, а продюсеры ухватились за эту возможность и довели её до конца. Эпизоды, снятые Тарантино, безусловно выделяются из общего стиля сериала, и были выпущены в США на DVD в виде отдельного издания.
В каждом эпизоде сериала обязательно появляется несколько персонажей «на один эпизод», связанных с каким-то расследуемым преступлением. Некоторые из таких «одноэпизодных» актёров стали впоследствии звёздами в других сериалах. Например, это звезды сериала «Остаться в живых» — Джош Холлоуэй (Сойер), Дэниел Дэй Ким (Джин), Гарольд Перрино-мл. (Майкл), Иэн Сомерхолдер (Бун), Элизабет Митчелл (Джульет), Уильям Мапотер (Итан), Фредрик Лене (Маршал Эдвардс Марс), Кевин Дюранд (Мартин Кими). Также, в одном эпизоде CSI снималась звезда «Отчаянных домохозяек» Марсия Кросс (Бри Ван Де Камп). Ещё в одном эпизоде CSI играли: Майло Вентимилья — Питер Петрелли в сериале «Герои», Миша Коллинз — Кастиэль в сериале Сверхъестественное, Аманда Сейфрид Софи в «Мама Mia», любимец девушек Чад Майкл Мюррей, и юная звезда «Новолуния» Дакота Фаннинг. Так же в четырёх эпизодах вместо отсутствующего Уильяма Петерсена был введён персонаж Майкл Кепплер в исполнении Льва Шрайбера, а в пяти эпизодах появлялась Кей Панабэйкер, играющая Линдси Виллоу вместо Мэдисон МакРейнолдс. Так же звёздами эпизода были: Тейлор Свифт, Каризма Карпентер, Марк Дакаскос, Джастин Бибер
Сериал стал одной из главных причин возникновения так называемого «эффекта CSI», под которым понимают повышение общего уровня представлений о методах расследования преступлений, как у их жертв, так и у присяжных, рассматривающих дела в судах. «Эффект CSI» в целом повлиял на более критичную оценку доказательств, представляемых прокурорами на процессах, из-за чего последние стали предоставлять большее количество вещественных доказательств, в особенности тестов ДНК.
Хотя в целом сериал демонстрирует превосходство криминалистов над преступниками и трагическими обстоятельствами, в некоторых эпизодах показываются случаи когда закон и детективы бессильны и не способны наказать или даже найти преступника. Так, поиски «Миниатюриста» (вымышленного серийного убийцы, приносившего на места преступлений их миниатюрные модели со сценой убийства), длились весь 7 сезон и чуть не стоили жизни одному из криминалистов — Саре Сайдл. Косметолог, сделавший двум пациенткам смертельные внутривенные инъекции перекиси водорода, не был обвинён в уголовном преступлении, однако данные о его проступке были переданы семьям погибших для гражданского иска. Владелец казино, обвинявшийся в убийстве девушки, с помощью адвокатов и интриг был оправдан судом, несмотря на все усилия полицейских и криминалистов доказать его вину.
Несмотря на географическую привязанность к Лас-Вегасу, сериал в основном снимается в Калифорнии. В Лас-Вегасе работает только дополнительная съёмочная группа, которая по необходимости делает общие съёмки города. Первые пять сезонов снимались в городе Санта-Кларита, а с шестого — в Юниверсал Сити, городе расположенном на земле принадлежащей Universal Studios. Санта-Кларита была выбрана из-за своей похожести на окрестности настоящего Лас-Вегаса, причём все съёмки «вне помещений» до сих пор производятся там. При необходимости, однако, съёмочная группа и актёры выезжают в Лас-Вегас.
Отличительной особенностью сериала от реальной работы сотрудников криминалистических лабораторий является значительное отступление от процедуры полицейского расследования. В реальной жизни, преступления расследуют полицейские детективы, тогда как в сериале этим в основном занимаются сотрудники CSI, на самом деле не имеющие на это права. Случаи, когда полицейский детектив одновременно является и сотрудником криминалистической лаборатории, чрезвычайно редки.
Представители LGBT (сексуальных меньшинств) часто критикуют сериал за своё негативное представление, так как во многих сериях преступники или подозреваемые относятся к этим меньшинствам. С другой стороны, в сериале часто встречаются персонажи второго плана, которые относятся к LGBT, но показываются либо положительно, либо нейтрально, либо как жертвы преступлений из-за своего образа жизни.
В 9 сезоне главный герой сериала Гил Гриссом (Уильям Петерсен) уходит из шоу и актёр Лоуренс Фишборн начинает играть на постоянной основе. Однако, Гриссом появляется в одном из эпизодов 11 сезона...
jasinpapa
P.S. Большая просьба к скачавшим имеющим широкие каналы и объёмные винчестеры не уходить с раздачи как можно дольше!!!

Продолжительность: ~00:45:00 серия
Качество видео: WEB-DL 720p
Формат: MKV
Видеокодек: AVC
Битрейт видео: ~4000 Кбит/сек
Размер кадра: 1280x720 (16:9), 23,976 fps,~ 4000 Kbps
Аудиокодек: AC3
Битрейт аудио:
аудио rus: AC-3 at 192 Kbps 2 channels, 48.0 KHz, Профессиональный многоголосый - ДТВ
аудио eng: AC-3 at 384 Kbps 6 channels, 48.0 KHz, оригинальная дорожка
Место преступления: Лас-Вегас / CSI: Crime Scene Investigation все раздачи сериала

Скриншоты:

Время Раздачи: 24/7 - круглосуточно до 5 скачавших[/size]
[NNM-Club.me]_S 02. CSI - Las-Vegas.torrent
 Торрент: Платиновая раздача  Зарегистрирован
 
Скачать


Примагнититься
 Зарегистрирован:   06 Янв 2014 23:28:51
 Размер:   32,7 GB  (
 Рейтинг:   4,9 (Голосов: 26)
 Поблагодарили:   92
 Проверка:   Оформление проверено модератором 11 Янв 2014 00:43:19
Как cкачать  ·  Как раздать  ·  Правильно оформить  ·  Поднять ратио!  

_________________
На первом месте у меня семья и дети, а хобби =>Мои РЕЛИЗЫ <= в свободное от них время
verybigalex
Стаж: 8 лет 5 мес.
Сообщений: 34
Ratio: 3,882
0.77%
дайте скорости, плиз. кнопки "позвать скачавших" на этой страничке нету (
Показать сообщения:   
Начать новую тему   Ответить на тему    Торрент-трекер NNM-Club -> Зарубежные сериалы -> Место преступления / CSI Часовой пояс: GMT + 3
Страница 1 из 1