Классический форум-трекер
canvas not supported
Нас вместе: 4 078 112

C.S.I. Место преступления: Лас-Вегас / CSI: Crime Scene Investigation: Las Vegas (2003-2004) [720p] WEB-DL (сезон 4, серии 1-23 из 23) ДТВ


 
 
RSS
Начать новую тему   Ответить на тему    Торрент-трекер NNM-Club -> Зарубежные сериалы -> Место преступления / CSI
Автор Сообщение
WOLF 80 ®
Uploader 100+
Стаж: 10 лет 1 мес.
Сообщений: 480
Ratio: 3902,785
Раздал: 156,9 TB
Поблагодарили: 30314
100%
Откуда: Санкт-Петербург
russia.gif
C.S.I. Место преступления: Лас-Вегас /
CSI: Crime Scene Investigation: Las Vegas

«Как следует подготовься к сезону убийств»
Русское название: C.S.I. Место преступления: Лас-Вегас
Оригинальное название: CSI: Crime Scene Investigation: Las Vegas
Год выпуска: 2003-2004
Жанр: Детектив, триллер, драма, криминал

Перевод: Профессиональный многоголосый закадровый - ДТВ


Дата мировой премьеры: с 25.09.2003 по 20.05.2004

Режиссер: Кеннет Финк, Ричард Дж. Льюис, Алек Смайт
Актеры: Уильям Л. Питерсен (Gil Grissom), Марж Хелгенбергер (Catherine Willows), Джордж Идс (Nick Stokes), Гари Дурдан (Warrick Brown), Джоржа Фокс (Sara Sidle), Пол Гилфойл (Captain Jim Brass), Эрик Шманда (Greg Sanders), Роберт Дэвид Холл (Dr. Al Robbins), Дэвид Берман (David Phillips), Уоллес Лэнгэм (David Hodges), Арчи Као (Archie Johnson), Лиз Вэсси (Wendy Simms)

Описание фильма: Лас-Вегас… Своими яркими неоновыми огнями, сотнями игровых клубов и казино он манит всё новых и новых людей. Но далеко не все из них оказываются добропорядочными гражданами. В огромном людском потоке частенько прячутся преступники всех мастей. Они убеждены, что их злодеяния останутся незамеченными. Но они сильно ошибаются, ведь в городе работает неутомимая команда полиции C.S.I. Когда следствие заходит в тупик, в игру вступает группа супер профессиональных криминалистов во главе с капитаном Гриссомом. В культовом сериале, лауреате престижных американских премий «Эмми» и «Золотой глобус», столь полюбившиеся зрителям члены команды криминалистической лаборатории C.S.I. продолжат самоотверженно распутывать казалось бы безнадёжные случаи и с честью выходить из самых сложных ситуаций. Героям сериала при помощи новейших научных и технических разработок предстоит расследовать череду загадочных убийств, похищений и даже ритуальных жертвоприношений. Для них нет ничего невозможного. В городе разбитых надежд и несбывшихся мечтаний они найдут ключи к тайнам самых загадочных преступлений. И тогда всё тайное станет явным.
1 СЕЗОН BDRip 720p
2 СЕЗОН WEB-DL 720p
3 СЕЗОН WEB-DL 720p
5 СЕЗОН WEB-DL 720p
6 СЕЗОН WEB-DL 720p
7 СЕЗОН WEB-DL 720p
8 СЕЗОН BDRip 720p
9 СЕЗОН BDRip 720p
10 СЕЗОН WEB-DL 720p

Общее
Уникальный идентификатор : 218224796588612982100399627289343882497 (0xA42C912941CCC028BD650AD120B4F501)
Полное имя : D:\UPLOADED\МОИ\CSI\CSI - Las-Vegas\S 04. CSI - Las-Vegas\01. Assume Nothing (Предположений нет).mkv
Формат : Matroska
Версия формата : Version 4 / Version 2
Размер файла : 1,35 Гбайт
Продолжительность : 43 м.
Общий поток : 4446 Кбит/сек
Название фильма : 01. Assume Nothing (Предположений нет)
Дата кодирования : UTC 2014-01-01 12:35:35
Программа кодирования : mkvmerge v6.3.0 ('You can't stop me!') built on Jul 19 2013 16:27:38
Библиотека кодирования : libebml v1.3.0 + libmatroska v1.4.1

Видео
Идентификатор : 1
Формат : AVC
Формат/Информация : Advanced Video Codec
Профиль формата : Main@L3.1
Параметр CABAC формата : Нет
Параметр ReFrames формата : 2 кадра
Параметр GOP формата : M=2, N=24
Идентификатор кодека : V_MPEG4/ISO/AVC
Продолжительность : 43 м.
Битрейт : 3973 Кбит/сек
Ширина : 1280 пикселей
Высота : 720 пикселей
Соотношение сторон : 16:9
Режим частоты кадров : Постоянный
Частота кадров : 23,976 кадра/сек
Цветовое пространство : YUV
Субдискретизация насыщенности : 4:2:0
Битовая глубина : 8 бит
Тип развёртки : Прогрессивная
Бит/(Пиксели*Кадры) : 0.180
Размер потока : 1,21 Гбайт (89%)
Заголовок : 01. Assume Nothing (Предположений нет)
Язык : English
Default : Да
Forced : Нет
Основные цвета : BT.709
Характеристики трансфера : BT.709
Коэффициенты матрицы : BT.709

Аудио #1
Идентификатор : 2
Формат : AC-3
Формат/Информация : Audio Coding 3
Расширение режима : CM (complete main)
Параметр Endianness формата : Big
Идентификатор кодека : A_AC3
Продолжительность : 43 м.
Вид битрейта : Постоянный
Битрейт : 192 Кбит/сек
Каналы : 2 канала
Расположение каналов : Front: L R
Частота : 48,0 КГц
Битовая глубина : 16 бит
Метод сжатия : С потерями
Размер потока : 59,7 Мбайт (4%)
Заголовок : ДТВ
Язык : Russian
Default : Да
Forced : Да

Аудио #2
Идентификатор : 3
Формат : AC-3
Формат/Информация : Audio Coding 3
Расширение режима : CM (complete main)
Параметр Endianness формата : Big
Идентификатор кодека : A_AC3
Продолжительность : 43 м.
Вид битрейта : Постоянный
Битрейт : 192 Кбит/сек
Каналы : 2 канала
Расположение каналов : Front: L R
Частота : 48,0 КГц
Битовая глубина : 16 бит
Метод сжатия : С потерями
Размер потока : 59,7 Мбайт (4%)
Заголовок : English
Язык : English
Default : Нет
Forced : Нет
Общее
Уникальный идентификатор : 248902849090679990946714220846312001412 (0xBB40F1ED883E7B78995B1570B0E30F84)
Полное имя : D:\UPLOADED\МОИ\CSI\CSI - Las-Vegas\S 04. CSI - Las-Vegas\02. All for Our Country (Все для своей страны).mkv
Формат : Matroska
Версия формата : Version 4 / Version 2
Размер файла : 1,26 Гбайт
Продолжительность : 42 м.
Общий поток : 4264 Кбит/сек
Название фильма : 02. All for Our Country (Все для своей страны)
Дата кодирования : UTC 2014-01-01 12:44:31
Программа кодирования : mkvmerge v6.3.0 ('You can't stop me!') built on Jul 19 2013 16:27:38
Библиотека кодирования : libebml v1.3.0 + libmatroska v1.4.1

Видео
Идентификатор : 1
Формат : AVC
Формат/Информация : Advanced Video Codec
Профиль формата : Main@L3.1
Параметр CABAC формата : Нет
Параметр ReFrames формата : 2 кадра
Параметр GOP формата : M=2, N=24
Идентификатор кодека : V_MPEG4/ISO/AVC
Продолжительность : 42 м.
Битрейт : 3795 Кбит/сек
Ширина : 1280 пикселей
Высота : 720 пикселей
Соотношение сторон : 16:9
Режим частоты кадров : Постоянный
Частота кадров : 23,976 кадра/сек
Цветовое пространство : YUV
Субдискретизация насыщенности : 4:2:0
Битовая глубина : 8 бит
Тип развёртки : Прогрессивная
Бит/(Пиксели*Кадры) : 0.172
Размер потока : 1,12 Гбайт (89%)
Заголовок : 02. All for Our Country (Все для своей страны)
Язык : English
Default : Да
Forced : Нет
Основные цвета : BT.709
Характеристики трансфера : BT.709
Коэффициенты матрицы : BT.709

Аудио #1
Идентификатор : 2
Формат : AC-3
Формат/Информация : Audio Coding 3
Расширение режима : CM (complete main)
Параметр Endianness формата : Big
Идентификатор кодека : A_AC3
Продолжительность : 42 м.
Вид битрейта : Постоянный
Битрейт : 192 Кбит/сек
Каналы : 2 канала
Расположение каналов : Front: L R
Частота : 48,0 КГц
Битовая глубина : 16 бит
Метод сжатия : С потерями
Размер потока : 58,0 Мбайт (5%)
Заголовок : ДТВ
Язык : Russian
Default : Да
Forced : Да

Аудио #2
Идентификатор : 3
Формат : AC-3
Формат/Информация : Audio Coding 3
Расширение режима : CM (complete main)
Параметр Endianness формата : Big
Идентификатор кодека : A_AC3
Продолжительность : 42 м.
Вид битрейта : Постоянный
Битрейт : 192 Кбит/сек
Каналы : 2 канала
Расположение каналов : Front: L R
Частота : 48,0 КГц
Битовая глубина : 16 бит
Метод сжатия : С потерями
Размер потока : 58,0 Мбайт (5%)
Заголовок : English
Язык : English
Default : Нет
Forced : Нет
Общее
Уникальный идентификатор : 198768634814879638674164054490212642514 (0x9589725308A533C1AAB3AEE813F6AED2)
Полное имя : D:\UPLOADED\МОИ\CSI\CSI - Las-Vegas\S 04. CSI - Las-Vegas\03. Homebodies (Домоседы).mkv
Формат : Matroska
Версия формата : Version 4 / Version 2
Размер файла : 1,11 Гбайт
Продолжительность : 41 м.
Общий поток : 3808 Кбит/сек
Название фильма : 03. Homebodies (Домоседы)
Дата кодирования : UTC 2014-01-01 12:46:47
Программа кодирования : mkvmerge v6.3.0 ('You can't stop me!') built on Jul 19 2013 16:27:38
Библиотека кодирования : libebml v1.3.0 + libmatroska v1.4.1

Видео
Идентификатор : 1
Формат : AVC
Формат/Информация : Advanced Video Codec
Профиль формата : Main@L3.1
Параметр CABAC формата : Нет
Параметр ReFrames формата : 2 кадра
Параметр GOP формата : M=2, N=24
Идентификатор кодека : V_MPEG4/ISO/AVC
Продолжительность : 41 м.
Битрейт : 3348 Кбит/сек
Ширина : 1280 пикселей
Высота : 720 пикселей
Соотношение сторон : 16:9
Режим частоты кадров : Постоянный
Частота кадров : 23,976 кадра/сек
Цветовое пространство : YUV
Субдискретизация насыщенности : 4:2:0
Битовая глубина : 8 бит
Тип развёртки : Прогрессивная
Бит/(Пиксели*Кадры) : 0.152
Размер потока : 1002 Мбайт (88%)
Заголовок : 03. Homebodies (Домоседы)
Язык : English
Default : Да
Forced : Нет
Основные цвета : BT.709
Характеристики трансфера : BT.709
Коэффициенты матрицы : BT.709

Аудио #1
Идентификатор : 2
Формат : AC-3
Формат/Информация : Audio Coding 3
Расширение режима : CM (complete main)
Параметр Endianness формата : Big
Идентификатор кодека : A_AC3
Продолжительность : 41 м.
Вид битрейта : Постоянный
Битрейт : 192 Кбит/сек
Каналы : 2 канала
Расположение каналов : Front: L R
Частота : 48,0 КГц
Битовая глубина : 16 бит
Метод сжатия : С потерями
Размер потока : 57,5 Мбайт (5%)
Заголовок : ДТВ
Язык : Russian
Default : Да
Forced : Да

Аудио #2
Идентификатор : 3
Формат : AC-3
Формат/Информация : Audio Coding 3
Расширение режима : CM (complete main)
Параметр Endianness формата : Big
Идентификатор кодека : A_AC3
Продолжительность : 41 м.
Вид битрейта : Постоянный
Битрейт : 192 Кбит/сек
Каналы : 2 канала
Расположение каналов : Front: L R
Частота : 48,0 КГц
Битовая глубина : 16 бит
Метод сжатия : С потерями
Размер потока : 57,5 Мбайт (5%)
Заголовок : English
Язык : English
Default : Нет
Forced : Нет
Общее
Уникальный идентификатор : 175538931642517865586055697903866702618 (0x840F918845D1FB01876A0043E93D6B1A)
Полное имя : D:\UPLOADED\МОИ\CSI\CSI - Las-Vegas\S 04. CSI - Las-Vegas\04. Feeling the Heat (Почувствуй жару).mkv
Формат : Matroska
Версия формата : Version 4 / Version 2
Размер файла : 1,21 Гбайт
Продолжительность : 43 м.
Общий поток : 3974 Кбит/сек
Название фильма : 04. Feeling the Heat (Почувствуй жару)
Дата кодирования : UTC 2014-01-01 12:52:13
Программа кодирования : mkvmerge v6.3.0 ('You can't stop me!') built on Jul 19 2013 16:27:38
Библиотека кодирования : libebml v1.3.0 + libmatroska v1.4.1

Видео
Идентификатор : 1
Формат : AVC
Формат/Информация : Advanced Video Codec
Профиль формата : Main@L3.1
Параметр CABAC формата : Нет
Параметр ReFrames формата : 2 кадра
Параметр GOP формата : M=2, N=24
Идентификатор кодека : V_MPEG4/ISO/AVC
Продолжительность : 43 м.
Битрейт : 3511 Кбит/сек
Ширина : 1280 пикселей
Высота : 720 пикселей
Соотношение сторон : 16:9
Режим частоты кадров : Постоянный
Частота кадров : 23,976 кадра/сек
Цветовое пространство : YUV
Субдискретизация насыщенности : 4:2:0
Битовая глубина : 8 бит
Тип развёртки : Прогрессивная
Бит/(Пиксели*Кадры) : 0.159
Размер потока : 1,07 Гбайт (88%)
Заголовок : 04. Feeling the Heat (Почувствуй жару)
Язык : English
Default : Да
Forced : Нет
Основные цвета : BT.709
Характеристики трансфера : BT.709
Коэффициенты матрицы : BT.709

Аудио #1
Идентификатор : 2
Формат : AC-3
Формат/Информация : Audio Coding 3
Расширение режима : CM (complete main)
Параметр Endianness формата : Big
Идентификатор кодека : A_AC3
Продолжительность : 43 м.
Вид битрейта : Постоянный
Битрейт : 192 Кбит/сек
Каналы : 2 канала
Расположение каналов : Front: L R
Частота : 48,0 КГц
Битовая глубина : 16 бит
Метод сжатия : С потерями
Размер потока : 60,1 Мбайт (5%)
Заголовок : ДТВ
Язык : Russian
Default : Да
Forced : Да

Аудио #2
Идентификатор : 3
Формат : AC-3
Формат/Информация : Audio Coding 3
Расширение режима : CM (complete main)
Параметр Endianness формата : Big
Идентификатор кодека : A_AC3
Продолжительность : 43 м.
Вид битрейта : Постоянный
Битрейт : 192 Кбит/сек
Каналы : 2 канала
Расположение каналов : Front: L R
Частота : 48,0 КГц
Битовая глубина : 16 бит
Метод сжатия : С потерями
Размер потока : 60,1 Мбайт (5%)
Заголовок : English
Язык : English
Default : Нет
Forced : Нет
Общее
Уникальный идентификатор : 178261561218836961513935099598053605135 (0x861BED88C98899B89B33CA74059C7F0F)
Полное имя : D:\UPLOADED\МОИ\CSI\CSI - Las-Vegas\S 04. CSI - Las-Vegas\05. Fur and Loathing (Мех и ненависть).mkv
Формат : Matroska
Версия формата : Version 4 / Version 2
Размер файла : 1,26 Гбайт
Продолжительность : 43 м.
Общий поток : 4176 Кбит/сек
Название фильма : 05. Fur and Loathing (Мех и ненависть)
Дата кодирования : UTC 2014-01-01 12:52:11
Программа кодирования : mkvmerge v6.3.0 ('You can't stop me!') built on Jul 19 2013 16:27:38
Библиотека кодирования : libebml v1.3.0 + libmatroska v1.4.1

Видео
Идентификатор : 1
Формат : AVC
Формат/Информация : Advanced Video Codec
Профиль формата : Main@L3.1
Параметр CABAC формата : Нет
Параметр ReFrames формата : 2 кадра
Параметр GOP формата : M=2, N=24
Идентификатор кодека : V_MPEG4/ISO/AVC
Продолжительность : 43 м.
Битрейт : 3709 Кбит/сек
Ширина : 1280 пикселей
Высота : 720 пикселей
Соотношение сторон : 16:9
Режим частоты кадров : Постоянный
Частота кадров : 23,976 кадра/сек
Цветовое пространство : YUV
Субдискретизация насыщенности : 4:2:0
Битовая глубина : 8 бит
Тип развёртки : Прогрессивная
Бит/(Пиксели*Кадры) : 0.168
Размер потока : 1,12 Гбайт (89%)
Заголовок : 05. Fur and Loathing (Мех и ненависть)
Язык : English
Default : Да
Forced : Нет
Основные цвета : BT.709
Характеристики трансфера : BT.709
Коэффициенты матрицы : BT.709

Аудио #1
Идентификатор : 2
Формат : AC-3
Формат/Информация : Audio Coding 3
Расширение режима : CM (complete main)
Параметр Endianness формата : Big
Идентификатор кодека : A_AC3
Продолжительность : 43 м.
Вид битрейта : Постоянный
Битрейт : 192 Кбит/сек
Каналы : 2 канала
Расположение каналов : Front: L R
Частота : 48,0 КГц
Битовая глубина : 16 бит
Метод сжатия : С потерями
Размер потока : 59,2 Мбайт (5%)
Заголовок : ДТВ
Язык : Russian
Default : Да
Forced : Да

Аудио #2
Идентификатор : 3
Формат : AC-3
Формат/Информация : Audio Coding 3
Расширение режима : CM (complete main)
Параметр Endianness формата : Big
Идентификатор кодека : A_AC3
Продолжительность : 43 м.
Вид битрейта : Постоянный
Битрейт : 192 Кбит/сек
Каналы : 2 канала
Расположение каналов : Front: L R
Частота : 48,0 КГц
Битовая глубина : 16 бит
Метод сжатия : С потерями
Размер потока : 59,2 Мбайт (5%)
Заголовок : English
Язык : English
Default : Нет
Forced : Нет
Общее
Уникальный идентификатор : 217671237307692573175565089986800313703 (0xA3C1F494D99897DEB311E410BED8E567)
Полное имя : D:\UPLOADED\МОИ\CSI\CSI - Las-Vegas\S 04. CSI - Las-Vegas\06. Jackpot (Джекпот).mkv
Формат : Matroska
Версия формата : Version 4 / Version 2
Размер файла : 1,36 Гбайт
Продолжительность : 44 м.
Общий поток : 4415 Кбит/сек
Название фильма : 06. Jackpot (Джекпот)
Дата кодирования : UTC 2014-01-01 12:53:41
Программа кодирования : mkvmerge v6.3.0 ('You can't stop me!') built on Jul 19 2013 16:27:38
Библиотека кодирования : libebml v1.3.0 + libmatroska v1.4.1

Видео
Идентификатор : 1
Формат : AVC
Формат/Информация : Advanced Video Codec
Профиль формата : Main@L3.1
Параметр CABAC формата : Нет
Параметр ReFrames формата : 2 кадра
Параметр GOP формата : M=2, N=24
Идентификатор кодека : V_MPEG4/ISO/AVC
Продолжительность : 44 м.
Битрейт : 3943 Кбит/сек
Ширина : 1280 пикселей
Высота : 720 пикселей
Соотношение сторон : 16:9
Режим частоты кадров : Постоянный
Частота кадров : 23,976 кадра/сек
Цветовое пространство : YUV
Субдискретизация насыщенности : 4:2:0
Битовая глубина : 8 бит
Тип развёртки : Прогрессивная
Бит/(Пиксели*Кадры) : 0.178
Размер потока : 1,21 Гбайт (89%)
Заголовок : 06. Jackpot (Джекпот)
Язык : English
Default : Да
Forced : Нет
Основные цвета : BT.709
Характеристики трансфера : BT.709
Коэффициенты матрицы : BT.709

Аудио #1
Идентификатор : 2
Формат : AC-3
Формат/Информация : Audio Coding 3
Расширение режима : CM (complete main)
Параметр Endianness формата : Big
Идентификатор кодека : A_AC3
Продолжительность : 44 м.
Вид битрейта : Постоянный
Битрейт : 192 Кбит/сек
Каналы : 2 канала
Расположение каналов : Front: L R
Частота : 48,0 КГц
Битовая глубина : 16 бит
Метод сжатия : С потерями
Размер потока : 60,5 Мбайт (4%)
Заголовок : ДТВ
Язык : Russian
Default : Да
Forced : Да

Аудио #2
Идентификатор : 3
Формат : AC-3
Формат/Информация : Audio Coding 3
Расширение режима : CM (complete main)
Параметр Endianness формата : Big
Идентификатор кодека : A_AC3
Продолжительность : 44 м.
Вид битрейта : Постоянный
Битрейт : 192 Кбит/сек
Каналы : 2 канала
Расположение каналов : Front: L R
Частота : 48,0 КГц
Битовая глубина : 16 бит
Метод сжатия : С потерями
Размер потока : 60,5 Мбайт (4%)
Заголовок : English
Язык : English
Default : Нет
Forced : Нет
Общее
Уникальный идентификатор : 178334344648323491248125874916316729575 (0x8629F208D202FA6D9EEAB80D51F0D0E7)
Полное имя : D:\UPLOADED\МОИ\CSI\CSI - Las-Vegas\S 04. CSI - Las-Vegas\07. Invisible Evidence (Невидимая улика).mkv
Формат : Matroska
Версия формата : Version 4 / Version 2
Размер файла : 1,29 Гбайт
Продолжительность : 44 м.
Общий поток : 4175 Кбит/сек
Название фильма : 07. Invisible Evidence (Невидимая улика)
Дата кодирования : UTC 2014-01-01 13:13:53
Программа кодирования : mkvmerge v6.3.0 ('You can't stop me!') built on Jul 19 2013 16:27:38
Библиотека кодирования : libebml v1.3.0 + libmatroska v1.4.1

Видео
Идентификатор : 1
Формат : AVC
Формат/Информация : Advanced Video Codec
Профиль формата : Main@L3.1
Параметр CABAC формата : Нет
Параметр ReFrames формата : 2 кадра
Параметр GOP формата : M=2, N=24
Идентификатор кодека : V_MPEG4/ISO/AVC
Продолжительность : 44 м.
Битрейт : 3708 Кбит/сек
Ширина : 1280 пикселей
Высота : 720 пикселей
Соотношение сторон : 16:9
Режим частоты кадров : Постоянный
Частота кадров : 23,976 кадра/сек
Цветовое пространство : YUV
Субдискретизация насыщенности : 4:2:0
Битовая глубина : 8 бит
Тип развёртки : Прогрессивная
Бит/(Пиксели*Кадры) : 0.168
Размер потока : 1,15 Гбайт (89%)
Заголовок : 07. Invisible Evidence (Невидимая улика)
Язык : English
Default : Да
Forced : Нет
Основные цвета : BT.709
Характеристики трансфера : BT.709
Коэффициенты матрицы : BT.709

Аудио #1
Идентификатор : 2
Формат : AC-3
Формат/Информация : Audio Coding 3
Расширение режима : CM (complete main)
Параметр Endianness формата : Big
Идентификатор кодека : A_AC3
Продолжительность : 44 м.
Вид битрейта : Постоянный
Битрейт : 192 Кбит/сек
Каналы : 2 канала
Расположение каналов : Front: L R
Частота : 48,0 КГц
Битовая глубина : 16 бит
Метод сжатия : С потерями
Размер потока : 60,8 Мбайт (5%)
Заголовок : ДТВ
Язык : Russian
Default : Да
Forced : Да

Аудио #2
Идентификатор : 3
Формат : AC-3
Формат/Информация : Audio Coding 3
Расширение режима : CM (complete main)
Параметр Endianness формата : Big
Идентификатор кодека : A_AC3
Продолжительность : 44 м.
Вид битрейта : Постоянный
Битрейт : 192 Кбит/сек
Каналы : 2 канала
Расположение каналов : Front: L R
Частота : 48,0 КГц
Битовая глубина : 16 бит
Метод сжатия : С потерями
Размер потока : 60,8 Мбайт (5%)
Заголовок : English
Язык : English
Default : Нет
Forced : Нет
Общее
Уникальный идентификатор : 224231758408192429502451989631069803058 (0xA8B1773EACCB20ACA6271DF70A4B5232)
Полное имя : D:\UPLOADED\МОИ\CSI\CSI - Las-Vegas\S 04. CSI - Las-Vegas\08. After the Show (После шоу).mkv
Формат : Matroska
Версия формата : Version 4 / Version 2
Размер файла : 1,31 Гбайт
Продолжительность : 44 м.
Общий поток : 4242 Кбит/сек
Название фильма : 08. After the Show (После шоу)
Дата кодирования : UTC 2014-01-01 13:14:52
Программа кодирования : mkvmerge v6.3.0 ('You can't stop me!') built on Jul 19 2013 16:27:38
Библиотека кодирования : libebml v1.3.0 + libmatroska v1.4.1

Видео
Идентификатор : 1
Формат : AVC
Формат/Информация : Advanced Video Codec
Профиль формата : Main@L3.1
Параметр CABAC формата : Нет
Параметр ReFrames формата : 2 кадра
Параметр GOP формата : M=2, N=24
Идентификатор кодека : V_MPEG4/ISO/AVC
Продолжительность : 44 м.
Битрейт : 3773 Кбит/сек
Ширина : 1280 пикселей
Высота : 720 пикселей
Соотношение сторон : 16:9
Режим частоты кадров : Постоянный
Частота кадров : 23,976 кадра/сек
Цветовое пространство : YUV
Субдискретизация насыщенности : 4:2:0
Битовая глубина : 8 бит
Тип развёртки : Прогрессивная
Бит/(Пиксели*Кадры) : 0.171
Размер потока : 1,16 Гбайт (89%)
Заголовок : 08. After the Show (После шоу)
Язык : English
Default : Да
Forced : Нет
Основные цвета : BT.709
Характеристики трансфера : BT.709
Коэффициенты матрицы : BT.709

Аудио #1
Идентификатор : 2
Формат : AC-3
Формат/Информация : Audio Coding 3
Расширение режима : CM (complete main)
Параметр Endianness формата : Big
Идентификатор кодека : A_AC3
Продолжительность : 44 м.
Вид битрейта : Постоянный
Битрейт : 192 Кбит/сек
Каналы : 2 канала
Расположение каналов : Front: L R
Частота : 48,0 КГц
Битовая глубина : 16 бит
Метод сжатия : С потерями
Размер потока : 60,5 Мбайт (5%)
Заголовок : ДТВ
Язык : Russian
Default : Да
Forced : Да

Аудио #2
Идентификатор : 3
Формат : AC-3
Формат/Информация : Audio Coding 3
Расширение режима : CM (complete main)
Параметр Endianness формата : Big
Идентификатор кодека : A_AC3
Продолжительность : 44 м.
Вид битрейта : Постоянный
Битрейт : 192 Кбит/сек
Каналы : 2 канала
Расположение каналов : Front: L R
Частота : 48,0 КГц
Битовая глубина : 16 бит
Метод сжатия : С потерями
Размер потока : 60,5 Мбайт (5%)
Заголовок : English
Язык : English
Default : Нет
Forced : Нет
Общее
Уникальный идентификатор : 232148203179945763603580615725791783633 (0xAEA61E1B4BA0438E98AB9DA53F3F2AD1)
Полное имя : D:\UPLOADED\МОИ\CSI\CSI - Las-Vegas\S 04. CSI - Las-Vegas\09. Grissom Versus the Volcano (Гриссом против вулкана).mkv
Формат : Matroska
Версия формата : Version 4 / Version 2
Размер файла : 1,21 Гбайт
Продолжительность : 42 м.
Общий поток : 4048 Кбит/сек
Название фильма : 09. Grissom Versus the Volcano (Гриссом против вулкана)
Дата кодирования : UTC 2014-01-01 13:29:37
Программа кодирования : mkvmerge v6.3.0 ('You can't stop me!') built on Jul 19 2013 16:27:38
Библиотека кодирования : libebml v1.3.0 + libmatroska v1.4.1

Видео
Идентификатор : 1
Формат : AVC
Формат/Информация : Advanced Video Codec
Профиль формата : Main@L3.1
Параметр CABAC формата : Нет
Параметр ReFrames формата : 2 кадра
Параметр GOP формата : M=2, N=24
Идентификатор кодека : V_MPEG4/ISO/AVC
Продолжительность : 42 м.
Битрейт : 3584 Кбит/сек
Ширина : 1280 пикселей
Высота : 720 пикселей
Соотношение сторон : 16:9
Режим частоты кадров : Постоянный
Частота кадров : 23,976 кадра/сек
Цветовое пространство : YUV
Субдискретизация насыщенности : 4:2:0
Битовая глубина : 8 бит
Тип развёртки : Прогрессивная
Бит/(Пиксели*Кадры) : 0.162
Размер потока : 1,07 Гбайт (89%)
Заголовок : 09. Grissom Versus the Volcano (Гриссом против вулкана)
Язык : English
Default : Да
Forced : Нет
Основные цвета : BT.709
Характеристики трансфера : BT.709
Коэффициенты матрицы : BT.709

Аудио #1
Идентификатор : 2
Формат : AC-3
Формат/Информация : Audio Coding 3
Расширение режима : CM (complete main)
Параметр Endianness формата : Big
Идентификатор кодека : A_AC3
Продолжительность : 42 м.
Вид битрейта : Постоянный
Битрейт : 192 Кбит/сек
Каналы : 2 канала
Расположение каналов : Front: L R
Частота : 48,0 КГц
Битовая глубина : 16 бит
Метод сжатия : С потерями
Размер потока : 58,6 Мбайт (5%)
Заголовок : ДТВ
Язык : Russian
Default : Да
Forced : Да

Аудио #2
Идентификатор : 3
Формат : AC-3
Формат/Информация : Audio Coding 3
Расширение режима : CM (complete main)
Параметр Endianness формата : Big
Идентификатор кодека : A_AC3
Продолжительность : 42 м.
Вид битрейта : Постоянный
Битрейт : 192 Кбит/сек
Каналы : 2 канала
Расположение каналов : Front: L R
Частота : 48,0 КГц
Битовая глубина : 16 бит
Метод сжатия : С потерями
Размер потока : 58,6 Мбайт (5%)
Заголовок : English
Язык : English
Default : Нет
Forced : Нет
Общее
Уникальный идентификатор : 229833995051718297324620329753307663563 (0xACE86AD63165DF6ABCD1397B65B24CCB)
Полное имя : D:\UPLOADED\МОИ\CSI\CSI - Las-Vegas\S 04. CSI - Las-Vegas\10. Coming of Rage (Приступ ярости).mkv
Формат : Matroska
Версия формата : Version 4 / Version 2
Размер файла : 1,22 Гбайт
Продолжительность : 43 м.
Общий поток : 4005 Кбит/сек
Название фильма : 10. Coming of Rage (Приступ ярости)
Дата кодирования : UTC 2014-01-01 13:30:32
Программа кодирования : mkvmerge v6.3.0 ('You can't stop me!') built on Jul 19 2013 16:27:38
Библиотека кодирования : libebml v1.3.0 + libmatroska v1.4.1

Видео
Идентификатор : 1
Формат : AVC
Формат/Информация : Advanced Video Codec
Профиль формата : Main@L3.1
Параметр CABAC формата : Нет
Параметр ReFrames формата : 2 кадра
Параметр GOP формата : M=2, N=24
Идентификатор кодека : V_MPEG4/ISO/AVC
Продолжительность : 43 м.
Битрейт : 3542 Кбит/сек
Ширина : 1280 пикселей
Высота : 720 пикселей
Соотношение сторон : 16:9
Режим частоты кадров : Постоянный
Частота кадров : 23,976 кадра/сек
Цветовое пространство : YUV
Субдискретизация насыщенности : 4:2:0
Битовая глубина : 8 бит
Тип развёртки : Прогрессивная
Бит/(Пиксели*Кадры) : 0.160
Размер потока : 1,08 Гбайт (88%)
Заголовок : 10. Coming of Rage (Приступ ярости)
Язык : English
Default : Да
Forced : Да
Основные цвета : BT.709
Характеристики трансфера : BT.709
Коэффициенты матрицы : BT.709

Аудио #1
Идентификатор : 2
Формат : AC-3
Формат/Информация : Audio Coding 3
Расширение режима : CM (complete main)
Параметр Endianness формата : Big
Идентификатор кодека : A_AC3
Продолжительность : 43 м.
Вид битрейта : Постоянный
Битрейт : 192 Кбит/сек
Каналы : 2 канала
Расположение каналов : Front: L R
Частота : 48,0 КГц
Битовая глубина : 16 бит
Метод сжатия : С потерями
Размер потока : 60,1 Мбайт (5%)
Заголовок : ДТВ
Язык : Russian
Default : Да
Forced : Да

Аудио #2
Идентификатор : 3
Формат : AC-3
Формат/Информация : Audio Coding 3
Расширение режима : CM (complete main)
Параметр Endianness формата : Big
Идентификатор кодека : A_AC3
Продолжительность : 43 м.
Вид битрейта : Постоянный
Битрейт : 192 Кбит/сек
Каналы : 2 канала
Расположение каналов : Front: L R
Частота : 48,0 КГц
Битовая глубина : 16 бит
Метод сжатия : С потерями
Размер потока : 60,1 Мбайт (5%)
Заголовок : English
Язык : English
Default : Нет
Forced : Нет
Общее
Уникальный идентификатор : 203455862816682092101864699524684368790 (0x99102C81D34FDC08A2024E0BDC36CB96)
Полное имя : D:\UPLOADED\МОИ\CSI\CSI - Las-Vegas\S 04. CSI - Las-Vegas\11. Eleven Angry Jurors (Одиннадцать разгневанных присяжных).mkv
Формат : Matroska
Версия формата : Version 4 / Version 2
Размер файла : 1,14 Гбайт
Продолжительность : 41 м.
Общий поток : 3949 Кбит/сек
Название фильма : 11. Eleven Angry Jurors (Одиннадцать разгневанных присяжных)
Дата кодирования : UTC 2014-01-01 14:45:46
Программа кодирования : mkvmerge v6.3.0 ('You can't stop me!') built on Jul 19 2013 16:27:38
Библиотека кодирования : libebml v1.3.0 + libmatroska v1.4.1

Видео
Идентификатор : 1
Формат : AVC
Формат/Информация : Advanced Video Codec
Профиль формата : Main@L3.1
Параметр CABAC формата : Нет
Параметр ReFrames формата : 2 кадра
Параметр GOP формата : M=2, N=24
Идентификатор кодека : V_MPEG4/ISO/AVC
Продолжительность : 41 м.
Битрейт : 3487 Кбит/сек
Ширина : 1280 пикселей
Высота : 720 пикселей
Соотношение сторон : 16:9
Режим частоты кадров : Постоянный
Частота кадров : 23,976 кадра/сек
Цветовое пространство : YUV
Субдискретизация насыщенности : 4:2:0
Битовая глубина : 8 бит
Тип развёртки : Прогрессивная
Бит/(Пиксели*Кадры) : 0.158
Размер потока : 1,00 Гбайт (88%)
Заголовок : 11. Eleven Angry Jurors (Одиннадцать разгневанных присяжных)
Язык : English
Default : Да
Forced : Нет
Основные цвета : BT.709
Характеристики трансфера : BT.709
Коэффициенты матрицы : BT.709

Аудио #1
Идентификатор : 2
Формат : AC-3
Формат/Информация : Audio Coding 3
Расширение режима : CM (complete main)
Параметр Endianness формата : Big
Идентификатор кодека : A_AC3
Продолжительность : 41 м.
Вид битрейта : Постоянный
Битрейт : 192 Кбит/сек
Каналы : 2 канала
Расположение каналов : Front: L R
Частота : 48,0 КГц
Битовая глубина : 16 бит
Метод сжатия : С потерями
Размер потока : 56,6 Мбайт (5%)
Заголовок : ДТВ
Язык : Russian
Default : Да
Forced : Да

Аудио #2
Идентификатор : 3
Формат : AC-3
Формат/Информация : Audio Coding 3
Расширение режима : CM (complete main)
Параметр Endianness формата : Big
Идентификатор кодека : A_AC3
Продолжительность : 41 м.
Вид битрейта : Постоянный
Битрейт : 192 Кбит/сек
Каналы : 2 канала
Расположение каналов : Front: L R
Частота : 48,0 КГц
Битовая глубина : 16 бит
Метод сжатия : С потерями
Размер потока : 56,6 Мбайт (5%)
Заголовок : English
Язык : English
Default : Нет
Forced : Нет
Общее
Уникальный идентификатор : 174654998298267323777593718275227103199 (0x83655440F170C562955749ED98F5AFDF)
Полное имя : D:\UPLOADED\МОИ\CSI\CSI - Las-Vegas\S 04. CSI - Las-Vegas\12. Butterflied (Бабочки).mkv
Формат : Matroska
Версия формата : Version 4 / Version 2
Размер файла : 1,26 Гбайт
Продолжительность : 44 м.
Общий поток : 4061 Кбит/сек
Название фильма : 12. Butterflied (Бабочки)
Дата кодирования : UTC 2014-01-01 14:46:29
Программа кодирования : mkvmerge v6.3.0 ('You can't stop me!') built on Jul 19 2013 16:27:38
Библиотека кодирования : libebml v1.3.0 + libmatroska v1.4.1

Видео
Идентификатор : 1
Формат : AVC
Формат/Информация : Advanced Video Codec
Профиль формата : Main@L3.1
Параметр CABAC формата : Нет
Параметр ReFrames формата : 2 кадра
Параметр GOP формата : M=2, N=24
Идентификатор кодека : V_MPEG4/ISO/AVC
Продолжительность : 44 м.
Битрейт : 3596 Кбит/сек
Ширина : 1280 пикселей
Высота : 720 пикселей
Соотношение сторон : 16:9
Режим частоты кадров : Постоянный
Частота кадров : 23,976 кадра/сек
Цветовое пространство : YUV
Субдискретизация насыщенности : 4:2:0
Битовая глубина : 8 бит
Тип развёртки : Прогрессивная
Бит/(Пиксели*Кадры) : 0.163
Размер потока : 1,11 Гбайт (89%)
Заголовок : 12. Butterflied (Бабочки)
Язык : English
Default : Да
Forced : Нет
Основные цвета : BT.709
Характеристики трансфера : BT.709
Коэффициенты матрицы : BT.709

Аудио #1
Идентификатор : 2
Формат : AC-3
Формат/Информация : Audio Coding 3
Расширение режима : CM (complete main)
Параметр Endianness формата : Big
Идентификатор кодека : A_AC3
Продолжительность : 44 м.
Вид битрейта : Постоянный
Битрейт : 192 Кбит/сек
Каналы : 2 канала
Расположение каналов : Front: L R
Частота : 48,0 КГц
Битовая глубина : 16 бит
Метод сжатия : С потерями
Размер потока : 60,8 Мбайт (5%)
Заголовок : ДТВ
Язык : Russian
Default : Да
Forced : Да

Аудио #2
Идентификатор : 3
Формат : AC-3
Формат/Информация : Audio Coding 3
Расширение режима : CM (complete main)
Параметр Endianness формата : Big
Идентификатор кодека : A_AC3
Продолжительность : 44 м.
Вид битрейта : Постоянный
Битрейт : 192 Кбит/сек
Каналы : 2 канала
Расположение каналов : Front: L R
Частота : 48,0 КГц
Битовая глубина : 16 бит
Метод сжатия : С потерями
Размер потока : 60,8 Мбайт (5%)
Заголовок : English
Язык : English
Default : Нет
Forced : Нет
Общее
Уникальный идентификатор : 242597787100040828653965671366115378141 (0xB682A25EFB4CC49BA38604BC4AA6C3DD)
Полное имя : D:\UPLOADED\МОИ\CSI\CSI - Las-Vegas\S 04. CSI - Las-Vegas\13. Suckers (Засранцы).mkv
Формат : Matroska
Версия формата : Version 4 / Version 2
Размер файла : 1,41 Гбайт
Продолжительность : 44 м.
Общий поток : 4568 Кбит/сек
Название фильма : 13. Suckers (Засранцы)
Дата кодирования : UTC 2014-01-01 14:47:32
Программа кодирования : mkvmerge v6.3.0 ('You can't stop me!') built on Jul 19 2013 16:27:38
Библиотека кодирования : libebml v1.3.0 + libmatroska v1.4.1

Видео
Идентификатор : 1
Формат : AVC
Формат/Информация : Advanced Video Codec
Профиль формата : Main@L3.1
Параметр CABAC формата : Нет
Параметр ReFrames формата : 2 кадра
Параметр GOP формата : M=2, N=24
Идентификатор кодека : V_MPEG4/ISO/AVC
Продолжительность : 44 м.
Битрейт : 4093 Кбит/сек
Ширина : 1280 пикселей
Высота : 720 пикселей
Соотношение сторон : 16:9
Режим частоты кадров : Постоянный
Частота кадров : 23,976 кадра/сек
Цветовое пространство : YUV
Субдискретизация насыщенности : 4:2:0
Битовая глубина : 8 бит
Тип развёртки : Прогрессивная
Бит/(Пиксели*Кадры) : 0.185
Размер потока : 1,27 Гбайт (90%)
Заголовок : 13. Suckers (Засранцы)
Язык : English
Default : Да
Forced : Нет
Основные цвета : BT.709
Характеристики трансфера : BT.709
Коэффициенты матрицы : BT.709

Аудио #1
Идентификатор : 2
Формат : AC-3
Формат/Информация : Audio Coding 3
Расширение режима : CM (complete main)
Параметр Endianness формата : Big
Идентификатор кодека : A_AC3
Продолжительность : 44 м.
Вид битрейта : Постоянный
Битрейт : 192 Кбит/сек
Каналы : 2 канала
Расположение каналов : Front: L R
Частота : 48,0 КГц
Битовая глубина : 16 бит
Метод сжатия : С потерями
Размер потока : 60,8 Мбайт (4%)
Заголовок : ДТВ
Язык : Russian
Default : Да
Forced : Да

Аудио #2
Идентификатор : 3
Формат : AC-3
Формат/Информация : Audio Coding 3
Расширение режима : CM (complete main)
Параметр Endianness формата : Big
Идентификатор кодека : A_AC3
Продолжительность : 44 м.
Вид битрейта : Постоянный
Битрейт : 192 Кбит/сек
Каналы : 2 канала
Расположение каналов : Front: L R
Частота : 48,0 КГц
Битовая глубина : 16 бит
Метод сжатия : С потерями
Размер потока : 60,8 Мбайт (4%)
Заголовок : English
Язык : English
Default : Нет
Forced : Нет
Общее
Уникальный идентификатор : 191889756138222675232054866136275671303 (0x905C9F6BAD6A227F9917F1553368D907)
Полное имя : D:\UPLOADED\МОИ\CSI\CSI - Las-Vegas\S 04. CSI - Las-Vegas\14. Paper or Plastic (Бумага или пластик).mkv
Формат : Matroska
Версия формата : Version 4 / Version 2
Размер файла : 1,25 Гбайт
Продолжительность : 43 м.
Общий поток : 4109 Кбит/сек
Название фильма : 14. Paper or Plastic? (Бумага или пластик?)
Дата кодирования : UTC 2014-01-01 14:48:42
Программа кодирования : mkvmerge v6.3.0 ('You can't stop me!') built on Jul 19 2013 16:27:38
Библиотека кодирования : libebml v1.3.0 + libmatroska v1.4.1

Видео
Идентификатор : 1
Формат : AVC
Формат/Информация : Advanced Video Codec
Профиль формата : Main@L3.1
Параметр CABAC формата : Нет
Параметр ReFrames формата : 2 кадра
Параметр GOP формата : M=2, N=24
Идентификатор кодека : V_MPEG4/ISO/AVC
Продолжительность : 43 м.
Битрейт : 3643 Кбит/сек
Ширина : 1280 пикселей
Высота : 720 пикселей
Соотношение сторон : 16:9
Режим частоты кадров : Постоянный
Частота кадров : 23,976 кадра/сек
Цветовое пространство : YUV
Субдискретизация насыщенности : 4:2:0
Битовая глубина : 8 бит
Тип развёртки : Прогрессивная
Бит/(Пиксели*Кадры) : 0.165
Размер потока : 1,11 Гбайт (89%)
Заголовок : 14. Paper or Plastic? (Бумага или пластик?)
Язык : English
Default : Да
Forced : Нет
Основные цвета : BT.709
Характеристики трансфера : BT.709
Коэффициенты матрицы : BT.709

Аудио #1
Идентификатор : 2
Формат : AC-3
Формат/Информация : Audio Coding 3
Расширение режима : CM (complete main)
Параметр Endianness формата : Big
Идентификатор кодека : A_AC3
Продолжительность : 43 м.
Вид битрейта : Постоянный
Битрейт : 192 Кбит/сек
Каналы : 2 канала
Расположение каналов : Front: L R
Частота : 48,0 КГц
Битовая глубина : 16 бит
Метод сжатия : С потерями
Размер потока : 59,9 Мбайт (5%)
Заголовок : ДТВ
Язык : Russian
Default : Да
Forced : Да

Аудио #2
Идентификатор : 3
Формат : AC-3
Формат/Информация : Audio Coding 3
Расширение режима : CM (complete main)
Параметр Endianness формата : Big
Идентификатор кодека : A_AC3
Продолжительность : 43 м.
Вид битрейта : Постоянный
Битрейт : 192 Кбит/сек
Каналы : 2 канала
Расположение каналов : Front: L R
Частота : 48,0 КГц
Битовая глубина : 16 бит
Метод сжатия : С потерями
Размер потока : 59,9 Мбайт (5%)
Заголовок : English
Язык : English
Default : Нет
Forced : Нет
Общее
Уникальный идентификатор : 182541854926586945753884923149011134136 (0x8954484EB0941A3A99BED7F9C21826B8)
Полное имя : D:\UPLOADED\МОИ\CSI\CSI - Las-Vegas\S 04. CSI - Las-Vegas\15. Early Rollout (Ранний выход).mkv
Формат : Matroska
Версия формата : Version 4 / Version 2
Размер файла : 1,41 Гбайт
Продолжительность : 44 м.
Общий поток : 4562 Кбит/сек
Название фильма : 15. Early Rollout (Ранний выход)
Дата кодирования : UTC 2014-01-01 14:49:43
Программа кодирования : mkvmerge v6.3.0 ('You can't stop me!') built on Jul 19 2013 16:27:38
Библиотека кодирования : libebml v1.3.0 + libmatroska v1.4.1

Видео
Идентификатор : 1
Формат : AVC
Формат/Информация : Advanced Video Codec
Профиль формата : Main@L3.1
Параметр CABAC формата : Нет
Параметр ReFrames формата : 2 кадра
Параметр GOP формата : M=2, N=24
Идентификатор кодека : V_MPEG4/ISO/AVC
Продолжительность : 44 м.
Битрейт : 4087 Кбит/сек
Ширина : 1280 пикселей
Высота : 720 пикселей
Соотношение сторон : 16:9
Режим частоты кадров : Постоянный
Частота кадров : 23,976 кадра/сек
Цветовое пространство : YUV
Субдискретизация насыщенности : 4:2:0
Битовая глубина : 8 бит
Тип развёртки : Прогрессивная
Бит/(Пиксели*Кадры) : 0.185
Размер потока : 1,26 Гбайт (90%)
Заголовок : 15. Early Rollout (Ранний выход)
Язык : English
Default : Да
Forced : Нет
Основные цвета : BT.709
Характеристики трансфера : BT.709
Коэффициенты матрицы : BT.709

Аудио #1
Идентификатор : 2
Формат : AC-3
Формат/Информация : Audio Coding 3
Расширение режима : CM (complete main)
Параметр Endianness формата : Big
Идентификатор кодека : A_AC3
Продолжительность : 44 м.
Вид битрейта : Постоянный
Битрейт : 192 Кбит/сек
Каналы : 2 канала
Расположение каналов : Front: L R
Частота : 48,0 КГц
Битовая глубина : 16 бит
Метод сжатия : С потерями
Размер потока : 60,9 Мбайт (4%)
Заголовок : ДТВ
Язык : Russian
Default : Да
Forced : Да

Аудио #2
Идентификатор : 3
Формат : AC-3
Формат/Информация : Audio Coding 3
Расширение режима : CM (complete main)
Параметр Endianness формата : Big
Идентификатор кодека : A_AC3
Продолжительность : 44 м.
Вид битрейта : Постоянный
Битрейт : 192 Кбит/сек
Каналы : 2 канала
Расположение каналов : Front: L R
Частота : 48,0 КГц
Битовая глубина : 16 бит
Метод сжатия : С потерями
Размер потока : 60,9 Мбайт (4%)
Заголовок : English
Язык : English
Default : Нет
Forced : Нет
Общее
Уникальный идентификатор : 238400076091837605176695110758473712503 (0xB35A2F3D49FEA362B5272C506040C377)
Полное имя : D:\UPLOADED\МОИ\CSI\CSI - Las-Vegas\S 04. CSI - Las-Vegas\16. Getting Off (Сброшенный со счетов).mkv
Формат : Matroska
Версия формата : Version 4 / Version 2
Размер файла : 1,21 Гбайт
Продолжительность : 42 м.
Общий поток : 4023 Кбит/сек
Название фильма : 16. Getting Off (Сброшенный со счетов)
Дата кодирования : UTC 2014-01-01 14:50:53
Программа кодирования : mkvmerge v6.3.0 ('You can't stop me!') built on Jul 19 2013 16:27:38
Библиотека кодирования : libebml v1.3.0 + libmatroska v1.4.1

Видео
Идентификатор : 1
Формат : AVC
Формат/Информация : Advanced Video Codec
Профиль формата : Main@L3.1
Параметр CABAC формата : Нет
Параметр ReFrames формата : 2 кадра
Параметр GOP формата : M=2, N=24
Идентификатор кодека : V_MPEG4/ISO/AVC
Продолжительность : 42 м.
Битрейт : 3558 Кбит/сек
Ширина : 1280 пикселей
Высота : 720 пикселей
Соотношение сторон : 16:9
Режим частоты кадров : Постоянный
Частота кадров : 23,976 кадра/сек
Цветовое пространство : YUV
Субдискретизация насыщенности : 4:2:0
Битовая глубина : 8 бит
Тип развёртки : Прогрессивная
Бит/(Пиксели*Кадры) : 0.161
Размер потока : 1,07 Гбайт (88%)
Заголовок : 16. Getting Off (Сброшенный со счетов)
Язык : English
Default : Да
Forced : Нет
Основные цвета : BT.709
Характеристики трансфера : BT.709
Коэффициенты матрицы : BT.709

Аудио #1
Идентификатор : 2
Формат : AC-3
Формат/Информация : Audio Coding 3
Расширение режима : CM (complete main)
Параметр Endianness формата : Big
Идентификатор кодека : A_AC3
Продолжительность : 42 м.
Вид битрейта : Постоянный
Битрейт : 192 Кбит/сек
Каналы : 2 канала
Расположение каналов : Front: L R
Частота : 48,0 КГц
Битовая глубина : 16 бит
Метод сжатия : С потерями
Размер потока : 58,9 Мбайт (5%)
Заголовок : ДТВ
Язык : Russian
Default : Да
Forced : Да

Аудио #2
Идентификатор : 3
Формат : AC-3
Формат/Информация : Audio Coding 3
Расширение режима : CM (complete main)
Параметр Endianness формата : Big
Идентификатор кодека : A_AC3
Продолжительность : 42 м.
Вид битрейта : Постоянный
Битрейт : 192 Кбит/сек
Каналы : 2 канала
Расположение каналов : Front: L R
Частота : 48,0 КГц
Битовая глубина : 16 бит
Метод сжатия : С потерями
Размер потока : 58,9 Мбайт (5%)
Заголовок : English
Язык : English
Default : Нет
Forced : Нет
Общее
Уникальный идентификатор : 221043348646428306840576098899796459968 (0xA64B6681B36D0711BA0027CE9D3C81C0)
Полное имя : D:\UPLOADED\МОИ\CSI\CSI - Las-Vegas\S 04. CSI - Las-Vegas\17. XX (XX).mkv
Формат : Matroska
Версия формата : Version 4 / Version 2
Размер файла : 1,23 Гбайт
Продолжительность : 43 м.
Общий поток : 4038 Кбит/сек
Название фильма : 17. XX (XX)
Дата кодирования : UTC 2014-01-01 14:51:48
Программа кодирования : mkvmerge v6.3.0 ('You can't stop me!') built on Jul 19 2013 16:27:38
Библиотека кодирования : libebml v1.3.0 + libmatroska v1.4.1

Видео
Идентификатор : 1
Формат : AVC
Формат/Информация : Advanced Video Codec
Профиль формата : Main@L3.1
Параметр CABAC формата : Нет
Параметр ReFrames формата : 2 кадра
Параметр GOP формата : M=2, N=24
Идентификатор кодека : V_MPEG4/ISO/AVC
Продолжительность : 43 м.
Битрейт : 3574 Кбит/сек
Ширина : 1280 пикселей
Высота : 720 пикселей
Соотношение сторон : 16:9
Режим частоты кадров : Постоянный
Частота кадров : 23,976 кадра/сек
Цветовое пространство : YUV
Субдискретизация насыщенности : 4:2:0
Битовая глубина : 8 бит
Тип развёртки : Прогрессивная
Бит/(Пиксели*Кадры) : 0.162
Размер потока : 1,09 Гбайт (89%)
Заголовок : 17. XX (XX)
Язык : English
Default : Да
Forced : Нет
Основные цвета : BT.709
Характеристики трансфера : BT.709
Коэффициенты матрицы : BT.709

Аудио #1
Идентификатор : 2
Формат : AC-3
Формат/Информация : Audio Coding 3
Расширение режима : CM (complete main)
Параметр Endianness формата : Big
Идентификатор кодека : A_AC3
Продолжительность : 43 м.
Вид битрейта : Постоянный
Битрейт : 192 Кбит/сек
Каналы : 2 канала
Расположение каналов : Front: L R
Частота : 48,0 КГц
Битовая глубина : 16 бит
Метод сжатия : С потерями
Размер потока : 59,9 Мбайт (5%)
Заголовок : ДТВ
Язык : Russian
Default : Да
Forced : Да

Аудио #2
Идентификатор : 3
Формат : AC-3
Формат/Информация : Audio Coding 3
Расширение режима : CM (complete main)
Параметр Endianness формата : Big
Идентификатор кодека : A_AC3
Продолжительность : 43 м.
Вид битрейта : Постоянный
Битрейт : 192 Кбит/сек
Каналы : 2 канала
Расположение каналов : Front: L R
Частота : 48,0 КГц
Битовая глубина : 16 бит
Метод сжатия : С потерями
Размер потока : 59,9 Мбайт (5%)
Заголовок : English
Язык : English
Default : Нет
Forced : Нет
Общее
Уникальный идентификатор : 222679746110377014288850181347854620108 (0xA7868F2174CE57288DEE167F37C995CC)
Полное имя : D:\UPLOADED\МОИ\CSI\CSI - Las-Vegas\S 04. CSI - Las-Vegas\18. Bad to the Bone (Смерть из-за фишки).mkv
Формат : Matroska
Версия формата : Version 4 / Version 2
Размер файла : 1,24 Гбайт
Продолжительность : 43 м.
Общий поток : 4075 Кбит/сек
Название фильма : 18. Bad to the Bone (Смерть из-за фишки)
Дата кодирования : UTC 2014-01-01 14:52:50
Программа кодирования : mkvmerge v6.3.0 ('You can't stop me!') built on Jul 19 2013 16:27:38
Библиотека кодирования : libebml v1.3.0 + libmatroska v1.4.1

Видео
Идентификатор : 1
Формат : AVC
Формат/Информация : Advanced Video Codec
Профиль формата : Main@L3.1
Параметр CABAC формата : Нет
Параметр ReFrames формата : 2 кадра
Параметр GOP формата : M=2, N=24
Идентификатор кодека : V_MPEG4/ISO/AVC
Продолжительность : 43 м.
Битрейт : 3610 Кбит/сек
Ширина : 1280 пикселей
Высота : 720 пикселей
Соотношение сторон : 16:9
Режим частоты кадров : Постоянный
Частота кадров : 23,976 кадра/сек
Цветовое пространство : YUV
Субдискретизация насыщенности : 4:2:0
Битовая глубина : 8 бит
Тип развёртки : Прогрессивная
Бит/(Пиксели*Кадры) : 0.163
Размер потока : 1,10 Гбайт (89%)
Заголовок : 18. Bad to the Bone (Смерть из-за фишки)
Язык : English
Default : Да
Forced : Нет
Основные цвета : BT.709
Характеристики трансфера : BT.709
Коэффициенты матрицы : BT.709

Аудио #1
Идентификатор : 2
Формат : AC-3
Формат/Информация : Audio Coding 3
Расширение режима : CM (complete main)
Параметр Endianness формата : Big
Идентификатор кодека : A_AC3
Продолжительность : 43 м.
Вид битрейта : Постоянный
Битрейт : 192 Кбит/сек
Каналы : 2 канала
Расположение каналов : Front: L R
Частота : 48,0 КГц
Битовая глубина : 16 бит
Метод сжатия : С потерями
Размер потока : 59,6 Мбайт (5%)
Заголовок : ДТВ
Язык : Russian
Default : Да
Forced : Да

Аудио #2
Идентификатор : 3
Формат : AC-3
Формат/Информация : Audio Coding 3
Расширение режима : CM (complete main)
Параметр Endianness формата : Big
Идентификатор кодека : A_AC3
Продолжительность : 43 м.
Вид битрейта : Постоянный
Битрейт : 192 Кбит/сек
Каналы : 2 канала
Расположение каналов : Front: L R
Частота : 48,0 КГц
Битовая глубина : 16 бит
Метод сжатия : С потерями
Размер потока : 59,6 Мбайт (5%)
Заголовок : English
Язык : English
Default : Нет
Forced : Нет
Общее
Уникальный идентификатор : 213744168201878361027640432117978110909 (0xA0CDA12037131F618F8C2C822C021BBD)
Полное имя : D:\UPLOADED\МОИ\CSI\CSI - Las-Vegas\S 04. CSI - Las-Vegas\19. Bad Words (Дурные слова).mkv
Формат : Matroska
Версия формата : Version 4 / Version 2
Размер файла : 1,22 Гбайт
Продолжительность : 44 м.
Общий поток : 3975 Кбит/сек
Название фильма : 19. Bad Words (Дурные слова)
Дата кодирования : UTC 2014-01-01 14:53:53
Программа кодирования : mkvmerge v6.3.0 ('You can't stop me!') built on Jul 19 2013 16:27:38
Библиотека кодирования : libebml v1.3.0 + libmatroska v1.4.1

Видео
Идентификатор : 1
Формат : AVC
Формат/Информация : Advanced Video Codec
Профиль формата : Main@L3.1
Параметр CABAC формата : Нет
Параметр ReFrames формата : 2 кадра
Параметр GOP формата : M=2, N=24
Идентификатор кодека : V_MPEG4/ISO/AVC
Продолжительность : 44 м.
Битрейт : 3512 Кбит/сек
Ширина : 1280 пикселей
Высота : 720 пикселей
Соотношение сторон : 16:9
Режим частоты кадров : Постоянный
Частота кадров : 23,976 кадра/сек
Цветовое пространство : YUV
Субдискретизация насыщенности : 4:2:0
Битовая глубина : 8 бит
Тип развёртки : Прогрессивная
Бит/(Пиксели*Кадры) : 0.159
Размер потока : 1,08 Гбайт (88%)
Заголовок : 19. Bad Words (Дурные слова)
Язык : English
Default : Да
Forced : Нет
Основные цвета : BT.709
Характеристики трансфера : BT.709
Коэффициенты матрицы : BT.709

Аудио #1
Идентификатор : 2
Формат : AC-3
Формат/Информация : Audio Coding 3
Расширение режима : CM (complete main)
Параметр Endianness формата : Big
Идентификатор кодека : A_AC3
Продолжительность : 44 м.
Вид битрейта : Постоянный
Битрейт : 192 Кбит/сек
Каналы : 2 канала
Расположение каналов : Front: L R
Частота : 48,0 КГц
Битовая глубина : 16 бит
Метод сжатия : С потерями
Размер потока : 60,5 Мбайт (5%)
Заголовок : ДТВ
Язык : Russian
Default : Да
Forced : Да

Аудио #2
Идентификатор : 3
Формат : AC-3
Формат/Информация : Audio Coding 3
Расширение режима : CM (complete main)
Параметр Endianness формата : Big
Идентификатор кодека : A_AC3
Продолжительность : 44 м.
Вид битрейта : Постоянный
Битрейт : 192 Кбит/сек
Каналы : 2 канала
Расположение каналов : Front: L R
Частота : 48,0 КГц
Битовая глубина : 16 бит
Метод сжатия : С потерями
Размер потока : 60,5 Мбайт (5%)
Заголовок : English
Язык : English
Default : Нет
Forced : Нет
Общее
Уникальный идентификатор : 211803958919783573313979279844965745169 (0x9F57F56C34A6E2D1A42891FD5B460211)
Полное имя : D:\UPLOADED\МОИ\CSI\CSI - Las-Vegas\S 04. CSI - Las-Vegas\20. Dead Ringer (Смертельный звонок).mkv
Формат : Matroska
Версия формата : Version 4 / Version 2
Размер файла : 1,26 Гбайт
Продолжительность : 42 м.
Общий поток : 4202 Кбит/сек
Название фильма : 20. Dead Ringer (Смертельный звонок)
Дата кодирования : UTC 2014-01-01 14:55:09
Программа кодирования : mkvmerge v6.3.0 ('You can't stop me!') built on Jul 19 2013 16:27:38
Библиотека кодирования : libebml v1.3.0 + libmatroska v1.4.1

Видео
Идентификатор : 1
Формат : AVC
Формат/Информация : Advanced Video Codec
Профиль формата : Main@L3.1
Параметр CABAC формата : Нет
Параметр ReFrames формата : 2 кадра
Параметр GOP формата : M=2, N=24
Идентификатор кодека : V_MPEG4/ISO/AVC
Продолжительность : 42 м.
Битрейт : 3735 Кбит/сек
Ширина : 1280 пикселей
Высота : 720 пикселей
Соотношение сторон : 16:9
Режим частоты кадров : Постоянный
Частота кадров : 23,976 кадра/сек
Цветовое пространство : YUV
Субдискретизация насыщенности : 4:2:0
Битовая глубина : 8 бит
Тип развёртки : Прогрессивная
Бит/(Пиксели*Кадры) : 0.169
Размер потока : 1,12 Гбайт (89%)
Заголовок : 20. Dead Ringer (Смертельный звонок)
Язык : English
Default : Да
Forced : Нет
Основные цвета : BT.709
Характеристики трансфера : BT.709
Коэффициенты матрицы : BT.709

Аудио #1
Идентификатор : 2
Формат : AC-3
Формат/Информация : Audio Coding 3
Расширение режима : CM (complete main)
Параметр Endianness формата : Big
Идентификатор кодека : A_AC3
Продолжительность : 42 м.
Вид битрейта : Постоянный
Битрейт : 192 Кбит/сек
Каналы : 2 канала
Расположение каналов : Front: L R
Частота : 48,0 КГц
Битовая глубина : 16 бит
Метод сжатия : С потерями
Размер потока : 58,9 Мбайт (5%)
Заголовок : ДТВ
Язык : Russian
Default : Да
Forced : Да

Аудио #2
Идентификатор : 3
Формат : AC-3
Формат/Информация : Audio Coding 3
Расширение режима : CM (complete main)
Параметр Endianness формата : Big
Идентификатор кодека : A_AC3
Продолжительность : 42 м.
Вид битрейта : Постоянный
Битрейт : 192 Кбит/сек
Каналы : 2 канала
Расположение каналов : Front: L R
Частота : 48,0 КГц
Битовая глубина : 16 бит
Метод сжатия : С потерями
Размер потока : 58,9 Мбайт (5%)
Заголовок : English
Язык : English
Default : Нет
Forced : Нет
Общее
Уникальный идентификатор : 189099652191706685035701314597500875060 (0x8E4344ACE0FC6B038C63EFFDD2A1F134)
Полное имя : D:\UPLOADED\МОИ\CSI\CSI - Las-Vegas\S 04. CSI - Las-Vegas\21. Turn of the Screws (Поворот винта).mkv
Формат : Matroska
Версия формата : Version 4 / Version 2
Размер файла : 1,23 Гбайт
Продолжительность : 43 м.
Общий поток : 4067 Кбит/сек
Название фильма : 21. Turn of the Screws (Поворот винта)
Дата кодирования : UTC 2014-01-01 14:56:48
Программа кодирования : mkvmerge v6.3.0 ('You can't stop me!') built on Jul 19 2013 16:27:38
Библиотека кодирования : libebml v1.3.0 + libmatroska v1.4.1

Видео
Идентификатор : 1
Формат : AVC
Формат/Информация : Advanced Video Codec
Профиль формата : Main@L3.1
Параметр CABAC формата : Нет
Параметр ReFrames формата : 2 кадра
Параметр GOP формата : M=2, N=24
Идентификатор кодека : V_MPEG4/ISO/AVC
Продолжительность : 43 м.
Битрейт : 3602 Кбит/сек
Ширина : 1280 пикселей
Высота : 720 пикселей
Соотношение сторон : 16:9
Режим частоты кадров : Постоянный
Частота кадров : 23,976 кадра/сек
Цветовое пространство : YUV
Субдискретизация насыщенности : 4:2:0
Битовая глубина : 8 бит
Тип развёртки : Прогрессивная
Бит/(Пиксели*Кадры) : 0.163
Размер потока : 1,09 Гбайт (89%)
Заголовок : 21. Turn of the Screws (Поворот винта)
Язык : English
Default : Да
Forced : Нет
Основные цвета : BT.709
Характеристики трансфера : BT.709
Коэффициенты матрицы : BT.709

Аудио #1
Идентификатор : 2
Формат : AC-3
Формат/Информация : Audio Coding 3
Расширение режима : CM (complete main)
Параметр Endianness формата : Big
Идентификатор кодека : A_AC3
Продолжительность : 43 м.
Вид битрейта : Постоянный
Битрейт : 192 Кбит/сек
Каналы : 2 канала
Расположение каналов : Front: L R
Частота : 48,0 КГц
Битовая глубина : 16 бит
Метод сжатия : С потерями
Размер потока : 59,6 Мбайт (5%)
Заголовок : ДТВ
Язык : Russian
Default : Да
Forced : Да

Аудио #2
Идентификатор : 3
Формат : AC-3
Формат/Информация : Audio Coding 3
Расширение режима : CM (complete main)
Параметр Endianness формата : Big
Идентификатор кодека : A_AC3
Продолжительность : 43 м.
Вид битрейта : Постоянный
Битрейт : 192 Кбит/сек
Каналы : 2 канала
Расположение каналов : Front: L R
Частота : 48,0 КГц
Битовая глубина : 16 бит
Метод сжатия : С потерями
Размер потока : 59,6 Мбайт (5%)
Заголовок : English
Язык : English
Default : Нет
Forced : Нет
Общее
Уникальный идентификатор : 192602155619137530152667881553931738729 (0x90E5D36D4487BE4F894035D741C31E69)
Полное имя : D:\UPLOADED\МОИ\CSI\CSI - Las-Vegas\S 04. CSI - Las-Vegas\22. No More Bets (Ставки больше не принимаются).mkv
Формат : Matroska
Версия формата : Version 4 / Version 2
Размер файла : 1,20 Гбайт
Продолжительность : 43 м.
Общий поток : 3920 Кбит/сек
Название фильма : 22. No More Bets (Ставки больше не принимаются)
Дата кодирования : UTC 2014-01-01 14:57:56
Программа кодирования : mkvmerge v6.3.0 ('You can't stop me!') built on Jul 19 2013 16:27:38
Библиотека кодирования : libebml v1.3.0 + libmatroska v1.4.1

Видео
Идентификатор : 1
Формат : AVC
Формат/Информация : Advanced Video Codec
Профиль формата : Main@L3.1
Параметр CABAC формата : Нет
Параметр ReFrames формата : 2 кадра
Параметр GOP формата : M=2, N=24
Идентификатор кодека : V_MPEG4/ISO/AVC
Продолжительность : 43 м.
Битрейт : 3458 Кбит/сек
Ширина : 1280 пикселей
Высота : 720 пикселей
Соотношение сторон : 16:9
Режим частоты кадров : Постоянный
Частота кадров : 23,976 кадра/сек
Цветовое пространство : YUV
Субдискретизация насыщенности : 4:2:0
Битовая глубина : 8 бит
Тип развёртки : Прогрессивная
Бит/(Пиксели*Кадры) : 0.156
Размер потока : 1,06 Гбайт (88%)
Заголовок : 22. No More Bets (Ставки больше не принимаются)
Язык : English
Default : Да
Forced : Нет
Основные цвета : BT.709
Характеристики трансфера : BT.709
Коэффициенты матрицы : BT.709

Аудио #1
Идентификатор : 2
Формат : AC-3
Формат/Информация : Audio Coding 3
Расширение режима : CM (complete main)
Параметр Endianness формата : Big
Идентификатор кодека : A_AC3
Продолжительность : 43 м.
Вид битрейта : Постоянный
Битрейт : 192 Кбит/сек
Каналы : 2 канала
Расположение каналов : Front: L R
Частота : 48,0 КГц
Битовая глубина : 16 бит
Метод сжатия : С потерями
Размер потока : 60,1 Мбайт (5%)
Заголовок : ДТВ
Язык : Russian
Default : Да
Forced : Да

Аудио #2
Идентификатор : 3
Формат : AC-3
Формат/Информация : Audio Coding 3
Расширение режима : CM (complete main)
Параметр Endianness формата : Big
Идентификатор кодека : A_AC3
Продолжительность : 43 м.
Вид битрейта : Постоянный
Битрейт : 192 Кбит/сек
Каналы : 2 канала
Расположение каналов : Front: L R
Частота : 48,0 КГц
Битовая глубина : 16 бит
Метод сжатия : С потерями
Размер потока : 60,1 Мбайт (5%)
Заголовок : English
Язык : English
Default : Нет
Forced : Нет
Общее
Уникальный идентификатор : 182122501204784577320949107608865482091 (0x8903849295973A358BD8CFBCABAC256B)
Полное имя : D:\UPLOADED\МОИ\CSI\CSI - Las-Vegas\S 04. CSI - Las-Vegas\23. Bloodlines (Кровные узы).mkv
Формат : Matroska
Версия формата : Version 4 / Version 2
Размер файла : 1,29 Гбайт
Продолжительность : 43 м.
Общий поток : 4258 Кбит/сек
Название фильма : 23. Bloodlines (Кровные узы)
Дата кодирования : UTC 2014-01-01 14:59:34
Программа кодирования : mkvmerge v6.3.0 ('You can't stop me!') built on Jul 19 2013 16:27:38
Библиотека кодирования : libebml v1.3.0 + libmatroska v1.4.1

Видео
Идентификатор : 1
Формат : AVC
Формат/Информация : Advanced Video Codec
Профиль формата : Main@L3.1
Параметр CABAC формата : Нет
Параметр ReFrames формата : 2 кадра
Параметр GOP формата : M=2, N=24
Идентификатор кодека : V_MPEG4/ISO/AVC
Продолжительность : 43 м.
Битрейт : 3789 Кбит/сек
Ширина : 1280 пикселей
Высота : 720 пикселей
Соотношение сторон : 16:9
Режим частоты кадров : Постоянный
Частота кадров : 23,976 кадра/сек
Цветовое пространство : YUV
Субдискретизация насыщенности : 4:2:0
Битовая глубина : 8 бит
Тип развёртки : Прогрессивная
Бит/(Пиксели*Кадры) : 0.171
Размер потока : 1,15 Гбайт (89%)
Заголовок : 23. Bloodlines (Кровные узы)
Язык : English
Default : Да
Forced : Нет
Основные цвета : BT.709
Характеристики трансфера : BT.709
Коэффициенты матрицы : BT.709

Аудио #1
Идентификатор : 2
Формат : AC-3
Формат/Информация : Audio Coding 3
Расширение режима : CM (complete main)
Параметр Endianness формата : Big
Идентификатор кодека : A_AC3
Продолжительность : 43 м.
Вид битрейта : Постоянный
Битрейт : 192 Кбит/сек
Каналы : 2 канала
Расположение каналов : Front: L R
Частота : 48,0 КГц
Битовая глубина : 16 бит
Метод сжатия : С потерями
Размер потока : 59,6 Мбайт (5%)
Заголовок : ДТВ
Язык : Russian
Default : Да
Forced : Да

Аудио #2
Идентификатор : 3
Формат : AC-3
Формат/Информация : Audio Coding 3
Расширение режима : CM (complete main)
Параметр Endianness формата : Big
Идентификатор кодека : A_AC3
Продолжительность : 43 м.
Вид битрейта : Постоянный
Битрейт : 192 Кбит/сек
Каналы : 2 канала
Расположение каналов : Front: L R
Частота : 48,0 КГц
Битовая глубина : 16 бит
Метод сжатия : С потерями
Размер потока : 59,6 Мбайт (5%)
Заголовок : English
Язык : English
Default : Нет
Forced : Нет

01. Assume Nothing (Предположений нет)
02. All for Our Country (Все для своей страны)
03. Homebodies (Домоседы)
04. Feeling the Heat (Почувствуй жару)
05. Fur and Loathing (Мех и ненависть)
06. Jackpot (Джекпот)
07. Invisible Evidence (Невидимая улика)
08. After the Show (После шоу)
09. Grissom Versus the Volcano (Гриссом против вулкана)
10. Coming of Rage (Приступ ярости)
11. Eleven Angry Jurors (Одиннадцать разгневанных присяжных)
12. Butterflied (Бабочки)
13. Suckers (Засранцы)
14. Paper or Plastic (Бумага или пластик)
15. Early Rollout (Ранний выход)
16. Getting Off (Сброшенный со счетов)
17. XX (XX)
18. Bad to the Bone (Смерть из-за фишки)
19. Bad Words (Дурные слова)
20. Dead Ringer (Смертельный звонок)
21. Turn of the Screws (Поворот винта)
22. No More Bets (Ставки больше не принимаются)
23. Bloodlines (Кровные узы)

Золотой глобус, 2001 год - Лучший драматический сериал, лучшая женская роль в драматическом сериале (Марж Хелгенбергер)
Золотой глобус, 2002 год - Лучший драматический сериал, лучшая женская роль на ТВ (Марж Хелгенбергер)
Золотой глобус, 2003 год - Лучшая женская роль на ТВ (Марж Хелгенбергер)
Эмми, 2004 год - Лучший драматический сериал
Золотой глобус, 2004 год - лучшая мужская роль (Уильям Л. Питерсен), лучший драматический сериал
Сатурн, 2005 год - лучший телесериал, созданный для телетрансляции
Сериал спародирован в:
1. Ангелы Чарли 2: Только вперед, 2003 (Charlie's Angels: Full Throttle)
2. CSI: Iowa, 2005
3. SSI: Sex Squad Investigation (видео), 2006
4. Американский выскочка, 2008 (An American Carol)
5. Hollywood's Nailin' Palin (видео), 2010
Уильям Петерсен (Гил Гриссом) работает в сериале по контракту «pay or play», показывающему, в общих словах, его незаменимость для проекта. Такой тип контрактов означает, что актёр получает деньги в любом случае — снимается он или нет. На нынешний момент Петерсен отсутствовал только в пяти эпизодах сериала, четыре из которых он пропустил по личным причинам.
Квентин Тарантино, режиссёр «Криминального чтива», снял два завершающих эпизода (24 и 25) 5 сезона сериала. Это произошло после того, как режиссёр признался в том, что он большой поклонник CSI и хотел бы сам снять «парочку серий» для него, а продюсеры ухватились за эту возможность и довели её до конца. Эпизоды, снятые Тарантино, безусловно выделяются из общего стиля сериала, и были выпущены в США на DVD в виде отдельного издания.
В каждом эпизоде сериала обязательно появляется несколько персонажей «на один эпизод», связанных с каким-то расследуемым преступлением. Некоторые из таких «одноэпизодных» актёров стали впоследствии звёздами в других сериалах. Например, это звезды сериала «Остаться в живых» — Джош Холлоуэй (Сойер), Дэниел Дэй Ким (Джин), Гарольд Перрино-мл. (Майкл), Иэн Сомерхолдер (Бун), Элизабет Митчелл (Джульет), Уильям Мапотер (Итан), Фредрик Лене (Маршал Эдвардс Марс), Кевин Дюранд (Мартин Кими). Также, в одном эпизоде CSI снималась звезда «Отчаянных домохозяек» Марсия Кросс (Бри Ван Де Камп). Ещё в одном эпизоде CSI играли: Майло Вентимилья — Питер Петрелли в сериале «Герои», Миша Коллинз — Кастиэль в сериале Сверхъестественное, Аманда Сейфрид Софи в «Мама Mia», любимец девушек Чад Майкл Мюррей, и юная звезда «Новолуния» Дакота Фаннинг. Так же в четырёх эпизодах вместо отсутствующего Уильяма Петерсена был введён персонаж Майкл Кепплер в исполнении Льва Шрайбера, а в пяти эпизодах появлялась Кей Панабэйкер, играющая Линдси Виллоу вместо Мэдисон МакРейнолдс. Так же звёздами эпизода были: Тейлор Свифт, Каризма Карпентер, Марк Дакаскос, Джастин Бибер
Сериал стал одной из главных причин возникновения так называемого «эффекта CSI», под которым понимают повышение общего уровня представлений о методах расследования преступлений, как у их жертв, так и у присяжных, рассматривающих дела в судах. «Эффект CSI» в целом повлиял на более критичную оценку доказательств, представляемых прокурорами на процессах, из-за чего последние стали предоставлять большее количество вещественных доказательств, в особенности тестов ДНК.
Хотя в целом сериал демонстрирует превосходство криминалистов над преступниками и трагическими обстоятельствами, в некоторых эпизодах показываются случаи когда закон и детективы бессильны и не способны наказать или даже найти преступника. Так, поиски «Миниатюриста» (вымышленного серийного убийцы, приносившего на места преступлений их миниатюрные модели со сценой убийства), длились весь 7 сезон и чуть не стоили жизни одному из криминалистов — Саре Сайдл. Косметолог, сделавший двум пациенткам смертельные внутривенные инъекции перекиси водорода, не был обвинён в уголовном преступлении, однако данные о его проступке были переданы семьям погибших для гражданского иска. Владелец казино, обвинявшийся в убийстве девушки, с помощью адвокатов и интриг был оправдан судом, несмотря на все усилия полицейских и криминалистов доказать его вину.
Несмотря на географическую привязанность к Лас-Вегасу, сериал в основном снимается в Калифорнии. В Лас-Вегасе работает только дополнительная съёмочная группа, которая по необходимости делает общие съёмки города. Первые пять сезонов снимались в городе Санта-Кларита, а с шестого — в Юниверсал Сити, городе расположенном на земле принадлежащей Universal Studios. Санта-Кларита была выбрана из-за своей похожести на окрестности настоящего Лас-Вегаса, причём все съёмки «вне помещений» до сих пор производятся там. При необходимости, однако, съёмочная группа и актёры выезжают в Лас-Вегас.
Отличительной особенностью сериала от реальной работы сотрудников криминалистических лабораторий является значительное отступление от процедуры полицейского расследования. В реальной жизни, преступления расследуют полицейские детективы, тогда как в сериале этим в основном занимаются сотрудники CSI, на самом деле не имеющие на это права. Случаи, когда полицейский детектив одновременно является и сотрудником криминалистической лаборатории, чрезвычайно редки.
Представители LGBT (сексуальных меньшинств) часто критикуют сериал за своё негативное представление, так как во многих сериях преступники или подозреваемые относятся к этим меньшинствам. С другой стороны, в сериале часто встречаются персонажи второго плана, которые относятся к LGBT, но показываются либо положительно, либо нейтрально, либо как жертвы преступлений из-за своего образа жизни.
В 9 сезоне главный герой сериала Гил Гриссом (Уильям Петерсен) уходит из шоу и актёр Лоуренс Фишборн начинает играть на постоянной основе. Однако, Гриссом появляется в одном из эпизодов 11 сезона...
jasinpapa
P.S. Большая просьба к скачавшим имеющим широкие каналы и объёмные винчестеры не уходить с раздачи как можно дольше!!!

Продолжительность: ~00:45:00 серия
Качество видео: WEB-DL 720p
Формат: MKV
Видеокодек: AVC
Битрейт видео: ~4000 Кбит/сек
Размер кадра: 1280x720 (16:9), 23,976 fps,~ 4000 Kbps
Аудиокодек: AC3
Битрейт аудио:
аудио rus: AC-3 at 192 Kbps 2 channels, 48.0 KHz, Профессиональный многоголосый - ДТВ
аудио eng: AC-3 at 192 Kbps 2 channels, 48.0 KHz, оригинальная дорожка
Место преступления: Лас-Вегас / CSI: Crime Scene Investigation все раздачи сериала

Скриншоты:

Время Раздачи: 24/7 - круглосуточно до 5 скачавших
[NNM-Club.me]_S 04. CSI - Las-Vegas.torrent
 Торрент: Платиновая раздача  Зарегистрирован
 
Скачать


Примагнититься
 Зарегистрирован:   07 Янв 2014 10:50:11
 Размер:   28,9 GB  (
 Рейтинг:   4,8 (Голосов: 25)
 Поблагодарили:   78
 Проверка:   Оформление проверено модератором 11 Янв 2014 00:51:37
Как cкачать  ·  Как раздать  ·  Правильно оформить  ·  Поднять ратио!  

_________________
На первом месте у меня семья и дети, а хобби =>Мои РЕЛИЗЫ <= в свободное от них время
Temnolis
Стаж: 8 лет 5 мес.
Сообщений: 13
Ratio: 2,732
70.3%
совсем нет раздачи :( :( :( :(
Показать сообщения:   
Начать новую тему   Ответить на тему    Торрент-трекер NNM-Club -> Зарубежные сериалы -> Место преступления / CSI Часовой пояс: GMT + 3
Страница 1 из 1