Классический форум-трекер
canvas not supported
Нас вместе: 4 077 757

C.S.I. Место преступления: Лас-Вегас / CSI: Crime Scene Investigation: Las Vegas (2005-2006) [720p] WEB-DL (сезон 6, серии 1-24 из 24) ДТВ


 
 
RSS
Начать новую тему   Ответить на тему    Торрент-трекер NNM-Club -> Зарубежные сериалы -> Место преступления / CSI
Автор Сообщение
WOLF 80 ®
Uploader 100+
Стаж: 10 лет 1 мес.
Сообщений: 480
Ratio: 3902,785
Раздал: 156,9 TB
Поблагодарили: 30310
100%
Откуда: Санкт-Петербург
russia.gif
C.S.I. Место преступления: Лас-Вегас /
CSI: Crime Scene Investigation: Las Vegas

«Как следует подготовься к сезону убийств»
Русское название: C.S.I. Место преступления: Лас-Вегас
Оригинальное название: CSI: Crime Scene Investigation: Las Vegas
Год выпуска: 2005-2006
Жанр: Детектив, триллер, драма, криминал

Перевод: Профессиональный многоголосый закадровый - ДТВ


Дата мировой премьеры: с 22.09.2005 по 18.05.2006

Режиссер: Кеннет Финк, Ричард Дж. Льюис, Алек Смайт
Актеры: Уильям Л. Питерсен (Gil Grissom), Марж Хелгенбергер (Catherine Willows), Джордж Идс (Nick Stokes), Гари Дурдан (Warrick Brown), Джоржа Фокс (Sara Sidle), Пол Гилфойл (Captain Jim Brass), Эрик Шманда (Greg Sanders), Роберт Дэвид Холл (Dr. Al Robbins), Дэвид Берман (David Phillips), Уоллес Лэнгэм (David Hodges), Арчи Као (Archie Johnson), Лиз Вэсси (Wendy Simms)

Описание фильма: Лас-Вегас… Своими яркими неоновыми огнями, сотнями игровых клубов и казино он манит всё новых и новых людей. Но далеко не все из них оказываются добропорядочными гражданами. В огромном людском потоке частенько прячутся преступники всех мастей. Они убеждены, что их злодеяния останутся незамеченными. Но они сильно ошибаются, ведь в городе работает неутомимая команда полиции C.S.I. Когда следствие заходит в тупик, в игру вступает группа супер профессиональных криминалистов во главе с капитаном Гриссомом. В культовом сериале, лауреате престижных американских премий «Эмми» и «Золотой глобус», столь полюбившиеся зрителям члены команды криминалистической лаборатории C.S.I. продолжат самоотверженно распутывать казалось бы безнадёжные случаи и с честью выходить из самых сложных ситуаций. Героям сериала при помощи новейших научных и технических разработок предстоит расследовать череду загадочных убийств, похищений и даже ритуальных жертвоприношений. Для них нет ничего невозможного. В городе разбитых надежд и несбывшихся мечтаний они найдут ключи к тайнам самых загадочных преступлений. И тогда всё тайное станет явным.
1 СЕЗОН BDRip 720p
2 СЕЗОН WEB-DL 720p
3 СЕЗОН WEB-DL 720p
4 СЕЗОН WEB-DL 720p
5 СЕЗОН WEB-DL 720p
7 СЕЗОН WEB-DL 720p
8 СЕЗОН BDRip 720p
9 СЕЗОН BDRip 720p
10 СЕЗОН WEB-DL 720p

Общее
Уникальный идентификатор : 186893881120948149879236791770973606714 (0x8C9A73C3DC86A00A939C9B0FFA1A133A)
Полное имя : D:\UPLOADED\МОИ\CSI\CSI - Las-Vegas\S 06. CSI - Las-Vegas\01. Bodies in Motion (Тела в движении).mkv
Формат : Matroska
Версия формата : Version 4 / Version 2
Размер файла : 1,29 Гбайт
Продолжительность : 43 м.
Общий поток : 4274 Кбит/сек
Название фильма : 01. Bodies in Motion (Тела в движении)
Дата кодирования : UTC 2014-01-02 11:53:29
Программа кодирования : mkvmerge v6.3.0 ('You can't stop me!') built on Jul 19 2013 16:27:38
Библиотека кодирования : libebml v1.3.0 + libmatroska v1.4.1

Видео
Идентификатор : 1
Формат : AVC
Формат/Информация : Advanced Video Codec
Профиль формата : Main@L3.1
Параметр CABAC формата : Нет
Параметр ReFrames формата : 2 кадра
Параметр GOP формата : M=2, N=24
Идентификатор кодека : V_MPEG4/ISO/AVC
Продолжительность : 43 м.
Битрейт : 3805 Кбит/сек
Ширина : 1280 пикселей
Высота : 720 пикселей
Соотношение сторон : 16:9
Режим частоты кадров : Постоянный
Частота кадров : 23,976 кадра/сек
Цветовое пространство : YUV
Субдискретизация насыщенности : 4:2:0
Битовая глубина : 8 бит
Тип развёртки : Прогрессивная
Бит/(Пиксели*Кадры) : 0.172
Размер потока : 1,15 Гбайт (89%)
Заголовок : 01. Bodies in Motion (Тела в движении)
Язык : English
Default : Да
Forced : Нет
Основные цвета : BT.709
Характеристики трансфера : BT.709
Коэффициенты матрицы : BT.709

Аудио #1
Идентификатор : 2
Формат : AC-3
Формат/Информация : Audio Coding 3
Расширение режима : CM (complete main)
Параметр Endianness формата : Big
Идентификатор кодека : A_AC3
Продолжительность : 43 м.
Вид битрейта : Постоянный
Битрейт : 192 Кбит/сек
Каналы : 2 канала
Расположение каналов : Front: L R
Частота : 48,0 КГц
Битовая глубина : 16 бит
Метод сжатия : С потерями
Размер потока : 59,5 Мбайт (4%)
Заголовок : ДТВ
Язык : Russian
Default : Да
Forced : Да

Аудио #2
Идентификатор : 3
Формат : AC-3
Формат/Информация : Audio Coding 3
Расширение режима : CM (complete main)
Параметр Endianness формата : Big
Идентификатор кодека : A_AC3
Продолжительность : 43 м.
Вид битрейта : Постоянный
Битрейт : 192 Кбит/сек
Каналы : 2 канала
Расположение каналов : Front: L R
Частота : 48,0 КГц
Битовая глубина : 16 бит
Метод сжатия : С потерями
Размер потока : 59,5 Мбайт (4%)
Заголовок : English
Язык : English
Default : Нет
Forced : Нет
Общее
Уникальный идентификатор : 236315813948871028781287259905557660333 (0xB1C8C52E8E52759C8A48481BE18E02AD)
Полное имя : D:\UPLOADED\МОИ\CSI\CSI - Las-Vegas\S 06. CSI - Las-Vegas\02. Room Service (Обслуживание в номер).mkv
Формат : Matroska
Версия формата : Version 4 / Version 2
Размер файла : 1,41 Гбайт
Продолжительность : 43 м.
Общий поток : 4590 Кбит/сек
Название фильма : 02. Room Service (Обслуживание в номер)
Дата кодирования : UTC 2014-01-02 11:54:28
Программа кодирования : mkvmerge v6.3.0 ('You can't stop me!') built on Jul 19 2013 16:27:38
Библиотека кодирования : libebml v1.3.0 + libmatroska v1.4.1

Видео
Идентификатор : 1
Формат : AVC
Формат/Информация : Advanced Video Codec
Профиль формата : Main@L3.1
Параметр CABAC формата : Нет
Параметр ReFrames формата : 2 кадра
Параметр GOP формата : M=2, N=24
Идентификатор кодека : V_MPEG4/ISO/AVC
Продолжительность : 43 м.
Битрейт : 4115 Кбит/сек
Ширина : 1280 пикселей
Высота : 720 пикселей
Соотношение сторон : 16:9
Режим частоты кадров : Постоянный
Частота кадров : 23,976 кадра/сек
Цветовое пространство : YUV
Субдискретизация насыщенности : 4:2:0
Битовая глубина : 8 бит
Тип развёртки : Прогрессивная
Бит/(Пиксели*Кадры) : 0.186
Размер потока : 1,26 Гбайт (90%)
Заголовок : 02. Room Service (Обслуживание в номер)
Язык : English
Default : Да
Forced : Нет
Основные цвета : BT.709
Характеристики трансфера : BT.709
Коэффициенты матрицы : BT.709

Аудио #1
Идентификатор : 2
Формат : AC-3
Формат/Информация : Audio Coding 3
Расширение режима : CM (complete main)
Параметр Endianness формата : Big
Идентификатор кодека : A_AC3
Продолжительность : 43 м.
Вид битрейта : Постоянный
Битрейт : 192 Кбит/сек
Каналы : 2 канала
Расположение каналов : Front: L R
Частота : 48,0 КГц
Битовая глубина : 16 бит
Метод сжатия : С потерями
Размер потока : 60,2 Мбайт (4%)
Заголовок : ДТВ
Язык : Russian
Default : Да
Forced : Да

Аудио #2
Идентификатор : 3
Формат : AC-3
Формат/Информация : Audio Coding 3
Расширение режима : CM (complete main)
Параметр Endianness формата : Big
Идентификатор кодека : A_AC3
Продолжительность : 43 м.
Вид битрейта : Постоянный
Битрейт : 192 Кбит/сек
Каналы : 2 канала
Расположение каналов : Front: L R
Частота : 48,0 КГц
Битовая глубина : 16 бит
Метод сжатия : С потерями
Размер потока : 60,2 Мбайт (4%)
Заголовок : English
Язык : English
Default : Нет
Forced : Нет
Общее
Уникальный идентификатор : 186860957832157942997134099800659448741 (0x8C941C8588F9E1B0BF32A269FCF5D3A5)
Полное имя : D:\UPLOADED\МОИ\CSI\CSI - Las-Vegas\S 06. CSI - Las-Vegas\03. Bite Me (Укуси меня).mkv
Формат : Matroska
Версия формата : Version 4 / Version 2
Размер файла : 1,37 Гбайт
Продолжительность : 44 м.
Общий поток : 4451 Кбит/сек
Название фильма : 03. Bite Me (Укуси меня)
Дата кодирования : UTC 2014-01-02 12:42:17
Программа кодирования : mkvmerge v6.3.0 ('You can't stop me!') built on Jul 19 2013 16:27:38
Библиотека кодирования : libebml v1.3.0 + libmatroska v1.4.1

Видео
Идентификатор : 1
Формат : AVC
Формат/Информация : Advanced Video Codec
Профиль формата : Main@L3.1
Параметр CABAC формата : Нет
Параметр ReFrames формата : 2 кадра
Параметр GOP формата : M=2, N=24
Идентификатор кодека : V_MPEG4/ISO/AVC
Продолжительность : 44 м.
Битрейт : 3978 Кбит/сек
Ширина : 1280 пикселей
Высота : 720 пикселей
Соотношение сторон : 16:9
Режим частоты кадров : Постоянный
Частота кадров : 23,976 кадра/сек
Цветовое пространство : YUV
Субдискретизация насыщенности : 4:2:0
Битовая глубина : 8 бит
Тип развёртки : Прогрессивная
Бит/(Пиксели*Кадры) : 0.180
Размер потока : 1,23 Гбайт (89%)
Заголовок : 03. Bite Me (Укуси меня)
Язык : English
Default : Да
Forced : Нет
Основные цвета : BT.709
Характеристики трансфера : BT.709
Коэффициенты матрицы : BT.709

Аудио #1
Идентификатор : 2
Формат : AC-3
Формат/Информация : Audio Coding 3
Расширение режима : CM (complete main)
Параметр Endianness формата : Big
Идентификатор кодека : A_AC3
Продолжительность : 44 м.
Вид битрейта : Постоянный
Битрейт : 192 Кбит/сек
Каналы : 2 канала
Расположение каналов : Front: L R
Частота : 48,0 КГц
Битовая глубина : 16 бит
Метод сжатия : С потерями
Размер потока : 60,6 Мбайт (4%)
Заголовок : ДТВ
Язык : Russian
Default : Да
Forced : Да

Аудио #2
Идентификатор : 3
Формат : AC-3
Формат/Информация : Audio Coding 3
Расширение режима : CM (complete main)
Параметр Endianness формата : Big
Идентификатор кодека : A_AC3
Продолжительность : 44 м.
Вид битрейта : Постоянный
Битрейт : 192 Кбит/сек
Каналы : 2 канала
Расположение каналов : Front: L R
Частота : 48,0 КГц
Битовая глубина : 16 бит
Метод сжатия : С потерями
Размер потока : 60,6 Мбайт (4%)
Заголовок : English
Язык : English
Default : Нет
Forced : Нет
Общее
Уникальный идентификатор : 196657730023989697399628937919566649342 (0x93F2E6AECE93BD60BD4963D5FD0717FE)
Полное имя : D:\UPLOADED\МОИ\CSI\CSI - Las-Vegas\S 06. CSI - Las-Vegas\04. Shooting Stars (Взрывающиеся звезды).mkv
Формат : Matroska
Версия формата : Version 4 / Version 2
Размер файла : 1,34 Гбайт
Продолжительность : 44 м.
Общий поток : 4349 Кбит/сек
Название фильма : 04. Shooting Stars (Взрывающиеся звезды)
Дата кодирования : UTC 2014-01-02 12:43:17
Программа кодирования : mkvmerge v6.3.0 ('You can't stop me!') built on Jul 19 2013 16:27:38
Библиотека кодирования : libebml v1.3.0 + libmatroska v1.4.1

Видео
Идентификатор : 1
Формат : AVC
Формат/Информация : Advanced Video Codec
Профиль формата : Main@L3.1
Параметр CABAC формата : Нет
Параметр ReFrames формата : 2 кадра
Параметр GOP формата : M=2, N=24
Идентификатор кодека : V_MPEG4/ISO/AVC
Продолжительность : 44 м.
Битрейт : 3879 Кбит/сек
Ширина : 1280 пикселей
Высота : 720 пикселей
Соотношение сторон : 16:9
Режим частоты кадров : Постоянный
Частота кадров : 23,976 кадра/сек
Цветовое пространство : YUV
Субдискретизация насыщенности : 4:2:0
Битовая глубина : 8 бит
Тип развёртки : Прогрессивная
Бит/(Пиксели*Кадры) : 0.176
Размер потока : 1,20 Гбайт (89%)
Заголовок : 04. Shooting Stars (Взрывающиеся звезды)
Язык : English
Default : Да
Forced : Нет
Основные цвета : BT.709
Характеристики трансфера : BT.709
Коэффициенты матрицы : BT.709

Аудио #1
Идентификатор : 2
Формат : AC-3
Формат/Информация : Audio Coding 3
Расширение режима : CM (complete main)
Параметр Endianness формата : Big
Идентификатор кодека : A_AC3
Продолжительность : 44 м.
Вид битрейта : Постоянный
Битрейт : 192 Кбит/сек
Каналы : 2 канала
Расположение каналов : Front: L R
Частота : 48,0 КГц
Битовая глубина : 16 бит
Метод сжатия : С потерями
Размер потока : 60,6 Мбайт (4%)
Заголовок : ДТВ
Язык : Russian
Default : Да
Forced : Да

Аудио #2
Идентификатор : 3
Формат : AC-3
Формат/Информация : Audio Coding 3
Расширение режима : CM (complete main)
Параметр Endianness формата : Big
Идентификатор кодека : A_AC3
Продолжительность : 44 м.
Вид битрейта : Постоянный
Битрейт : 192 Кбит/сек
Каналы : 2 канала
Расположение каналов : Front: L R
Частота : 48,0 КГц
Битовая глубина : 16 бит
Метод сжатия : С потерями
Размер потока : 60,6 Мбайт (4%)
Заголовок : English
Язык : English
Default : Нет
Forced : Нет
Общее
Уникальный идентификатор : 237883215901184056100098391030293357431 (0xB2F6A41085E98F9292DCA5C6FFC86377)
Полное имя : D:\UPLOADED\МОИ\CSI\CSI - Las-Vegas\S 06. CSI - Las-Vegas\05. Gum Drops (Жвачка).mkv
Формат : Matroska
Версия формата : Version 4 / Version 2
Размер файла : 1,44 Гбайт
Продолжительность : 44 м.
Общий поток : 4606 Кбит/сек
Название фильма : 05. Gum Drops (Жвачка)
Дата кодирования : UTC 2014-01-02 12:44:43
Программа кодирования : mkvmerge v6.3.0 ('You can't stop me!') built on Jul 19 2013 16:27:38
Библиотека кодирования : libebml v1.3.0 + libmatroska v1.4.1

Видео
Идентификатор : 1
Формат : AVC
Формат/Информация : Advanced Video Codec
Профиль формата : Main@L3.1
Параметр CABAC формата : Нет
Параметр ReFrames формата : 2 кадра
Параметр GOP формата : M=2, N=24
Идентификатор кодека : V_MPEG4/ISO/AVC
Продолжительность : 44 м.
Битрейт : 4131 Кбит/сек
Ширина : 1280 пикселей
Высота : 720 пикселей
Соотношение сторон : 16:9
Режим частоты кадров : Постоянный
Частота кадров : 23,976 кадра/сек
Цветовое пространство : YUV
Субдискретизация насыщенности : 4:2:0
Битовая глубина : 8 бит
Тип развёртки : Прогрессивная
Бит/(Пиксели*Кадры) : 0.187
Размер потока : 1,29 Гбайт (90%)
Заголовок : 05. Gum Drops (Жвачка)
Язык : English
Default : Да
Forced : Нет
Основные цвета : BT.709
Характеристики трансфера : BT.709
Коэффициенты матрицы : BT.709

Аудио #1
Идентификатор : 2
Формат : AC-3
Формат/Информация : Audio Coding 3
Расширение режима : CM (complete main)
Параметр Endianness формата : Big
Идентификатор кодека : A_AC3
Продолжительность : 44 м.
Вид битрейта : Постоянный
Битрейт : 192 Кбит/сек
Каналы : 2 канала
Расположение каналов : Front: L R
Частота : 48,0 КГц
Битовая глубина : 16 бит
Метод сжатия : С потерями
Размер потока : 61,4 Мбайт (4%)
Заголовок : ДТВ
Язык : Russian
Default : Да
Forced : Да

Аудио #2
Идентификатор : 3
Формат : AC-3
Формат/Информация : Audio Coding 3
Расширение режима : CM (complete main)
Параметр Endianness формата : Big
Идентификатор кодека : A_AC3
Продолжительность : 44 м.
Вид битрейта : Постоянный
Битрейт : 192 Кбит/сек
Каналы : 2 канала
Расположение каналов : Front: L R
Частота : 48,0 КГц
Битовая глубина : 16 бит
Метод сжатия : С потерями
Размер потока : 61,4 Мбайт (4%)
Заголовок : English
Язык : English
Default : Нет
Forced : Нет
Общее
Уникальный идентификатор : 215118767387560180638413186520721951878 (0xA1D65E19245E4D9BB01AF393ED548C86)
Полное имя : D:\UPLOADED\МОИ\CSI\CSI - Las-Vegas\S 06. CSI - Las-Vegas\06. Secrets & Flies (Секреты и мухи).mkv
Формат : Matroska
Версия формата : Version 4 / Version 2
Размер файла : 1,32 Гбайт
Продолжительность : 44 м.
Общий поток : 4291 Кбит/сек
Название фильма : 06. Secrets & Flies (Секреты и мухи)
Дата кодирования : UTC 2014-01-02 12:46:07
Программа кодирования : mkvmerge v6.3.0 ('You can't stop me!') built on Jul 19 2013 16:27:38
Библиотека кодирования : libebml v1.3.0 + libmatroska v1.4.1

Видео
Идентификатор : 1
Формат : AVC
Формат/Информация : Advanced Video Codec
Профиль формата : Main@L3.1
Параметр CABAC формата : Нет
Параметр ReFrames формата : 2 кадра
Параметр GOP формата : M=2, N=24
Идентификатор кодека : V_MPEG4/ISO/AVC
Продолжительность : 44 м.
Битрейт : 3822 Кбит/сек
Ширина : 1280 пикселей
Высота : 720 пикселей
Соотношение сторон : 16:9
Режим частоты кадров : Постоянный
Частота кадров : 23,976 кадра/сек
Цветовое пространство : YUV
Субдискретизация насыщенности : 4:2:0
Битовая глубина : 8 бит
Тип развёртки : Прогрессивная
Бит/(Пиксели*Кадры) : 0.173
Размер потока : 1,18 Гбайт (89%)
Заголовок : 06. Secrets & Flies (Секреты и мухи)
Язык : English
Default : Да
Forced : Нет
Основные цвета : BT.709
Характеристики трансфера : BT.709
Коэффициенты матрицы : BT.709

Аудио #1
Идентификатор : 2
Формат : AC-3
Формат/Информация : Audio Coding 3
Расширение режима : CM (complete main)
Параметр Endianness формата : Big
Идентификатор кодека : A_AC3
Продолжительность : 44 м.
Вид битрейта : Постоянный
Битрейт : 192 Кбит/сек
Каналы : 2 канала
Расположение каналов : Front: L R
Частота : 48,0 КГц
Битовая глубина : 16 бит
Метод сжатия : С потерями
Размер потока : 60,6 Мбайт (4%)
Заголовок : ДТВ
Язык : Russian
Default : Да
Forced : Да

Аудио #2
Идентификатор : 3
Формат : AC-3
Формат/Информация : Audio Coding 3
Расширение режима : CM (complete main)
Параметр Endianness формата : Big
Идентификатор кодека : A_AC3
Продолжительность : 44 м.
Вид битрейта : Постоянный
Битрейт : 192 Кбит/сек
Каналы : 2 канала
Расположение каналов : Front: L R
Частота : 48,0 КГц
Битовая глубина : 16 бит
Метод сжатия : С потерями
Размер потока : 60,6 Мбайт (4%)
Заголовок : English
Язык : English
Default : Нет
Forced : Нет
Общее
Уникальный идентификатор : 234056355609491416343882528896622119548 (0xB0159D48F0FC62899243E2E88929CA7C)
Полное имя : D:\UPLOADED\МОИ\CSI\CSI - Las-Vegas\S 06. CSI - Las-Vegas\07. A Bullet Runs Through It, Part 1 (Пуля проходит на вылет, Часть 1).mkv
Формат : Matroska
Версия формата : Version 4 / Version 2
Размер файла : 1,26 Гбайт
Продолжительность : 40 м.
Общий поток : 4389 Кбит/сек
Название фильма : 07. A Bullet Runs Through It, Part 1 (Пуля проходит на вылет, Часть 1)
Дата кодирования : UTC 2014-01-02 12:47:20
Программа кодирования : mkvmerge v6.3.0 ('You can't stop me!') built on Jul 19 2013 16:27:38
Библиотека кодирования : libebml v1.3.0 + libmatroska v1.4.1

Видео
Идентификатор : 1
Формат : AVC
Формат/Информация : Advanced Video Codec
Профиль формата : Main@L3.1
Параметр CABAC формата : Нет
Параметр ReFrames формата : 2 кадра
Параметр GOP формата : M=2, N=24
Идентификатор кодека : V_MPEG4/ISO/AVC
Продолжительность : 40 м.
Битрейт : 3918 Кбит/сек
Ширина : 1280 пикселей
Высота : 720 пикселей
Соотношение сторон : 16:9
Режим частоты кадров : Постоянный
Частота кадров : 23,976 кадра/сек
Цветовое пространство : YUV
Субдискретизация насыщенности : 4:2:0
Битовая глубина : 8 бит
Тип развёртки : Прогрессивная
Бит/(Пиксели*Кадры) : 0.177
Размер потока : 1,12 Гбайт (89%)
Заголовок : 07. A Bullet Runs Through It, Part 1 (Пуля проходит на вылет, Часть 1)
Язык : English
Default : Да
Forced : Нет
Основные цвета : BT.709
Характеристики трансфера : BT.709
Коэффициенты матрицы : BT.709

Аудио #1
Идентификатор : 2
Формат : AC-3
Формат/Информация : Audio Coding 3
Расширение режима : CM (complete main)
Параметр Endianness формата : Big
Идентификатор кодека : A_AC3
Продолжительность : 40 м.
Вид битрейта : Постоянный
Битрейт : 192 Кбит/сек
Каналы : 2 канала
Расположение каналов : Front: L R
Частота : 48,0 КГц
Битовая глубина : 16 бит
Метод сжатия : С потерями
Размер потока : 56,3 Мбайт (4%)
Заголовок : ДТВ
Язык : Russian
Default : Да
Forced : Да

Аудио #2
Идентификатор : 3
Формат : AC-3
Формат/Информация : Audio Coding 3
Расширение режима : CM (complete main)
Параметр Endianness формата : Big
Идентификатор кодека : A_AC3
Продолжительность : 40 м.
Вид битрейта : Постоянный
Битрейт : 192 Кбит/сек
Каналы : 2 канала
Расположение каналов : Front: L R
Частота : 48,0 КГц
Битовая глубина : 16 бит
Метод сжатия : С потерями
Размер потока : 56,3 Мбайт (4%)
Заголовок : English
Язык : English
Default : Нет
Forced : Нет
Общее
Уникальный идентификатор : 216337699556451664401351606577325219343 (0xA2C1201816AA8D20BAC048259BCD1E0F)
Полное имя : D:\UPLOADED\МОИ\CSI\CSI - Las-Vegas\S 06. CSI - Las-Vegas\08. A Bullet Runs Through It, Part 2 (Пуля проходит на вылет, Часть 2).mkv
Формат : Matroska
Версия формата : Version 4 / Version 2
Размер файла : 1,40 Гбайт
Продолжительность : 43 м.
Общий поток : 4586 Кбит/сек
Название фильма : 08. A Bullet Runs Through It, Part 2 (Пуля проходит на вылет, Часть 2)
Дата кодирования : UTC 2014-01-02 12:48:31
Программа кодирования : mkvmerge v6.3.0 ('You can't stop me!') built on Jul 19 2013 16:27:38
Библиотека кодирования : libebml v1.3.0 + libmatroska v1.4.1

Видео
Идентификатор : 1
Формат : AVC
Формат/Информация : Advanced Video Codec
Профиль формата : Main@L3.1
Параметр CABAC формата : Нет
Параметр ReFrames формата : 2 кадра
Параметр GOP формата : M=2, N=24
Идентификатор кодека : V_MPEG4/ISO/AVC
Продолжительность : 43 м.
Битрейт : 4110 Кбит/сек
Ширина : 1280 пикселей
Высота : 720 пикселей
Соотношение сторон : 16:9
Режим частоты кадров : Постоянный
Частота кадров : 23,976 кадра/сек
Цветовое пространство : YUV
Субдискретизация насыщенности : 4:2:0
Битовая глубина : 8 бит
Тип развёртки : Прогрессивная
Бит/(Пиксели*Кадры) : 0.186
Размер потока : 1,26 Гбайт (90%)
Заголовок : 08. A Bullet Runs Through It, Part 2 (Пуля проходит на вылет, Часть 2)
Язык : English
Default : Да
Forced : Нет
Основные цвета : BT.709
Характеристики трансфера : BT.709
Коэффициенты матрицы : BT.709

Аудио #1
Идентификатор : 2
Формат : AC-3
Формат/Информация : Audio Coding 3
Расширение режима : CM (complete main)
Параметр Endianness формата : Big
Идентификатор кодека : A_AC3
Продолжительность : 43 м.
Вид битрейта : Постоянный
Битрейт : 192 Кбит/сек
Каналы : 2 канала
Расположение каналов : Front: L R
Частота : 48,0 КГц
Битовая глубина : 16 бит
Метод сжатия : С потерями
Размер потока : 60,2 Мбайт (4%)
Заголовок : ДТВ
Язык : Russian
Default : Да
Forced : Да

Аудио #2
Идентификатор : 3
Формат : AC-3
Формат/Информация : Audio Coding 3
Расширение режима : CM (complete main)
Параметр Endianness формата : Big
Идентификатор кодека : A_AC3
Продолжительность : 43 м.
Вид битрейта : Постоянный
Битрейт : 192 Кбит/сек
Каналы : 2 канала
Расположение каналов : Front: L R
Частота : 48,0 КГц
Битовая глубина : 16 бит
Метод сжатия : С потерями
Размер потока : 60,2 Мбайт (4%)
Заголовок : English
Язык : English
Default : Нет
Forced : Нет
Общее
Уникальный идентификатор : 189715329204788959935758711686318096392 (0x8EB9D7E54AECA1F29A9D306E51898008)
Полное имя : D:\UPLOADED\МОИ\CSI\CSI - Las-Vegas\S 06. CSI - Las-Vegas\09. Dog Eat Dog (Пес поедает пса).mkv
Формат : Matroska
Версия формата : Version 4 / Version 2
Размер файла : 1,24 Гбайт
Продолжительность : 42 м.
Общий поток : 4224 Кбит/сек
Название фильма : 09. Dog Eat Dog (Пес поедает пса)
Дата кодирования : UTC 2014-01-02 12:49:53
Программа кодирования : mkvmerge v6.3.0 ('You can't stop me!') built on Jul 19 2013 16:27:38
Библиотека кодирования : libebml v1.3.0 + libmatroska v1.4.1

Видео
Идентификатор : 1
Формат : AVC
Формат/Информация : Advanced Video Codec
Профиль формата : Main@L3.1
Параметр CABAC формата : Нет
Параметр ReFrames формата : 2 кадра
Параметр GOP формата : M=2, N=24
Идентификатор кодека : V_MPEG4/ISO/AVC
Продолжительность : 42 м.
Битрейт : 3756 Кбит/сек
Ширина : 1280 пикселей
Высота : 720 пикселей
Соотношение сторон : 16:9
Режим частоты кадров : Постоянный
Частота кадров : 23,976 кадра/сек
Цветовое пространство : YUV
Субдискретизация насыщенности : 4:2:0
Битовая глубина : 8 бит
Тип развёртки : Прогрессивная
Бит/(Пиксели*Кадры) : 0.170
Размер потока : 1,11 Гбайт (89%)
Заголовок : 09. Dog Eat Dog (Пес поедает пса)
Язык : English
Default : Да
Forced : Нет
Основные цвета : BT.709
Характеристики трансфера : BT.709
Коэффициенты матрицы : BT.709

Аудио #1
Идентификатор : 2
Формат : AC-3
Формат/Информация : Audio Coding 3
Расширение режима : CM (complete main)
Параметр Endianness формата : Big
Идентификатор кодека : A_AC3
Продолжительность : 42 м.
Вид битрейта : Постоянный
Битрейт : 192 Кбит/сек
Каналы : 2 канала
Расположение каналов : Front: L R
Частота : 48,0 КГц
Битовая глубина : 16 бит
Метод сжатия : С потерями
Размер потока : 57,9 Мбайт (5%)
Заголовок : ДТВ
Язык : Russian
Default : Да
Forced : Да

Аудио #2
Идентификатор : 3
Формат : AC-3
Формат/Информация : Audio Coding 3
Расширение режима : CM (complete main)
Параметр Endianness формата : Big
Идентификатор кодека : A_AC3
Продолжительность : 42 м.
Вид битрейта : Постоянный
Битрейт : 192 Кбит/сек
Каналы : 2 канала
Расположение каналов : Front: L R
Частота : 48,0 КГц
Битовая глубина : 16 бит
Метод сжатия : С потерями
Размер потока : 57,9 Мбайт (5%)
Заголовок : English
Язык : English
Default : Нет
Forced : Нет
Общее
Уникальный идентификатор : 184590605098539849671405590978642250295 (0x8ADEDB7D555039EEB00417BBB8CF0A37)
Полное имя : D:\UPLOADED\МОИ\CSI\CSI - Las-Vegas\S 06. CSI - Las-Vegas\10. Still Life (Продолжая жить).mkv
Формат : Matroska
Версия формата : Version 4 / Version 2
Размер файла : 1,29 Гбайт
Продолжительность : 43 м.
Общий поток : 4249 Кбит/сек
Название фильма : 10. Still Life (Продолжая жить)
Дата кодирования : UTC 2014-01-02 12:50:55
Программа кодирования : mkvmerge v6.3.0 ('You can't stop me!') built on Jul 19 2013 16:27:38
Библиотека кодирования : libebml v1.3.0 + libmatroska v1.4.1

Видео
Идентификатор : 1
Формат : AVC
Формат/Информация : Advanced Video Codec
Профиль формата : Main@L3.1
Параметр CABAC формата : Нет
Параметр ReFrames формата : 2 кадра
Параметр GOP формата : M=2, N=24
Идентификатор кодека : V_MPEG4/ISO/AVC
Продолжительность : 43 м.
Битрейт : 3780 Кбит/сек
Ширина : 1280 пикселей
Высота : 720 пикселей
Соотношение сторон : 16:9
Режим частоты кадров : Постоянный
Частота кадров : 23,976 кадра/сек
Цветовое пространство : YUV
Субдискретизация насыщенности : 4:2:0
Битовая глубина : 8 бит
Тип развёртки : Прогрессивная
Бит/(Пиксели*Кадры) : 0.171
Размер потока : 1,14 Гбайт (89%)
Заголовок : 10. Still Life (Продолжая жить)
Язык : English
Default : Да
Forced : Нет
Основные цвета : BT.709
Характеристики трансфера : BT.709
Коэффициенты матрицы : BT.709

Аудио #1
Идентификатор : 2
Формат : AC-3
Формат/Информация : Audio Coding 3
Расширение режима : CM (complete main)
Параметр Endianness формата : Big
Идентификатор кодека : A_AC3
Продолжительность : 43 м.
Вид битрейта : Постоянный
Битрейт : 192 Кбит/сек
Каналы : 2 канала
Расположение каналов : Front: L R
Частота : 48,0 КГц
Битовая глубина : 16 бит
Метод сжатия : С потерями
Размер потока : 59,5 Мбайт (5%)
Заголовок : ДТВ
Язык : Russian
Default : Да
Forced : Да

Аудио #2
Идентификатор : 3
Формат : AC-3
Формат/Информация : Audio Coding 3
Расширение режима : CM (complete main)
Параметр Endianness формата : Big
Идентификатор кодека : A_AC3
Продолжительность : 43 м.
Вид битрейта : Постоянный
Битрейт : 192 Кбит/сек
Каналы : 2 канала
Расположение каналов : Front: L R
Частота : 48,0 КГц
Битовая глубина : 16 бит
Метод сжатия : С потерями
Размер потока : 59,5 Мбайт (5%)
Заголовок : English
Язык : English
Default : Нет
Forced : Нет
Общее
Уникальный идентификатор : 235672233948780979382387265336810720531 (0xB14CD23CEEC51841A98DD141B384CD13)
Полное имя : D:\UPLOADED\МОИ\CSI\CSI - Las-Vegas\S 06. CSI - Las-Vegas\11. Werewolves (Вервульфы).mkv
Формат : Matroska
Версия формата : Version 4 / Version 2
Размер файла : 1,30 Гбайт
Продолжительность : 44 м.
Общий поток : 4225 Кбит/сек
Название фильма : 11. Werewolves (Вервульфы)
Дата кодирования : UTC 2014-01-02 12:52:03
Программа кодирования : mkvmerge v6.3.0 ('You can't stop me!') built on Jul 19 2013 16:27:38
Библиотека кодирования : libebml v1.3.0 + libmatroska v1.4.1

Видео
Идентификатор : 1
Формат : AVC
Формат/Информация : Advanced Video Codec
Профиль формата : Main@L3.1
Параметр CABAC формата : Нет
Параметр ReFrames формата : 2 кадра
Параметр GOP формата : M=2, N=24
Идентификатор кодека : V_MPEG4/ISO/AVC
Продолжительность : 44 м.
Битрейт : 3757 Кбит/сек
Ширина : 1280 пикселей
Высота : 720 пикселей
Соотношение сторон : 16:9
Режим частоты кадров : Постоянный
Частота кадров : 23,976 кадра/сек
Цветовое пространство : YUV
Субдискретизация насыщенности : 4:2:0
Битовая глубина : 8 бит
Тип развёртки : Прогрессивная
Бит/(Пиксели*Кадры) : 0.170
Размер потока : 1,16 Гбайт (89%)
Заголовок : 11. Werewolves (Вервульфы)
Язык : English
Default : Да
Forced : Нет
Основные цвета : BT.709
Характеристики трансфера : BT.709
Коэффициенты матрицы : BT.709

Аудио #1
Идентификатор : 2
Формат : AC-3
Формат/Информация : Audio Coding 3
Расширение режима : CM (complete main)
Параметр Endianness формата : Big
Идентификатор кодека : A_AC3
Продолжительность : 44 м.
Вид битрейта : Постоянный
Битрейт : 192 Кбит/сек
Каналы : 2 канала
Расположение каналов : Front: L R
Частота : 48,0 КГц
Битовая глубина : 16 бит
Метод сжатия : С потерями
Размер потока : 60,6 Мбайт (5%)
Заголовок : ДТВ
Язык : Russian
Default : Да
Forced : Да

Аудио #2
Идентификатор : 3
Формат : AC-3
Формат/Информация : Audio Coding 3
Расширение режима : CM (complete main)
Параметр Endianness формата : Big
Идентификатор кодека : A_AC3
Продолжительность : 44 м.
Вид битрейта : Постоянный
Битрейт : 192 Кбит/сек
Каналы : 2 канала
Расположение каналов : Front: L R
Частота : 48,0 КГц
Битовая глубина : 16 бит
Метод сжатия : С потерями
Размер потока : 60,6 Мбайт (5%)
Заголовок : English
Язык : English
Default : Нет
Forced : Нет
Общее
Уникальный идентификатор : 239273037511627780196447625360096202632 (0xB4024F8F7663D5FFBE217D5CD80D8F88)
Полное имя : D:\UPLOADED\МОИ\CSI\CSI - Las-Vegas\S 06. CSI - Las-Vegas\12. Daddy's Little Girl (Папина маленькая девочка).mkv
Формат : Matroska
Версия формата : Version 4 / Version 2
Размер файла : 1,29 Гбайт
Продолжительность : 44 м.
Общий поток : 4190 Кбит/сек
Название фильма : 12. Daddy's Little Girl (Папина маленькая девочка)
Дата кодирования : UTC 2014-01-02 12:53:13
Программа кодирования : mkvmerge v6.3.0 ('You can't stop me!') built on Jul 19 2013 16:27:38
Библиотека кодирования : libebml v1.3.0 + libmatroska v1.4.1

Видео
Идентификатор : 1
Формат : AVC
Формат/Информация : Advanced Video Codec
Профиль формата : Main@L3.1
Параметр CABAC формата : Нет
Параметр ReFrames формата : 2 кадра
Параметр GOP формата : M=2, N=24
Идентификатор кодека : V_MPEG4/ISO/AVC
Продолжительность : 44 м.
Битрейт : 3722 Кбит/сек
Ширина : 1280 пикселей
Высота : 720 пикселей
Соотношение сторон : 16:9
Режим частоты кадров : Постоянный
Частота кадров : 23,976 кадра/сек
Цветовое пространство : YUV
Субдискретизация насыщенности : 4:2:0
Битовая глубина : 8 бит
Тип развёртки : Прогрессивная
Бит/(Пиксели*Кадры) : 0.168
Размер потока : 1,15 Гбайт (89%)
Заголовок : 12. Daddy's Little Girl (Папина маленькая девочка)
Язык : English
Default : Да
Forced : Нет
Основные цвета : BT.709
Характеристики трансфера : BT.709
Коэффициенты матрицы : BT.709

Аудио #1
Идентификатор : 2
Формат : AC-3
Формат/Информация : Audio Coding 3
Расширение режима : CM (complete main)
Параметр Endianness формата : Big
Идентификатор кодека : A_AC3
Продолжительность : 44 м.
Вид битрейта : Постоянный
Битрейт : 192 Кбит/сек
Каналы : 2 канала
Расположение каналов : Front: L R
Частота : 48,0 КГц
Битовая глубина : 16 бит
Метод сжатия : С потерями
Размер потока : 60,7 Мбайт (5%)
Заголовок : ДТВ
Язык : Russian
Default : Да
Forced : Да

Аудио #2
Идентификатор : 3
Формат : AC-3
Формат/Информация : Audio Coding 3
Расширение режима : CM (complete main)
Параметр Endianness формата : Big
Идентификатор кодека : A_AC3
Продолжительность : 44 м.
Вид битрейта : Постоянный
Битрейт : 192 Кбит/сек
Каналы : 2 канала
Расположение каналов : Front: L R
Частота : 48,0 КГц
Битовая глубина : 16 бит
Метод сжатия : С потерями
Размер потока : 60,7 Мбайт (5%)
Заголовок : English
Язык : English
Default : Нет
Forced : Нет
Общее
Уникальный идентификатор : 181115499057069818243413530257076165947 (0x88419388924A5189BDE0BB61F9129D3B)
Полное имя : D:\UPLOADED\МОИ\CSI\CSI - Las-Vegas\S 06. CSI - Las-Vegas\13. Kiss Kiss, Bye Bye (Поцелуй на прощание).mkv
Формат : Matroska
Версия формата : Version 4 / Version 2
Размер файла : 1,42 Гбайт
Продолжительность : 44 м.
Общий поток : 4607 Кбит/сек
Название фильма : 13. Kiss Kiss, Bye Bye (Поцелуй на прощание)
Дата кодирования : UTC 2014-01-02 12:54:20
Программа кодирования : mkvmerge v6.3.0 ('You can't stop me!') built on Jul 19 2013 16:27:38
Библиотека кодирования : libebml v1.3.0 + libmatroska v1.4.1

Видео
Идентификатор : 1
Формат : AVC
Формат/Информация : Advanced Video Codec
Профиль формата : Main@L3.1
Параметр CABAC формата : Нет
Параметр ReFrames формата : 2 кадра
Параметр GOP формата : M=2, N=24
Идентификатор кодека : V_MPEG4/ISO/AVC
Продолжительность : 44 м.
Битрейт : 4131 Кбит/сек
Ширина : 1280 пикселей
Высота : 720 пикселей
Соотношение сторон : 16:9
Режим частоты кадров : Постоянный
Частота кадров : 23,976 кадра/сек
Цветовое пространство : YUV
Субдискретизация насыщенности : 4:2:0
Битовая глубина : 8 бит
Тип развёртки : Прогрессивная
Бит/(Пиксели*Кадры) : 0.187
Размер потока : 1,28 Гбайт (90%)
Заголовок : 13. Kiss Kiss, Bye Bye (Поцелуй на прощание)
Язык : English
Default : Да
Forced : Нет
Основные цвета : BT.709
Характеристики трансфера : BT.709
Коэффициенты матрицы : BT.709

Аудио #1
Идентификатор : 2
Формат : AC-3
Формат/Информация : Audio Coding 3
Расширение режима : CM (complete main)
Параметр Endianness формата : Big
Идентификатор кодека : A_AC3
Продолжительность : 44 м.
Вид битрейта : Постоянный
Битрейт : 192 Кбит/сек
Каналы : 2 канала
Расположение каналов : Front: L R
Частота : 48,0 КГц
Битовая глубина : 16 бит
Метод сжатия : С потерями
Размер потока : 60,8 Мбайт (4%)
Заголовок : ДТВ
Язык : Russian
Default : Да
Forced : Да

Аудио #2
Идентификатор : 3
Формат : AC-3
Формат/Информация : Audio Coding 3
Расширение режима : CM (complete main)
Параметр Endianness формата : Big
Идентификатор кодека : A_AC3
Продолжительность : 44 м.
Вид битрейта : Постоянный
Битрейт : 192 Кбит/сек
Каналы : 2 канала
Расположение каналов : Front: L R
Частота : 48,0 КГц
Битовая глубина : 16 бит
Метод сжатия : С потерями
Размер потока : 60,8 Мбайт (4%)
Заголовок : English
Язык : English
Default : Нет
Forced : Нет
Общее
Уникальный идентификатор : 195920269626288801677346507630106741571 (0x9364DF13FA03E9D6AAF2609B7A8D8B43)
Полное имя : D:\UPLOADED\МОИ\CSI\CSI - Las-Vegas\S 06. CSI - Las-Vegas\14. Killer (Убийца).mkv
Формат : Matroska
Версия формата : Version 4 / Version 2
Размер файла : 1,33 Гбайт
Продолжительность : 43 м.
Общий поток : 4312 Кбит/сек
Название фильма : 14. Killer (Убийца)
Дата кодирования : UTC 2014-01-02 12:55:27
Программа кодирования : mkvmerge v6.3.0 ('You can't stop me!') built on Jul 19 2013 16:27:38
Библиотека кодирования : libebml v1.3.0 + libmatroska v1.4.1

Видео
Идентификатор : 1
Формат : AVC
Формат/Информация : Advanced Video Codec
Профиль формата : Main@L3.1
Параметр CABAC формата : Нет
Параметр ReFrames формата : 2 кадра
Параметр GOP формата : M=2, N=24
Идентификатор кодека : V_MPEG4/ISO/AVC
Продолжительность : 43 м.
Битрейт : 3842 Кбит/сек
Ширина : 1280 пикселей
Высота : 720 пикселей
Соотношение сторон : 16:9
Режим частоты кадров : Постоянный
Частота кадров : 23,976 кадра/сек
Цветовое пространство : YUV
Субдискретизация насыщенности : 4:2:0
Битовая глубина : 8 бит
Тип развёртки : Прогрессивная
Бит/(Пиксели*Кадры) : 0.174
Размер потока : 1,18 Гбайт (89%)
Заголовок : 14. Killer (Убийца)
Язык : English
Default : Да
Forced : Нет
Основные цвета : BT.709
Характеристики трансфера : BT.709
Коэффициенты матрицы : BT.709

Аудио #1
Идентификатор : 2
Формат : AC-3
Формат/Информация : Audio Coding 3
Расширение режима : CM (complete main)
Параметр Endianness формата : Big
Идентификатор кодека : A_AC3
Продолжительность : 43 м.
Вид битрейта : Постоянный
Битрейт : 192 Кбит/сек
Каналы : 2 канала
Расположение каналов : Front: L R
Частота : 48,0 КГц
Битовая глубина : 16 бит
Метод сжатия : С потерями
Размер потока : 60,4 Мбайт (4%)
Заголовок : ДТВ
Язык : Russian
Default : Да
Forced : Да

Аудио #2
Идентификатор : 3
Формат : AC-3
Формат/Информация : Audio Coding 3
Расширение режима : CM (complete main)
Параметр Endianness формата : Big
Идентификатор кодека : A_AC3
Продолжительность : 43 м.
Вид битрейта : Постоянный
Битрейт : 192 Кбит/сек
Каналы : 2 канала
Расположение каналов : Front: L R
Частота : 48,0 КГц
Битовая глубина : 16 бит
Метод сжатия : С потерями
Размер потока : 60,4 Мбайт (4%)
Заголовок : English
Язык : English
Default : Нет
Forced : Нет
Общее
Уникальный идентификатор : 172762758079718432397958271884939225090 (0x81F8E59BA2CC062BAB07AD18AE1FE802)
Полное имя : D:\UPLOADED\МОИ\CSI\CSI - Las-Vegas\S 06. CSI - Las-Vegas\15. Pirates of the Third Reich (Пираты Третьего Рейха).mkv
Формат : Matroska
Версия формата : Version 4 / Version 2
Размер файла : 1,34 Гбайт
Продолжительность : 43 м.
Общий поток : 4458 Кбит/сек
Название фильма : 15. Pirates of the Third Reich (Пираты Третьего Рейха)
Дата кодирования : UTC 2014-01-02 12:56:43
Программа кодирования : mkvmerge v6.3.0 ('You can't stop me!') built on Jul 19 2013 16:27:38
Библиотека кодирования : libebml v1.3.0 + libmatroska v1.4.1

Видео
Идентификатор : 1
Формат : AVC
Формат/Информация : Advanced Video Codec
Профиль формата : Main@L3.1
Параметр CABAC формата : Нет
Параметр ReFrames формата : 2 кадра
Параметр GOP формата : M=2, N=24
Идентификатор кодека : V_MPEG4/ISO/AVC
Продолжительность : 43 м.
Битрейт : 3985 Кбит/сек
Ширина : 1280 пикселей
Высота : 720 пикселей
Соотношение сторон : 16:9
Режим частоты кадров : Постоянный
Частота кадров : 23,976 кадра/сек
Цветовое пространство : YUV
Субдискретизация насыщенности : 4:2:0
Битовая глубина : 8 бит
Тип развёртки : Прогрессивная
Бит/(Пиксели*Кадры) : 0.180
Размер потока : 1,20 Гбайт (89%)
Заголовок : 15. Pirates of the Third Reich (Пираты Третьего Рейха)
Язык : English
Default : Да
Forced : Нет
Основные цвета : BT.709
Характеристики трансфера : BT.709
Коэффициенты матрицы : BT.709

Аудио #1
Идентификатор : 2
Формат : AC-3
Формат/Информация : Audio Coding 3
Расширение режима : CM (complete main)
Параметр Endianness формата : Big
Идентификатор кодека : A_AC3
Продолжительность : 43 м.
Вид битрейта : Постоянный
Битрейт : 192 Кбит/сек
Каналы : 2 канала
Расположение каналов : Front: L R
Частота : 48,0 КГц
Битовая глубина : 16 бит
Метод сжатия : С потерями
Размер потока : 59,3 Мбайт (4%)
Заголовок : ДТВ
Язык : Russian
Default : Да
Forced : Да

Аудио #2
Идентификатор : 3
Формат : AC-3
Формат/Информация : Audio Coding 3
Расширение режима : CM (complete main)
Параметр Endianness формата : Big
Идентификатор кодека : A_AC3
Продолжительность : 43 м.
Вид битрейта : Постоянный
Битрейт : 192 Кбит/сек
Каналы : 2 канала
Расположение каналов : Front: L R
Частота : 48,0 КГц
Битовая глубина : 16 бит
Метод сжатия : С потерями
Размер потока : 59,3 Мбайт (4%)
Заголовок : English
Язык : English
Default : Нет
Forced : Нет
Общее
Уникальный идентификатор : 213928364614055195741948592473582962854 (0xA0F11AB5CA51A06E91D386554FD988A6)
Полное имя : D:\UPLOADED\МОИ\CSI\CSI - Las-Vegas\S 06. CSI - Las-Vegas\16. Up in Smoke (Дымоход).mkv
Формат : Matroska
Версия формата : Version 4 / Version 2
Размер файла : 1,26 Гбайт
Продолжительность : 41 м.
Общий поток : 4305 Кбит/сек
Название фильма : 16. Up in Smoke (Дымоход)
Дата кодирования : UTC 2014-01-02 12:57:55
Программа кодирования : mkvmerge v6.3.0 ('You can't stop me!') built on Jul 19 2013 16:27:38
Библиотека кодирования : libebml v1.3.0 + libmatroska v1.4.1

Видео
Идентификатор : 1
Формат : AVC
Формат/Информация : Advanced Video Codec
Профиль формата : Main@L3.1
Параметр CABAC формата : Нет
Параметр ReFrames формата : 2 кадра
Параметр GOP формата : M=2, N=24
Идентификатор кодека : V_MPEG4/ISO/AVC
Продолжительность : 41 м.
Битрейт : 3836 Кбит/сек
Ширина : 1280 пикселей
Высота : 720 пикселей
Соотношение сторон : 16:9
Режим частоты кадров : Постоянный
Частота кадров : 23,976 кадра/сек
Цветовое пространство : YUV
Субдискретизация насыщенности : 4:2:0
Битовая глубина : 8 бит
Тип развёртки : Прогрессивная
Бит/(Пиксели*Кадры) : 0.174
Размер потока : 1,12 Гбайт (89%)
Заголовок : 16. Up in Smoke (Дымоход)
Язык : English
Default : Да
Forced : Нет
Основные цвета : BT.709
Характеристики трансфера : BT.709
Коэффициенты матрицы : BT.709

Аудио #1
Идентификатор : 2
Формат : AC-3
Формат/Информация : Audio Coding 3
Расширение режима : CM (complete main)
Параметр Endianness формата : Big
Идентификатор кодека : A_AC3
Продолжительность : 41 м.
Вид битрейта : Постоянный
Битрейт : 192 Кбит/сек
Каналы : 2 канала
Расположение каналов : Front: L R
Частота : 48,0 КГц
Битовая глубина : 16 бит
Метод сжатия : С потерями
Размер потока : 57,7 Мбайт (4%)
Заголовок : ДТВ
Язык : Russian
Default : Да
Forced : Да

Аудио #2
Идентификатор : 3
Формат : AC-3
Формат/Информация : Audio Coding 3
Расширение режима : CM (complete main)
Параметр Endianness формата : Big
Идентификатор кодека : A_AC3
Продолжительность : 41 м.
Вид битрейта : Постоянный
Битрейт : 192 Кбит/сек
Каналы : 2 канала
Расположение каналов : Front: L R
Частота : 48,0 КГц
Битовая глубина : 16 бит
Метод сжатия : С потерями
Размер потока : 57,7 Мбайт (4%)
Заголовок : English
Язык : English
Default : Нет
Forced : Нет
Общее
Уникальный идентификатор : 202791629742949465251271212446430717043 (0x98903F49C3A7B98E92C50D5A7CD6E473)
Полное имя : D:\UPLOADED\МОИ\CSI\CSI - Las-Vegas\S 06. CSI - Las-Vegas\17. I Like to Watch (Мне нравится смотреть).mkv
Формат : Matroska
Версия формата : Version 4 / Version 2
Размер файла : 1,30 Гбайт
Продолжительность : 42 м.
Общий поток : 4434 Кбит/сек
Название фильма : 17. I Like to Watch (Мне нравится смотреть)
Дата кодирования : UTC 2014-01-02 12:58:52
Программа кодирования : mkvmerge v6.3.0 ('You can't stop me!') built on Jul 19 2013 16:27:38
Библиотека кодирования : libebml v1.3.0 + libmatroska v1.4.1

Видео
Идентификатор : 1
Формат : AVC
Формат/Информация : Advanced Video Codec
Профиль формата : Main@L3.1
Параметр CABAC формата : Нет
Параметр ReFrames формата : 2 кадра
Параметр GOP формата : M=2, N=24
Идентификатор кодека : V_MPEG4/ISO/AVC
Продолжительность : 42 м.
Битрейт : 3962 Кбит/сек
Ширина : 1280 пикселей
Высота : 720 пикселей
Соотношение сторон : 16:9
Режим частоты кадров : Постоянный
Частота кадров : 23,976 кадра/сек
Цветовое пространство : YUV
Субдискретизация насыщенности : 4:2:0
Битовая глубина : 8 бит
Тип развёртки : Прогрессивная
Бит/(Пиксели*Кадры) : 0.179
Размер потока : 1,17 Гбайт (89%)
Заголовок : 17. I Like to Watch (Мне нравится смотреть)
Язык : English
Default : Да
Forced : Нет
Основные цвета : BT.709
Характеристики трансфера : BT.709
Коэффициенты матрицы : BT.709

Аудио #1
Идентификатор : 2
Формат : AC-3
Формат/Информация : Audio Coding 3
Расширение режима : CM (complete main)
Параметр Endianness формата : Big
Идентификатор кодека : A_AC3
Продолжительность : 42 м.
Вид битрейта : Постоянный
Битрейт : 192 Кбит/сек
Каналы : 2 канала
Расположение каналов : Front: L R
Частота : 48,0 КГц
Битовая глубина : 16 бит
Метод сжатия : С потерями
Размер потока : 57,9 Мбайт (4%)
Заголовок : ДТВ
Язык : Russian
Default : Да
Forced : Да

Аудио #2
Идентификатор : 3
Формат : AC-3
Формат/Информация : Audio Coding 3
Расширение режима : CM (complete main)
Параметр Endianness формата : Big
Идентификатор кодека : A_AC3
Продолжительность : 42 м.
Вид битрейта : Постоянный
Битрейт : 192 Кбит/сек
Каналы : 2 канала
Расположение каналов : Front: L R
Частота : 48,0 КГц
Битовая глубина : 16 бит
Метод сжатия : С потерями
Размер потока : 57,9 Мбайт (4%)
Заголовок : English
Язык : English
Default : Нет
Forced : Нет
Общее
Уникальный идентификатор : 246793392589398200859637109245659235004 (0xB9AAADB14A4A3E9C8A5016826E2EC2BC)
Полное имя : D:\UPLOADED\МОИ\CSI\CSI - Las-Vegas\S 06. CSI - Las-Vegas\18. The Unusual Suspect (Необычный подозреваемый).mkv
Формат : Matroska
Версия формата : Version 4 / Version 2
Размер файла : 1,35 Гбайт
Продолжительность : 43 м.
Общий поток : 4419 Кбит/сек
Название фильма : 18. The Unusual Suspect (Необычный подозреваемый)
Дата кодирования : UTC 2014-01-02 13:00:07
Программа кодирования : mkvmerge v6.3.0 ('You can't stop me!') built on Jul 19 2013 16:27:38
Библиотека кодирования : libebml v1.3.0 + libmatroska v1.4.1

Видео
Идентификатор : 1
Формат : AVC
Формат/Информация : Advanced Video Codec
Профиль формата : Main@L3.1
Параметр CABAC формата : Нет
Параметр ReFrames формата : 2 кадра
Параметр GOP формата : M=2, N=24
Идентификатор кодека : V_MPEG4/ISO/AVC
Продолжительность : 43 м.
Битрейт : 3947 Кбит/сек
Ширина : 1280 пикселей
Высота : 720 пикселей
Соотношение сторон : 16:9
Режим частоты кадров : Постоянный
Частота кадров : 23,976 кадра/сек
Цветовое пространство : YUV
Субдискретизация насыщенности : 4:2:0
Битовая глубина : 8 бит
Тип развёртки : Прогрессивная
Бит/(Пиксели*Кадры) : 0.179
Размер потока : 1,20 Гбайт (89%)
Заголовок : 18. The Unusual Suspect (Необычный подозреваемый)
Язык : English
Default : Да
Forced : Нет
Основные цвета : BT.709
Характеристики трансфера : BT.709
Коэффициенты матрицы : BT.709

Аудио #1
Идентификатор : 2
Формат : AC-3
Формат/Информация : Audio Coding 3
Расширение режима : CM (complete main)
Параметр Endianness формата : Big
Идентификатор кодека : A_AC3
Продолжительность : 43 м.
Вид битрейта : Постоянный
Битрейт : 192 Кбит/сек
Каналы : 2 канала
Расположение каналов : Front: L R
Частота : 48,0 КГц
Битовая глубина : 16 бит
Метод сжатия : С потерями
Размер потока : 59,9 Мбайт (4%)
Заголовок : ДТВ
Язык : Russian
Default : Да
Forced : Да

Аудио #2
Идентификатор : 3
Формат : AC-3
Формат/Информация : Audio Coding 3
Расширение режима : CM (complete main)
Параметр Endianness формата : Big
Идентификатор кодека : A_AC3
Продолжительность : 43 м.
Вид битрейта : Постоянный
Битрейт : 192 Кбит/сек
Каналы : 2 канала
Расположение каналов : Front: L R
Частота : 48,0 КГц
Битовая глубина : 16 бит
Метод сжатия : С потерями
Размер потока : 59,9 Мбайт (4%)
Заголовок : English
Язык : English
Default : Нет
Forced : Нет
Общее
Уникальный идентификатор : 191244806973488308182280258787436503664 (0x8FE068F8C44B98F3B7D43220E7EDA270)
Полное имя : D:\UPLOADED\МОИ\CSI\CSI - Las-Vegas\S 06. CSI - Las-Vegas\19. Spellbound (Очарованный).mkv
Формат : Matroska
Версия формата : Version 4 / Version 2
Размер файла : 1,35 Гбайт
Продолжительность : 44 м.
Общий поток : 4367 Кбит/сек
Название фильма : 19. Spellbound (Очарованный)
Дата кодирования : UTC 2014-01-02 13:01:28
Программа кодирования : mkvmerge v6.3.0 ('You can't stop me!') built on Jul 19 2013 16:27:38
Библиотека кодирования : libebml v1.3.0 + libmatroska v1.4.1

Видео
Идентификатор : 1
Формат : AVC
Формат/Информация : Advanced Video Codec
Профиль формата : Main@L3.1
Параметр CABAC формата : Нет
Параметр ReFrames формата : 2 кадра
Параметр GOP формата : M=2, N=24
Идентификатор кодека : V_MPEG4/ISO/AVC
Продолжительность : 44 м.
Битрейт : 3896 Кбит/сек
Ширина : 1280 пикселей
Высота : 720 пикселей
Соотношение сторон : 16:9
Режим частоты кадров : Постоянный
Частота кадров : 23,976 кадра/сек
Цветовое пространство : YUV
Субдискретизация насыщенности : 4:2:0
Битовая глубина : 8 бит
Тип развёртки : Прогрессивная
Бит/(Пиксели*Кадры) : 0.176
Размер потока : 1,20 Гбайт (89%)
Заголовок : 19. Spellbound (Очарованный)
Язык : English
Default : Да
Forced : Нет
Основные цвета : BT.709
Характеристики трансфера : BT.709
Коэффициенты матрицы : BT.709

Аудио #1
Идентификатор : 2
Формат : AC-3
Формат/Информация : Audio Coding 3
Расширение режима : CM (complete main)
Параметр Endianness формата : Big
Идентификатор кодека : A_AC3
Продолжительность : 44 м.
Вид битрейта : Постоянный
Битрейт : 192 Кбит/сек
Каналы : 2 канала
Расположение каналов : Front: L R
Частота : 48,0 КГц
Битовая глубина : 16 бит
Метод сжатия : С потерями
Размер потока : 60,6 Мбайт (4%)
Заголовок : ДТВ
Язык : Russian
Default : Да
Forced : Да

Аудио #2
Идентификатор : 3
Формат : AC-3
Формат/Информация : Audio Coding 3
Расширение режима : CM (complete main)
Параметр Endianness формата : Big
Идентификатор кодека : A_AC3
Продолжительность : 44 м.
Вид битрейта : Постоянный
Битрейт : 192 Кбит/сек
Каналы : 2 канала
Расположение каналов : Front: L R
Частота : 48,0 КГц
Битовая глубина : 16 бит
Метод сжатия : С потерями
Размер потока : 60,6 Мбайт (4%)
Заголовок : English
Язык : English
Default : Нет
Forced : Нет
Общее
Уникальный идентификатор : 198660897188335129367097929967583793529 (0x9574B27302151B0AA0901CADD8AE9179)
Полное имя : D:\UPLOADED\МОИ\CSI\CSI - Las-Vegas\S 06. CSI - Las-Vegas\20. Poppin' Tags (Постеры).mkv
Формат : Matroska
Версия формата : Version 4 / Version 2
Размер файла : 1,30 Гбайт
Продолжительность : 42 м.
Общий поток : 4354 Кбит/сек
Название фильма : 20. Poppin' Tags (Постеры)
Дата кодирования : UTC 2014-01-02 13:02:28
Программа кодирования : mkvmerge v6.3.0 ('You can't stop me!') built on Jul 19 2013 16:27:38
Библиотека кодирования : libebml v1.3.0 + libmatroska v1.4.1

Видео
Идентификатор : 1
Формат : AVC
Формат/Информация : Advanced Video Codec
Профиль формата : Main@L3.1
Параметр CABAC формата : Нет
Параметр ReFrames формата : 2 кадра
Параметр GOP формата : M=2, N=24
Идентификатор кодека : V_MPEG4/ISO/AVC
Продолжительность : 42 м.
Битрейт : 3884 Кбит/сек
Ширина : 1280 пикселей
Высота : 720 пикселей
Соотношение сторон : 16:9
Режим частоты кадров : Постоянный
Частота кадров : 23,976 кадра/сек
Цветовое пространство : YUV
Субдискретизация насыщенности : 4:2:0
Битовая глубина : 8 бит
Тип развёртки : Прогрессивная
Бит/(Пиксели*Кадры) : 0.176
Размер потока : 1,16 Гбайт (89%)
Заголовок : 20. Poppin' Tags (Постеры)
Язык : English
Default : Да
Forced : Нет
Основные цвета : BT.709
Характеристики трансфера : BT.709
Коэффициенты матрицы : BT.709

Аудио #1
Идентификатор : 2
Формат : AC-3
Формат/Информация : Audio Coding 3
Расширение режима : CM (complete main)
Параметр Endianness формата : Big
Идентификатор кодека : A_AC3
Продолжительность : 42 м.
Вид битрейта : Постоянный
Битрейт : 192 Кбит/сек
Каналы : 2 канала
Расположение каналов : Front: L R
Частота : 48,0 КГц
Битовая глубина : 16 бит
Метод сжатия : С потерями
Размер потока : 58,6 Мбайт (4%)
Заголовок : ДТВ
Язык : Russian
Default : Да
Forced : Да

Аудио #2
Идентификатор : 3
Формат : AC-3
Формат/Информация : Audio Coding 3
Расширение режима : CM (complete main)
Параметр Endianness формата : Big
Идентификатор кодека : A_AC3
Продолжительность : 42 м.
Вид битрейта : Постоянный
Битрейт : 192 Кбит/сек
Каналы : 2 канала
Расположение каналов : Front: L R
Частота : 48,0 КГц
Битовая глубина : 16 бит
Метод сжатия : С потерями
Размер потока : 58,6 Мбайт (4%)
Заголовок : English
Язык : English
Default : Нет
Forced : Нет
Общее
Уникальный идентификатор : 236957112380582008576585987665882357510 (0xB24447A2BCD67194A95EA75767AD9F06)
Полное имя : D:\UPLOADED\МОИ\CSI\CSI - Las-Vegas\S 06. CSI - Las-Vegas\21. Rashomama (Расемама).mkv
Формат : Matroska
Версия формата : Version 4 / Version 2
Размер файла : 1,37 Гбайт
Продолжительность : 44 м.
Общий поток : 4430 Кбит/сек
Название фильма : 21. Rashomama (Расемама)
Дата кодирования : UTC 2014-01-02 13:03:38
Программа кодирования : mkvmerge v6.3.0 ('You can't stop me!') built on Jul 19 2013 16:27:38
Библиотека кодирования : libebml v1.3.0 + libmatroska v1.4.1

Видео
Идентификатор : 1
Формат : AVC
Формат/Информация : Advanced Video Codec
Профиль формата : Main@L3.1
Параметр CABAC формата : Нет
Параметр ReFrames формата : 2 кадра
Параметр GOP формата : M=2, N=24
Идентификатор кодека : V_MPEG4/ISO/AVC
Продолжительность : 44 м.
Битрейт : 3958 Кбит/сек
Ширина : 1280 пикселей
Высота : 720 пикселей
Соотношение сторон : 16:9
Режим частоты кадров : Постоянный
Частота кадров : 23,976 кадра/сек
Цветовое пространство : YUV
Субдискретизация насыщенности : 4:2:0
Битовая глубина : 8 бит
Тип развёртки : Прогрессивная
Бит/(Пиксели*Кадры) : 0.179
Размер потока : 1,22 Гбайт (89%)
Заголовок : 21. Rashomama (Расемама)
Язык : English
Default : Да
Forced : Нет
Основные цвета : BT.709
Характеристики трансфера : BT.709
Коэффициенты матрицы : BT.709

Аудио #1
Идентификатор : 2
Формат : AC-3
Формат/Информация : Audio Coding 3
Расширение режима : CM (complete main)
Параметр Endianness формата : Big
Идентификатор кодека : A_AC3
Продолжительность : 44 м.
Вид битрейта : Постоянный
Битрейт : 192 Кбит/сек
Каналы : 2 канала
Расположение каналов : Front: L R
Частота : 48,0 КГц
Битовая глубина : 16 бит
Метод сжатия : С потерями
Размер потока : 60,6 Мбайт (4%)
Заголовок : ДТВ
Язык : Russian
Default : Да
Forced : Да

Аудио #2
Идентификатор : 3
Формат : AC-3
Формат/Информация : Audio Coding 3
Расширение режима : CM (complete main)
Параметр Endianness формата : Big
Идентификатор кодека : A_AC3
Продолжительность : 44 м.
Вид битрейта : Постоянный
Битрейт : 192 Кбит/сек
Каналы : 2 канала
Расположение каналов : Front: L R
Частота : 48,0 КГц
Битовая глубина : 16 бит
Метод сжатия : С потерями
Размер потока : 60,6 Мбайт (4%)
Заголовок : English
Язык : English
Default : Нет
Forced : Нет
Общее
Уникальный идентификатор : 239361180092030534532660575918312151102 (0xB41349533C156408BA7B41DDB9BC583E)
Полное имя : D:\UPLOADED\МОИ\CSI\CSI - Las-Vegas\S 06. CSI - Las-Vegas\22. Time of Your Death (Время твоей смерти).mkv
Формат : Matroska
Версия формата : Version 4 / Version 2
Размер файла : 1,33 Гбайт
Продолжительность : 41 м.
Общий поток : 4564 Кбит/сек
Название фильма : 22. Time of Your Death (Время твоей смерти)
Дата кодирования : UTC 2014-01-02 13:04:45
Программа кодирования : mkvmerge v6.3.0 ('You can't stop me!') built on Jul 19 2013 16:27:38
Библиотека кодирования : libebml v1.3.0 + libmatroska v1.4.1

Видео
Идентификатор : 1
Формат : AVC
Формат/Информация : Advanced Video Codec
Профиль формата : Main@L3.1
Параметр CABAC формата : Нет
Параметр ReFrames формата : 2 кадра
Параметр GOP формата : M=2, N=24
Идентификатор кодека : V_MPEG4/ISO/AVC
Продолжительность : 41 м.
Битрейт : 4089 Кбит/сек
Ширина : 1280 пикселей
Высота : 720 пикселей
Соотношение сторон : 16:9
Режим частоты кадров : Постоянный
Частота кадров : 23,976 кадра/сек
Цветовое пространство : YUV
Субдискретизация насыщенности : 4:2:0
Битовая глубина : 8 бит
Тип развёртки : Прогрессивная
Бит/(Пиксели*Кадры) : 0.185
Размер потока : 1,19 Гбайт (90%)
Заголовок : 22. Time of Your Death (Время твоей смерти)
Язык : English
Default : Да
Forced : Нет
Основные цвета : BT.709
Характеристики трансфера : BT.709
Коэффициенты матрицы : BT.709

Аудио #1
Идентификатор : 2
Формат : AC-3
Формат/Информация : Audio Coding 3
Расширение режима : CM (complete main)
Параметр Endianness формата : Big
Идентификатор кодека : A_AC3
Продолжительность : 41 м.
Вид битрейта : Постоянный
Битрейт : 192 Кбит/сек
Каналы : 2 канала
Расположение каналов : Front: L R
Частота : 48,0 КГц
Битовая глубина : 16 бит
Метод сжатия : С потерями
Размер потока : 57,4 Мбайт (4%)
Заголовок : ДТВ
Язык : Russian
Default : Да
Forced : Да

Аудио #2
Идентификатор : 3
Формат : AC-3
Формат/Информация : Audio Coding 3
Расширение режима : CM (complete main)
Параметр Endianness формата : Big
Идентификатор кодека : A_AC3
Продолжительность : 41 м.
Вид битрейта : Постоянный
Битрейт : 192 Кбит/сек
Каналы : 2 канала
Расположение каналов : Front: L R
Частота : 48,0 КГц
Битовая глубина : 16 бит
Метод сжатия : С потерями
Размер потока : 57,4 Мбайт (4%)
Заголовок : English
Язык : English
Default : Нет
Forced : Нет
Общее
Уникальный идентификатор : 242644552184075682538342619128157542276 (0xB68BA4115376CFEFADC2B9BFEC7D9784)
Полное имя : D:\UPLOADED\МОИ\CSI\CSI - Las-Vegas\S 06. CSI - Las-Vegas\23. Bang-Bang (Выстрел).mkv
Формат : Matroska
Версия формата : Version 4 / Version 2
Размер файла : 1,32 Гбайт
Продолжительность : 41 м.
Общий поток : 4567 Кбит/сек
Название фильма : 23. Bang-Bang (Выстрел)
Дата кодирования : UTC 2014-01-02 13:06:10
Программа кодирования : mkvmerge v6.3.0 ('You can't stop me!') built on Jul 19 2013 16:27:38
Библиотека кодирования : libebml v1.3.0 + libmatroska v1.4.1

Видео
Идентификатор : 1
Формат : AVC
Формат/Информация : Advanced Video Codec
Профиль формата : Main@L3.1
Параметр CABAC формата : Нет
Параметр ReFrames формата : 2 кадра
Параметр GOP формата : M=2, N=24
Идентификатор кодека : V_MPEG4/ISO/AVC
Продолжительность : 41 м.
Битрейт : 4092 Кбит/сек
Ширина : 1280 пикселей
Высота : 720 пикселей
Соотношение сторон : 16:9
Режим частоты кадров : Постоянный
Частота кадров : 23,976 кадра/сек
Цветовое пространство : YUV
Субдискретизация насыщенности : 4:2:0
Битовая глубина : 8 бит
Тип развёртки : Прогрессивная
Бит/(Пиксели*Кадры) : 0.185
Размер потока : 1,18 Гбайт (90%)
Заголовок : 23. Bang-Bang (Выстрел)
Язык : English
Default : Да
Forced : Нет
Основные цвета : BT.709
Характеристики трансфера : BT.709
Коэффициенты матрицы : BT.709

Аудио #1
Идентификатор : 2
Формат : AC-3
Формат/Информация : Audio Coding 3
Расширение режима : CM (complete main)
Параметр Endianness формата : Big
Идентификатор кодека : A_AC3
Продолжительность : 41 м.
Вид битрейта : Постоянный
Битрейт : 192 Кбит/сек
Каналы : 2 канала
Расположение каналов : Front: L R
Частота : 48,0 КГц
Битовая глубина : 16 бит
Метод сжатия : С потерями
Размер потока : 56,8 Мбайт (4%)
Заголовок : ДТВ
Язык : Russian
Default : Да
Forced : Да

Аудио #2
Идентификатор : 3
Формат : AC-3
Формат/Информация : Audio Coding 3
Расширение режима : CM (complete main)
Параметр Endianness формата : Big
Идентификатор кодека : A_AC3
Продолжительность : 41 м.
Вид битрейта : Постоянный
Битрейт : 192 Кбит/сек
Каналы : 2 канала
Расположение каналов : Front: L R
Частота : 48,0 КГц
Битовая глубина : 16 бит
Метод сжатия : С потерями
Размер потока : 56,8 Мбайт (4%)
Заголовок : English
Язык : English
Default : Нет
Forced : Нет
Общее
Уникальный идентификатор : 238183092433338512947984256164057931445 (0xB330651E7C1F5CB592871C0DA3955EB5)
Полное имя : D:\UPLOADED\МОИ\CSI\CSI - Las-Vegas\S 06. CSI - Las-Vegas\24. Way to Go (Путь).mkv
Формат : Matroska
Версия формата : Version 4 / Version 2
Размер файла : 1,35 Гбайт
Продолжительность : 43 м.
Общий поток : 4461 Кбит/сек
Название фильма : 24. Way to Go (Путь)
Дата кодирования : UTC 2014-01-02 13:07:17
Программа кодирования : mkvmerge v6.3.0 ('You can't stop me!') built on Jul 19 2013 16:27:38
Библиотека кодирования : libebml v1.3.0 + libmatroska v1.4.1

Видео
Идентификатор : 1
Формат : AVC
Формат/Информация : Advanced Video Codec
Профиль формата : Main@L3.1
Параметр CABAC формата : Нет
Параметр ReFrames формата : 2 кадра
Параметр GOP формата : M=2, N=24
Идентификатор кодека : V_MPEG4/ISO/AVC
Продолжительность : 43 м.
Битрейт : 3988 Кбит/сек
Ширина : 1280 пикселей
Высота : 720 пикселей
Соотношение сторон : 16:9
Режим частоты кадров : Постоянный
Частота кадров : 23,976 кадра/сек
Цветовое пространство : YUV
Субдискретизация насыщенности : 4:2:0
Битовая глубина : 8 бит
Тип развёртки : Прогрессивная
Бит/(Пиксели*Кадры) : 0.180
Размер потока : 1,21 Гбайт (89%)
Заголовок : 24. Way to Go (Путь)
Язык : English
Default : Да
Forced : Нет
Основные цвета : BT.709
Характеристики трансфера : BT.709
Коэффициенты матрицы : BT.709

Аудио #1
Идентификатор : 2
Формат : AC-3
Формат/Информация : Audio Coding 3
Расширение режима : CM (complete main)
Параметр Endianness формата : Big
Идентификатор кодека : A_AC3
Продолжительность : 43 м.
Вид битрейта : Постоянный
Битрейт : 192 Кбит/сек
Каналы : 2 канала
Расположение каналов : Front: L R
Частота : 48,0 КГц
Битовая глубина : 16 бит
Метод сжатия : С потерями
Размер потока : 59,5 Мбайт (4%)
Заголовок : ДТВ
Язык : Russian
Default : Да
Forced : Да

Аудио #2
Идентификатор : 3
Формат : AC-3
Формат/Информация : Audio Coding 3
Расширение режима : CM (complete main)
Параметр Endianness формата : Big
Идентификатор кодека : A_AC3
Продолжительность : 43 м.
Вид битрейта : Постоянный
Битрейт : 192 Кбит/сек
Каналы : 2 канала
Расположение каналов : Front: L R
Частота : 48,0 КГц
Битовая глубина : 16 бит
Метод сжатия : С потерями
Размер потока : 59,5 Мбайт (4%)
Заголовок : English
Язык : English
Default : Нет
Forced : Нет

01. Bodies in Motion (Тела в движении)
02. Room Service (Обслуживание в номер)
03. Bite Me (Укуси меня)
04. Shooting Stars (Взрывающиеся звезды)
05. Gum Drops (Жвачка)
06. Secrets & Flies (Секреты и мухи)
07. A Bullet Runs Through It, Part 1 (Пуля проходит на вылет, Часть 1)
08. A Bullet Runs Through It, Part 2 (Пуля проходит на вылет, Часть 2)
09. Dog Eat Dog (Пес поедает пса)
10. Still Life (Продолжая жить)
11. Werewolves (Вервульфы)
12. Daddy's Little Girl (Папина маленькая девочка)
13. Kiss Kiss, Bye Bye (Поцелуй на прощание)
14. Killer (Убийца)
15. Pirates of the Third Reich (Пираты Третьего Рейха)
16. Up in Smoke (Дымоход)
17. I Like to Watch (Мне нравится смотреть)
18. The Unusual Suspect (Необычный подозреваемый)
19. Spellbound (Очарованный)
20. Poppin' Tags (Постеры)
21. Rashomama (Расемама)
22. Time of Your Death (Время твоей смерти)
23. Bang-Bang (Выстрел)
24. Way to Go (Путь)

Золотой глобус, 2001 год - Лучший драматический сериал, лучшая женская роль в драматическом сериале (Марж Хелгенбергер)
Золотой глобус, 2002 год - Лучший драматический сериал, лучшая женская роль на ТВ (Марж Хелгенбергер)
Золотой глобус, 2003 год - Лучшая женская роль на ТВ (Марж Хелгенбергер)
Эмми, 2004 год - Лучший драматический сериал
Золотой глобус, 2004 год - лучшая мужская роль (Уильям Л. Питерсен), лучший драматический сериал
Сатурн, 2005 год - лучший телесериал, созданный для телетрансляции
Сериал спародирован в:
1. Ангелы Чарли 2: Только вперед, 2003 (Charlie's Angels: Full Throttle)
2. CSI: Iowa, 2005
3. SSI: Sex Squad Investigation (видео), 2006
4. Американский выскочка, 2008 (An American Carol)
5. Hollywood's Nailin' Palin (видео), 2010
Уильям Петерсен (Гил Гриссом) работает в сериале по контракту «pay or play», показывающему, в общих словах, его незаменимость для проекта. Такой тип контрактов означает, что актёр получает деньги в любом случае — снимается он или нет. На нынешний момент Петерсен отсутствовал только в пяти эпизодах сериала, четыре из которых он пропустил по личным причинам.
Квентин Тарантино, режиссёр «Криминального чтива», снял два завершающих эпизода (24 и 25) 5 сезона сериала. Это произошло после того, как режиссёр признался в том, что он большой поклонник CSI и хотел бы сам снять «парочку серий» для него, а продюсеры ухватились за эту возможность и довели её до конца. Эпизоды, снятые Тарантино, безусловно выделяются из общего стиля сериала, и были выпущены в США на DVD в виде отдельного издания.
В каждом эпизоде сериала обязательно появляется несколько персонажей «на один эпизод», связанных с каким-то расследуемым преступлением. Некоторые из таких «одноэпизодных» актёров стали впоследствии звёздами в других сериалах. Например, это звезды сериала «Остаться в живых» — Джош Холлоуэй (Сойер), Дэниел Дэй Ким (Джин), Гарольд Перрино-мл. (Майкл), Иэн Сомерхолдер (Бун), Элизабет Митчелл (Джульет), Уильям Мапотер (Итан), Фредрик Лене (Маршал Эдвардс Марс), Кевин Дюранд (Мартин Кими). Также, в одном эпизоде CSI снималась звезда «Отчаянных домохозяек» Марсия Кросс (Бри Ван Де Камп). Ещё в одном эпизоде CSI играли: Майло Вентимилья — Питер Петрелли в сериале «Герои», Миша Коллинз — Кастиэль в сериале Сверхъестественное, Аманда Сейфрид Софи в «Мама Mia», любимец девушек Чад Майкл Мюррей, и юная звезда «Новолуния» Дакота Фаннинг. Так же в четырёх эпизодах вместо отсутствующего Уильяма Петерсена был введён персонаж Майкл Кепплер в исполнении Льва Шрайбера, а в пяти эпизодах появлялась Кей Панабэйкер, играющая Линдси Виллоу вместо Мэдисон МакРейнолдс. Так же звёздами эпизода были: Тейлор Свифт, Каризма Карпентер, Марк Дакаскос, Джастин Бибер
Сериал стал одной из главных причин возникновения так называемого «эффекта CSI», под которым понимают повышение общего уровня представлений о методах расследования преступлений, как у их жертв, так и у присяжных, рассматривающих дела в судах. «Эффект CSI» в целом повлиял на более критичную оценку доказательств, представляемых прокурорами на процессах, из-за чего последние стали предоставлять большее количество вещественных доказательств, в особенности тестов ДНК.
Хотя в целом сериал демонстрирует превосходство криминалистов над преступниками и трагическими обстоятельствами, в некоторых эпизодах показываются случаи когда закон и детективы бессильны и не способны наказать или даже найти преступника. Так, поиски «Миниатюриста» (вымышленного серийного убийцы, приносившего на места преступлений их миниатюрные модели со сценой убийства), длились весь 7 сезон и чуть не стоили жизни одному из криминалистов — Саре Сайдл. Косметолог, сделавший двум пациенткам смертельные внутривенные инъекции перекиси водорода, не был обвинён в уголовном преступлении, однако данные о его проступке были переданы семьям погибших для гражданского иска. Владелец казино, обвинявшийся в убийстве девушки, с помощью адвокатов и интриг был оправдан судом, несмотря на все усилия полицейских и криминалистов доказать его вину.
Несмотря на географическую привязанность к Лас-Вегасу, сериал в основном снимается в Калифорнии. В Лас-Вегасе работает только дополнительная съёмочная группа, которая по необходимости делает общие съёмки города. Первые пять сезонов снимались в городе Санта-Кларита, а с шестого — в Юниверсал Сити, городе расположенном на земле принадлежащей Universal Studios. Санта-Кларита была выбрана из-за своей похожести на окрестности настоящего Лас-Вегаса, причём все съёмки «вне помещений» до сих пор производятся там. При необходимости, однако, съёмочная группа и актёры выезжают в Лас-Вегас.
Отличительной особенностью сериала от реальной работы сотрудников криминалистических лабораторий является значительное отступление от процедуры полицейского расследования. В реальной жизни, преступления расследуют полицейские детективы, тогда как в сериале этим в основном занимаются сотрудники CSI, на самом деле не имеющие на это права. Случаи, когда полицейский детектив одновременно является и сотрудником криминалистической лаборатории, чрезвычайно редки.
Представители LGBT (сексуальных меньшинств) часто критикуют сериал за своё негативное представление, так как во многих сериях преступники или подозреваемые относятся к этим меньшинствам. С другой стороны, в сериале часто встречаются персонажи второго плана, которые относятся к LGBT, но показываются либо положительно, либо нейтрально, либо как жертвы преступлений из-за своего образа жизни.
В 9 сезоне главный герой сериала Гил Гриссом (Уильям Петерсен) уходит из шоу и актёр Лоуренс Фишборн начинает играть на постоянной основе. Однако, Гриссом появляется в одном из эпизодов 11 сезона...
jasinpapa
P.S. Большая просьба к скачавшим имеющим широкие каналы и объёмные винчестеры не уходить с раздачи как можно дольше!!!

Продолжительность: ~00:45:00 серия
Качество видео: WEB-DL 720p
Формат: MKV
Видеокодек: AVC
Битрейт видео: ~4000 Кбит/сек
Размер кадра: 1280x720 (16:9), 23,976 fps,~ 4000 Kbps
Аудиокодек: AC3
Битрейт аудио:
аудио rus: AC-3 at 192 Kbps 2 channels, 48.0 KHz, Профессиональный многоголосый - ДТВ
аудио eng: AC-3 at 192 Kbps 2 channels, 48.0 KHz, оригинальная дорожка
Место преступления: Лас-Вегас / CSI: Crime Scene Investigation все раздачи сериала

Скриншоты:

Время Раздачи: 24/7 - круглосуточно до 5 скачавших
[NNM-Club.me]_S 06. CSI - Las-Vegas.torrent
 Торрент: Платиновая раздача  Зарегистрирован
 
Скачать


Примагнититься
 Зарегистрирован:   08 Янв 2014 18:07:52
 Размер:   32 GB  (
 Рейтинг:   4,7 (Голосов: 22)
 Поблагодарили:   65
 Проверка:   Оформление проверено модератором 11 Янв 2014 00:59:40
Как cкачать  ·  Как раздать  ·  Правильно оформить  ·  Поднять ратио!  

_________________
На первом месте у меня семья и дети, а хобби =>Мои РЕЛИЗЫ <= в свободное от них время
terruan
Стаж: 8 лет 4 мес.
Сообщений: 10
Ratio: 2,628
Поблагодарили: 4
7.94%
russia.gif
аудио rus: AC-3 at 192 Kbps 2 channels, 48.0 KHz, Профессиональный многоголосый - ДТВ
Где???
Перевод одноголосый, закадровый

После нескольких переключений появился женский голос, не понял)
Shmasser
Стаж: 9 лет
Сообщений: 53
Ratio: 28,868
91.64%
Пожалуй, лучший сезон, на мой взгляд.
(Перевод, конечно, многоголосый, и весьма профессионален)))
Показать сообщения:   
Начать новую тему   Ответить на тему    Торрент-трекер NNM-Club -> Зарубежные сериалы -> Место преступления / CSI Часовой пояс: GMT + 3
Страница 1 из 1