Классический форум-трекер
canvas not supported
Нас вместе: 4 079 196

C.S.I. Место преступления: Лас-Вегас / CSI: Crime Scene Investigation: Las Vegas (2006-2007) [720p] WEB-DL (сезон 7, серии 1-24 из 24) ДТВ


 
 
RSS
Начать новую тему   Ответить на тему    Торрент-трекер NNM-Club -> Зарубежные сериалы -> Место преступления / CSI
Автор Сообщение
WOLF 80 ®
Uploader 100+
Стаж: 10 лет 2 мес.
Сообщений: 480
Ratio: 3902,785
Раздал: 156,9 TB
Поблагодарили: 30379
100%
Откуда: Санкт-Петербург
russia.gif
C.S.I. Место преступления: Лас-Вегас /
CSI: Crime Scene Investigation: Las Vegas

«Как следует подготовься к сезону убийств»
Год выпуска: 2006-2007
Жанр: Детектив, триллер, драма, криминал

Перевод: Профессиональный многоголосый закадровый - ДТВ


Дата мировой премьеры: с 21.09.2006 по 17.05.2007

Режиссер: Кеннет Финк, Ричард Дж. Льюис, Алек Смайт
Актеры: Уильям Л. Питерсен (Gil Grissom), Марж Хелгенбергер (Catherine Willows), Джордж Идс (Nick Stokes), Гари Дурдан (Warrick Brown), Джоржа Фокс (Sara Sidle), Пол Гилфойл (Captain Jim Brass), Эрик Шманда (Greg Sanders), Роберт Дэвид Холл (Dr. Al Robbins), Дэвид Берман (David Phillips), Уоллес Лэнгэм (David Hodges), Арчи Као (Archie Johnson), Лиз Вэсси (Wendy Simms)

Описание фильма: Лас-Вегас… Своими яркими неоновыми огнями, сотнями игровых клубов и казино он манит всё новых и новых людей. Но далеко не все из них оказываются добропорядочными гражданами. В огромном людском потоке частенько прячутся преступники всех мастей. Они убеждены, что их злодеяния останутся незамеченными. Но они сильно ошибаются, ведь в городе работает неутомимая команда полиции C.S.I. Когда следствие заходит в тупик, в игру вступает группа супер профессиональных криминалистов во главе с капитаном Гриссомом. В культовом сериале, лауреате престижных американских премий «Эмми» и «Золотой глобус», столь полюбившиеся зрителям члены команды криминалистической лаборатории C.S.I. продолжат самоотверженно распутывать казалось бы безнадёжные случаи и с честью выходить из самых сложных ситуаций. Героям сериала при помощи новейших научных и технических разработок предстоит расследовать череду загадочных убийств, похищений и даже ритуальных жертвоприношений. Для них нет ничего невозможного. В городе разбитых надежд и несбывшихся мечтаний они найдут ключи к тайнам самых загадочных преступлений. И тогда всё тайное станет явным.
1 СЕЗОН BDRip 720p
2 СЕЗОН WEB-DL 720p
3 СЕЗОН WEB-DL 720p
4 СЕЗОН WEB-DL 720p
5 СЕЗОН WEB-DL 720p
6 СЕЗОН WEB-DL 720p
8 СЕЗОН BDRip 720p
9 СЕЗОН BDRip 720p
10 СЕЗОН WEB-DL 720p

Общее
Уникальный идентификатор : 177461199075732503012327116937562555750 (0x8581C8A24FD33353A01D8CCD787E0566)
Полное имя : D:\UPLOADED\МОИ\CSI\CSI - Las-Vegas\S 07. CSI - Las-Vegas\01. Built to Kill, Part 1 (Выстроенный для убийства, Часть 1).mkv
Формат : Matroska
Версия формата : Version 4 / Version 2
Размер файла : 1,27 Гбайт
Продолжительность : 43 м.
Общий поток : 4214 Кбит/сек
Название фильма : 01. Built to Kill, Part 1 (Выстроенный для убийства, Часть 1)
Дата кодирования : UTC 2014-01-02 14:11:50
Программа кодирования : mkvmerge v6.3.0 ('You can't stop me!') built on Jul 19 2013 16:27:38
Библиотека кодирования : libebml v1.3.0 + libmatroska v1.4.1

Видео
Идентификатор : 1
Формат : AVC
Формат/Информация : Advanced Video Codec
Профиль формата : Main@L3.1
Параметр CABAC формата : Нет
Параметр ReFrames формата : 2 кадра
Параметр GOP формата : M=2, N=24
Идентификатор кодека : V_MPEG4/ISO/AVC
Продолжительность : 43 м.
Битрейт : 3746 Кбит/сек
Ширина : 1280 пикселей
Высота : 720 пикселей
Соотношение сторон : 16:9
Режим частоты кадров : Постоянный
Частота кадров : 23,976 кадра/сек
Цветовое пространство : YUV
Субдискретизация насыщенности : 4:2:0
Битовая глубина : 8 бит
Тип развёртки : Прогрессивная
Бит/(Пиксели*Кадры) : 0.170
Размер потока : 1,13 Гбайт (89%)
Заголовок : 01. Built to Kill, Part 1 (Выстроенный для убийства, Часть 1)
Язык : English
Default : Да
Forced : Нет
Основные цвета : BT.709
Характеристики трансфера : BT.709
Коэффициенты матрицы : BT.709

Аудио #1
Идентификатор : 2
Формат : AC-3
Формат/Информация : Audio Coding 3
Расширение режима : CM (complete main)
Параметр Endianness формата : Big
Идентификатор кодека : A_AC3
Продолжительность : 43 м.
Вид битрейта : Постоянный
Битрейт : 192 Кбит/сек
Каналы : 2 канала
Расположение каналов : Front: L R
Частота : 48,0 КГц
Битовая глубина : 16 бит
Метод сжатия : С потерями
Размер потока : 59,1 Мбайт (5%)
Заголовок : ДТВ
Язык : Russian
Default : Да
Forced : Да

Аудио #2
Идентификатор : 3
Формат : AC-3
Формат/Информация : Audio Coding 3
Расширение режима : CM (complete main)
Параметр Endianness формата : Big
Идентификатор кодека : A_AC3
Продолжительность : 43 м.
Вид битрейта : Постоянный
Битрейт : 192 Кбит/сек
Каналы : 2 канала
Расположение каналов : Front: L R
Частота : 48,0 КГц
Битовая глубина : 16 бит
Метод сжатия : С потерями
Размер потока : 59,1 Мбайт (5%)
Заголовок : English
Язык : English
Default : Нет
Forced : Нет
Общее
Уникальный идентификатор : 190053161585913485412051532113397775567 (0x8EFAE8516BA3772ABF22C31CE4A97CCF)
Полное имя : D:\UPLOADED\МОИ\CSI\CSI - Las-Vegas\S 07. CSI - Las-Vegas\02. Built to Kill, Part 2 (Выстроенный для убийства, Часть 2).mkv
Формат : Matroska
Версия формата : Version 4 / Version 2
Размер файла : 1,39 Гбайт
Продолжительность : 44 м.
Общий поток : 4488 Кбит/сек
Дата кодирования : UTC 2014-01-03 15:59:18
Программа кодирования : mkvmerge v6.3.0 ('You can't stop me!') built on Jul 19 2013 16:27:38
Библиотека кодирования : libebml v1.3.0 + libmatroska v1.4.1

Видео
Идентификатор : 1
Формат : AVC
Формат/Информация : Advanced Video Codec
Профиль формата : Main@L3.1
Параметр CABAC формата : Нет
Параметр ReFrames формата : 2 кадра
Параметр GOP формата : M=2, N=24
Идентификатор кодека : V_MPEG4/ISO/AVC
Продолжительность : 44 м.
Битрейт : 4014 Кбит/сек
Ширина : 1280 пикселей
Высота : 720 пикселей
Соотношение сторон : 16:9
Режим частоты кадров : Постоянный
Частота кадров : 23,976 кадра/сек
Цветовое пространство : YUV
Субдискретизация насыщенности : 4:2:0
Битовая глубина : 8 бит
Тип развёртки : Прогрессивная
Бит/(Пиксели*Кадры) : 0.182
Размер потока : 1,24 Гбайт (89%)
Заголовок : 02. Built to Kill, Part 2 (Выстроенный для убийства, Часть 2)
Язык : English
Default : Да
Forced : Нет
Основные цвета : BT.709
Характеристики трансфера : BT.709
Коэффициенты матрицы : BT.709

Аудио #1
Идентификатор : 2
Формат : AC-3
Формат/Информация : Audio Coding 3
Расширение режима : CM (complete main)
Параметр Endianness формата : Big
Идентификатор кодека : A_AC3
Продолжительность : 44 м.
Вид битрейта : Постоянный
Битрейт : 192 Кбит/сек
Каналы : 2 канала
Расположение каналов : Front: L R
Частота : 48,0 КГц
Битовая глубина : 16 бит
Метод сжатия : С потерями
Размер потока : 60,8 Мбайт (4%)
Заголовок : ДТВ
Язык : Russian
Default : Да
Forced : Да

Аудио #2
Идентификатор : 3
Формат : AC-3
Формат/Информация : Audio Coding 3
Расширение режима : CM (complete main)
Параметр Endianness формата : Big
Идентификатор кодека : A_AC3
Продолжительность : 44 м.
Вид битрейта : Постоянный
Битрейт : 192 Кбит/сек
Каналы : 2 канала
Расположение каналов : Front: L R
Частота : 48,0 КГц
Битовая глубина : 16 бит
Метод сжатия : С потерями
Размер потока : 60,8 Мбайт (4%)
Заголовок : English
Язык : English
Default : Нет
Forced : Нет
Общее
Уникальный идентификатор : 249847825049202238238172657705432863421 (0xBBF6F0D6F918CC9EAE01B3F6F9C752BD)
Полное имя : D:\UPLOADED\МОИ\CSI\CSI - Las-Vegas\S 07. CSI - Las-Vegas\03. Toe Tags (Бирки на пальцах).mkv
Формат : Matroska
Версия формата : Version 4 / Version 2
Размер файла : 1,30 Гбайт
Продолжительность : 42 м.
Общий поток : 4384 Кбит/сек
Название фильма : 03. Toe Tags (Бирки на пальцах)
Дата кодирования : UTC 2014-01-02 19:19:42
Программа кодирования : mkvmerge v6.3.0 ('You can't stop me!') built on Jul 19 2013 16:27:38
Библиотека кодирования : libebml v1.3.0 + libmatroska v1.4.1

Видео
Идентификатор : 1
Формат : AVC
Формат/Информация : Advanced Video Codec
Профиль формата : Main@L3.1
Параметр CABAC формата : Нет
Параметр ReFrames формата : 2 кадра
Параметр GOP формата : M=2, N=24
Идентификатор кодека : V_MPEG4/ISO/AVC
Продолжительность : 42 м.
Битрейт : 3913 Кбит/сек
Ширина : 1280 пикселей
Высота : 720 пикселей
Соотношение сторон : 16:9
Режим частоты кадров : Постоянный
Частота кадров : 23,976 кадра/сек
Цветовое пространство : YUV
Субдискретизация насыщенности : 4:2:0
Битовая глубина : 8 бит
Тип развёртки : Прогрессивная
Бит/(Пиксели*Кадры) : 0.177
Размер потока : 1,16 Гбайт (89%)
Заголовок : 03. Toe Tags (Бирки на пальцах)
Язык : English
Default : Да
Forced : Нет
Основные цвета : BT.709
Характеристики трансфера : BT.709
Коэффициенты матрицы : BT.709

Аудио #1
Идентификатор : 2
Формат : AC-3
Формат/Информация : Audio Coding 3
Расширение режима : CM (complete main)
Параметр Endianness формата : Big
Идентификатор кодека : A_AC3
Продолжительность : 42 м.
Вид битрейта : Постоянный
Битрейт : 192 Кбит/сек
Каналы : 2 канала
Расположение каналов : Front: L R
Частота : 48,0 КГц
Битовая глубина : 16 бит
Метод сжатия : С потерями
Размер потока : 58,2 Мбайт (4%)
Заголовок : ДТВ
Язык : Russian
Default : Да
Forced : Да

Аудио #2
Идентификатор : 3
Формат : AC-3
Формат/Информация : Audio Coding 3
Расширение режима : CM (complete main)
Параметр Endianness формата : Big
Идентификатор кодека : A_AC3
Продолжительность : 42 м.
Вид битрейта : Постоянный
Битрейт : 192 Кбит/сек
Каналы : 2 канала
Расположение каналов : Front: L R
Частота : 48,0 КГц
Битовая глубина : 16 бит
Метод сжатия : С потерями
Размер потока : 58,2 Мбайт (4%)
Заголовок : English
Язык : English
Default : Нет
Forced : Нет
Общее
Уникальный идентификатор : 190257456351974165951079059637418242749 (0x8F2240D3E2C6EAADB21056063BFEB2BD)
Полное имя : D:\UPLOADED\МОИ\CSI\CSI - Las-Vegas\S 07. CSI - Las-Vegas\04. Fannysmackin' (Развлечение).mkv
Формат : Matroska
Версия формата : Version 4 / Version 2
Размер файла : 1,40 Гбайт
Продолжительность : 43 м.
Общий поток : 4570 Кбит/сек
Название фильма : 04. Fannysmackin' (Развлечение)
Дата кодирования : UTC 2014-01-02 19:21:04
Программа кодирования : mkvmerge v6.3.0 ('You can't stop me!') built on Jul 19 2013 16:27:38
Библиотека кодирования : libebml v1.3.0 + libmatroska v1.4.1

Видео
Идентификатор : 1
Формат : AVC
Формат/Информация : Advanced Video Codec
Профиль формата : Main@L3.1
Параметр CABAC формата : Нет
Параметр ReFrames формата : 2 кадра
Параметр GOP формата : M=2, N=24
Идентификатор кодека : V_MPEG4/ISO/AVC
Продолжительность : 43 м.
Битрейт : 4095 Кбит/сек
Ширина : 1280 пикселей
Высота : 720 пикселей
Соотношение сторон : 16:9
Режим частоты кадров : Постоянный
Частота кадров : 23,976 кадра/сек
Цветовое пространство : YUV
Субдискретизация насыщенности : 4:2:0
Битовая глубина : 8 бит
Тип развёртки : Прогрессивная
Бит/(Пиксели*Кадры) : 0.185
Размер потока : 1,25 Гбайт (90%)
Заголовок : 04. Fannysmackin' (Развлечение)
Язык : English
Default : Да
Forced : Нет
Основные цвета : BT.709
Характеристики трансфера : BT.709
Коэффициенты матрицы : BT.709

Аудио #1
Идентификатор : 2
Формат : AC-3
Формат/Информация : Audio Coding 3
Расширение режима : CM (complete main)
Параметр Endianness формата : Big
Идентификатор кодека : A_AC3
Продолжительность : 43 м.
Вид битрейта : Постоянный
Битрейт : 192 Кбит/сек
Каналы : 2 канала
Расположение каналов : Front: L R
Частота : 48,0 КГц
Битовая глубина : 16 бит
Метод сжатия : С потерями
Размер потока : 60,2 Мбайт (4%)
Заголовок : ДТВ
Язык : Russian
Default : Да
Forced : Да

Аудио #2
Идентификатор : 3
Формат : AC-3
Формат/Информация : Audio Coding 3
Расширение режима : CM (complete main)
Параметр Endianness формата : Big
Идентификатор кодека : A_AC3
Продолжительность : 43 м.
Вид битрейта : Постоянный
Битрейт : 192 Кбит/сек
Каналы : 2 канала
Расположение каналов : Front: L R
Частота : 48,0 КГц
Битовая глубина : 16 бит
Метод сжатия : С потерями
Размер потока : 60,2 Мбайт (4%)
Заголовок : English
Язык : English
Default : Нет
Forced : Нет
Общее
Уникальный идентификатор : 185744812109220462305740194808466225695 (0x8BBD2649EDEC03B094EEDB2C061BBA1F)
Полное имя : D:\UPLOADED\МОИ\CSI\CSI - Las-Vegas\S 07. CSI - Las-Vegas\05. Double Cross (Крест-накрест).mkv
Формат : Matroska
Версия формата : Version 4 / Version 2
Размер файла : 1,35 Гбайт
Продолжительность : 43 м.
Общий поток : 4435 Кбит/сек
Название фильма : 05. Double Cross (Крест-накрест)
Дата кодирования : UTC 2014-01-02 19:22:28
Программа кодирования : mkvmerge v6.3.0 ('You can't stop me!') built on Jul 19 2013 16:27:38
Библиотека кодирования : libebml v1.3.0 + libmatroska v1.4.1

Видео
Идентификатор : 1
Формат : AVC
Формат/Информация : Advanced Video Codec
Профиль формата : Main@L3.1
Параметр CABAC формата : Нет
Параметр ReFrames формата : 2 кадра
Параметр GOP формата : M=2, N=24
Идентификатор кодека : V_MPEG4/ISO/AVC
Продолжительность : 43 м.
Битрейт : 3963 Кбит/сек
Ширина : 1280 пикселей
Высота : 720 пикселей
Соотношение сторон : 16:9
Режим частоты кадров : Постоянный
Частота кадров : 23,976 кадра/сек
Цветовое пространство : YUV
Субдискретизация насыщенности : 4:2:0
Битовая глубина : 8 бит
Тип развёртки : Прогрессивная
Бит/(Пиксели*Кадры) : 0.179
Размер потока : 1,21 Гбайт (89%)
Заголовок : 05. Double Cross (Крест-накрест)
Язык : English
Default : Да
Forced : Нет
Основные цвета : BT.709
Характеристики трансфера : BT.709
Коэффициенты матрицы : BT.709

Аудио #1
Идентификатор : 2
Формат : AC-3
Формат/Информация : Audio Coding 3
Расширение режима : CM (complete main)
Параметр Endianness формата : Big
Идентификатор кодека : A_AC3
Продолжительность : 43 м.
Вид битрейта : Постоянный
Битрейт : 192 Кбит/сек
Каналы : 2 канала
Расположение каналов : Front: L R
Частота : 48,0 КГц
Битовая глубина : 16 бит
Метод сжатия : С потерями
Размер потока : 60,0 Мбайт (4%)
Заголовок : ДТВ
Язык : Russian
Default : Да
Forced : Да

Аудио #2
Идентификатор : 3
Формат : AC-3
Формат/Информация : Audio Coding 3
Расширение режима : CM (complete main)
Параметр Endianness формата : Big
Идентификатор кодека : A_AC3
Продолжительность : 43 м.
Вид битрейта : Постоянный
Битрейт : 192 Кбит/сек
Каналы : 2 канала
Расположение каналов : Front: L R
Частота : 48,0 КГц
Битовая глубина : 16 бит
Метод сжатия : С потерями
Размер потока : 60,0 Мбайт (4%)
Заголовок : English
Язык : English
Default : Нет
Forced : Нет
Общее
Уникальный идентификатор : 187693231984561058423324678644205454213 (0x8D3466CE31F6BE168B480F2B0D818385)
Полное имя : D:\UPLOADED\МОИ\CSI\CSI - Las-Vegas\S 07. CSI - Las-Vegas\06. Burn Out (Выгоревший).mkv
Формат : Matroska
Версия формата : Version 4 / Version 2
Размер файла : 1,36 Гбайт
Продолжительность : 44 м.
Общий поток : 4413 Кбит/сек
Название фильма : 06. Burn Out (Выгоревший)
Дата кодирования : UTC 2014-01-02 19:23:42
Программа кодирования : mkvmerge v6.3.0 ('You can't stop me!') built on Jul 19 2013 16:27:38
Библиотека кодирования : libebml v1.3.0 + libmatroska v1.4.1

Видео
Идентификатор : 1
Формат : AVC
Формат/Информация : Advanced Video Codec
Профиль формата : Main@L3.1
Параметр CABAC формата : Нет
Параметр ReFrames формата : 2 кадра
Параметр GOP формата : M=2, N=24
Идентификатор кодека : V_MPEG4/ISO/AVC
Продолжительность : 44 м.
Битрейт : 3941 Кбит/сек
Ширина : 1280 пикселей
Высота : 720 пикселей
Соотношение сторон : 16:9
Режим частоты кадров : Постоянный
Частота кадров : 23,976 кадра/сек
Цветовое пространство : YUV
Субдискретизация насыщенности : 4:2:0
Битовая глубина : 8 бит
Тип развёртки : Прогрессивная
Бит/(Пиксели*Кадры) : 0.178
Размер потока : 1,21 Гбайт (89%)
Заголовок : 06. Burn Out (Выгоревший)
Язык : English
Default : Да
Forced : Нет
Основные цвета : BT.709
Характеристики трансфера : BT.709
Коэффициенты матрицы : BT.709

Аудио #1
Идентификатор : 2
Формат : AC-3
Формат/Информация : Audio Coding 3
Расширение режима : CM (complete main)
Параметр Endianness формата : Big
Идентификатор кодека : A_AC3
Продолжительность : 44 м.
Вид битрейта : Постоянный
Битрейт : 192 Кбит/сек
Каналы : 2 канала
Расположение каналов : Front: L R
Частота : 48,0 КГц
Битовая глубина : 16 бит
Метод сжатия : С потерями
Размер потока : 60,6 Мбайт (4%)
Заголовок : ДТВ
Язык : Russian
Default : Да
Forced : Да

Аудио #2
Идентификатор : 3
Формат : AC-3
Формат/Информация : Audio Coding 3
Расширение режима : CM (complete main)
Параметр Endianness формата : Big
Идентификатор кодека : A_AC3
Продолжительность : 44 м.
Вид битрейта : Постоянный
Битрейт : 192 Кбит/сек
Каналы : 2 канала
Расположение каналов : Front: L R
Частота : 48,0 КГц
Битовая глубина : 16 бит
Метод сжатия : С потерями
Размер потока : 60,6 Мбайт (4%)
Заголовок : English
Язык : English
Default : Нет
Forced : Нет
Общее
Уникальный идентификатор : 249251144004415502182922378401637465352 (0xBB840631631B5390A3719B4E1FEFFD08)
Полное имя : D:\UPLOADED\МОИ\CSI\CSI - Las-Vegas\S 07. CSI - Las-Vegas\07. Post Mortem (После смерти).mkv
Формат : Matroska
Версия формата : Version 4 / Version 2
Размер файла : 1,42 Гбайт
Продолжительность : 44 м.
Общий поток : 4598 Кбит/сек
Название фильма : 07. Post Mortem (После смерти)
Дата кодирования : UTC 2014-01-02 19:25:02
Программа кодирования : mkvmerge v6.3.0 ('You can't stop me!') built on Jul 19 2013 16:27:38
Библиотека кодирования : libebml v1.3.0 + libmatroska v1.4.1

Видео
Идентификатор : 1
Формат : AVC
Формат/Информация : Advanced Video Codec
Профиль формата : Main@L3.1
Параметр CABAC формата : Нет
Параметр ReFrames формата : 2 кадра
Параметр GOP формата : M=2, N=24
Идентификатор кодека : V_MPEG4/ISO/AVC
Продолжительность : 44 м.
Битрейт : 4123 Кбит/сек
Ширина : 1280 пикселей
Высота : 720 пикселей
Соотношение сторон : 16:9
Режим частоты кадров : Постоянный
Частота кадров : 23,976 кадра/сек
Цветовое пространство : YUV
Субдискретизация насыщенности : 4:2:0
Битовая глубина : 8 бит
Тип развёртки : Прогрессивная
Бит/(Пиксели*Кадры) : 0.187
Размер потока : 1,27 Гбайт (90%)
Заголовок : 07. Post Mortem (После смерти)
Язык : English
Default : Да
Forced : Нет
Основные цвета : BT.709
Характеристики трансфера : BT.709
Коэффициенты матрицы : BT.709

Аудио #1
Идентификатор : 2
Формат : AC-3
Формат/Информация : Audio Coding 3
Расширение режима : CM (complete main)
Параметр Endianness формата : Big
Идентификатор кодека : A_AC3
Продолжительность : 44 м.
Вид битрейта : Постоянный
Битрейт : 192 Кбит/сек
Каналы : 2 канала
Расположение каналов : Front: L R
Частота : 48,0 КГц
Битовая глубина : 16 бит
Метод сжатия : С потерями
Размер потока : 60,8 Мбайт (4%)
Заголовок : ДТВ
Язык : Russian
Default : Да
Forced : Да

Аудио #2
Идентификатор : 3
Формат : AC-3
Формат/Информация : Audio Coding 3
Расширение режима : CM (complete main)
Параметр Endianness формата : Big
Идентификатор кодека : A_AC3
Продолжительность : 44 м.
Вид битрейта : Постоянный
Битрейт : 192 Кбит/сек
Каналы : 2 канала
Расположение каналов : Front: L R
Частота : 48,0 КГц
Битовая глубина : 16 бит
Метод сжатия : С потерями
Размер потока : 60,8 Мбайт (4%)
Заголовок : English
Язык : English
Default : Нет
Forced : Нет
Общее
Уникальный идентификатор : 231062180009634572550080453913961222547 (0xADD4F507C17F78C68F4A83B582CAD193)
Полное имя : D:\UPLOADED\МОИ\CSI\CSI - Las-Vegas\S 07. CSI - Las-Vegas\08. Happenstance (Случайность).mkv
Формат : Matroska
Версия формата : Version 4 / Version 2
Размер файла : 1,30 Гбайт
Продолжительность : 43 м.
Общий поток : 4286 Кбит/сек
Название фильма : 08. Happenstance (Случайность)
Дата кодирования : UTC 2014-01-02 19:26:20
Программа кодирования : mkvmerge v6.3.0 ('You can't stop me!') built on Jul 19 2013 16:27:38
Библиотека кодирования : libebml v1.3.0 + libmatroska v1.4.1

Видео
Идентификатор : 1
Формат : AVC
Формат/Информация : Advanced Video Codec
Профиль формата : Main@L3.1
Параметр CABAC формата : Нет
Параметр ReFrames формата : 2 кадра
Параметр GOP формата : M=2, N=24
Идентификатор кодека : V_MPEG4/ISO/AVC
Продолжительность : 43 м.
Битрейт : 3817 Кбит/сек
Ширина : 1280 пикселей
Высота : 720 пикселей
Соотношение сторон : 16:9
Режим частоты кадров : Постоянный
Частота кадров : 23,976 кадра/сек
Цветовое пространство : YUV
Субдискретизация насыщенности : 4:2:0
Битовая глубина : 8 бит
Тип развёртки : Прогрессивная
Бит/(Пиксели*Кадры) : 0.173
Размер потока : 1,16 Гбайт (89%)
Заголовок : 08. Happenstance (Случайность)
Язык : English
Default : Да
Forced : Нет
Основные цвета : BT.709
Характеристики трансфера : BT.709
Коэффициенты матрицы : BT.709

Аудио #1
Идентификатор : 2
Формат : AC-3
Формат/Информация : Audio Coding 3
Расширение режима : CM (complete main)
Параметр Endianness формата : Big
Идентификатор кодека : A_AC3
Продолжительность : 43 м.
Вид битрейта : Постоянный
Битрейт : 192 Кбит/сек
Каналы : 2 канала
Расположение каналов : Front: L R
Частота : 48,0 КГц
Битовая глубина : 16 бит
Метод сжатия : С потерями
Размер потока : 59,6 Мбайт (4%)
Заголовок : ДТВ
Язык : Russian
Default : Да
Forced : Да

Аудио #2
Идентификатор : 3
Формат : AC-3
Формат/Информация : Audio Coding 3
Расширение режима : CM (complete main)
Параметр Endianness формата : Big
Идентификатор кодека : A_AC3
Продолжительность : 43 м.
Вид битрейта : Постоянный
Битрейт : 192 Кбит/сек
Каналы : 2 канала
Расположение каналов : Front: L R
Частота : 48,0 КГц
Битовая глубина : 16 бит
Метод сжатия : С потерями
Размер потока : 59,6 Мбайт (4%)
Заголовок : English
Язык : English
Default : Нет
Forced : Нет
Общее
Уникальный идентификатор : 232935710031725874176934005471392640407 (0xAF3DC9312ECD712F83F08620C4A12D97)
Полное имя : D:\UPLOADED\МОИ\CSI\CSI - Las-Vegas\S 07. CSI - Las-Vegas\09. Living Legend (Живая легенда).mkv
Формат : Matroska
Версия формата : Version 4 / Version 2
Размер файла : 1,24 Гбайт
Продолжительность : 42 м.
Общий поток : 4153 Кбит/сек
Название фильма : 09. Living Legend (Живая легенда)
Дата кодирования : UTC 2014-01-02 19:28:00
Программа кодирования : mkvmerge v6.3.0 ('You can't stop me!') built on Jul 19 2013 16:27:38
Библиотека кодирования : libebml v1.3.0 + libmatroska v1.4.1

Видео
Идентификатор : 1
Формат : AVC
Формат/Информация : Advanced Video Codec
Профиль формата : Main@L3.1
Параметр CABAC формата : Нет
Параметр ReFrames формата : 2 кадра
Параметр GOP формата : M=2, N=24
Идентификатор кодека : V_MPEG4/ISO/AVC
Продолжительность : 42 м.
Битрейт : 3686 Кбит/сек
Ширина : 1280 пикселей
Высота : 720 пикселей
Соотношение сторон : 16:9
Режим частоты кадров : Постоянный
Частота кадров : 23,976 кадра/сек
Цветовое пространство : YUV
Субдискретизация насыщенности : 4:2:0
Битовая глубина : 8 бит
Тип развёртки : Прогрессивная
Бит/(Пиксели*Кадры) : 0.167
Размер потока : 1,10 Гбайт (89%)
Заголовок : 09. Living Legend (Живая легенда)
Язык : English
Default : Да
Forced : Нет
Основные цвета : BT.709
Характеристики трансфера : BT.709
Коэффициенты матрицы : BT.709

Аудио #1
Идентификатор : 2
Формат : AC-3
Формат/Информация : Audio Coding 3
Расширение режима : CM (complete main)
Параметр Endianness формата : Big
Идентификатор кодека : A_AC3
Продолжительность : 42 м.
Вид битрейта : Постоянный
Битрейт : 192 Кбит/сек
Каналы : 2 канала
Расположение каналов : Front: L R
Частота : 48,0 КГц
Битовая глубина : 16 бит
Метод сжатия : С потерями
Размер потока : 58,9 Мбайт (5%)
Заголовок : ДТВ
Язык : Russian
Default : Да
Forced : Да

Аудио #2
Идентификатор : 3
Формат : AC-3
Формат/Информация : Audio Coding 3
Расширение режима : CM (complete main)
Параметр Endianness формата : Big
Идентификатор кодека : A_AC3
Продолжительность : 42 м.
Вид битрейта : Постоянный
Битрейт : 192 Кбит/сек
Каналы : 2 канала
Расположение каналов : Front: L R
Частота : 48,0 КГц
Битовая глубина : 16 бит
Метод сжатия : С потерями
Размер потока : 58,9 Мбайт (5%)
Заголовок : English
Язык : English
Default : Нет
Forced : Нет
Общее
Уникальный идентификатор : 206302396544146794886006237754459178308 (0x9B34657497E0F72A8A283EA805144544)
Полное имя : D:\UPLOADED\МОИ\CSI\CSI - Las-Vegas\S 07. CSI - Las-Vegas\10. Loco Motives (Сумасшедшие побуждения).mkv
Формат : Matroska
Версия формата : Version 4 / Version 2
Размер файла : 1,25 Гбайт
Продолжительность : 44 м.
Общий поток : 4066 Кбит/сек
Название фильма : 10. Loco Motives (Сумасшедшие побуждения)
Дата кодирования : UTC 2014-01-02 19:29:19
Программа кодирования : mkvmerge v6.3.0 ('You can't stop me!') built on Jul 19 2013 16:27:38
Библиотека кодирования : libebml v1.3.0 + libmatroska v1.4.1

Видео
Идентификатор : 1
Формат : AVC
Формат/Информация : Advanced Video Codec
Профиль формата : Main@L3.1
Параметр CABAC формата : Нет
Параметр ReFrames формата : 2 кадра
Параметр GOP формата : M=2, N=24
Идентификатор кодека : V_MPEG4/ISO/AVC
Продолжительность : 44 м.
Битрейт : 3601 Кбит/сек
Ширина : 1280 пикселей
Высота : 720 пикселей
Соотношение сторон : 16:9
Режим частоты кадров : Постоянный
Частота кадров : 23,976 кадра/сек
Цветовое пространство : YUV
Субдискретизация насыщенности : 4:2:0
Битовая глубина : 8 бит
Тип развёртки : Прогрессивная
Бит/(Пиксели*Кадры) : 0.163
Размер потока : 1,11 Гбайт (89%)
Заголовок : 10. Loco Motives (Сумасшедшие побуждения)
Язык : English
Default : Да
Forced : Нет
Основные цвета : BT.709
Характеристики трансфера : BT.709
Коэффициенты матрицы : BT.709

Аудио #1
Идентификатор : 2
Формат : AC-3
Формат/Информация : Audio Coding 3
Расширение режима : CM (complete main)
Параметр Endianness формата : Big
Идентификатор кодека : A_AC3
Продолжительность : 44 м.
Вид битрейта : Постоянный
Битрейт : 192 Кбит/сек
Каналы : 2 канала
Расположение каналов : Front: L R
Частота : 48,0 КГц
Битовая глубина : 16 бит
Метод сжатия : С потерями
Размер потока : 60,7 Мбайт (5%)
Заголовок : ДТВ
Язык : Russian
Default : Да
Forced : Да

Аудио #2
Идентификатор : 3
Формат : AC-3
Формат/Информация : Audio Coding 3
Расширение режима : CM (complete main)
Параметр Endianness формата : Big
Идентификатор кодека : A_AC3
Продолжительность : 44 м.
Вид битрейта : Постоянный
Битрейт : 192 Кбит/сек
Каналы : 2 канала
Расположение каналов : Front: L R
Частота : 48,0 КГц
Битовая глубина : 16 бит
Метод сжатия : С потерями
Размер потока : 60,7 Мбайт (5%)
Заголовок : English
Язык : English
Default : Нет
Forced : Нет
Общее
Уникальный идентификатор : 218899000749603501742280848676003612335 (0xA4AE69FE2206B05193747500DECD86AF)
Полное имя : D:\UPLOADED\МОИ\CSI\CSI - Las-Vegas\S 07. CSI - Las-Vegas\11. Leaving Las Vegas (Покидая Лас-Вегас).mkv
Формат : Matroska
Версия формата : Version 4 / Version 2
Размер файла : 1,43 Гбайт
Продолжительность : 44 м.
Общий поток : 4632 Кбит/сек
Название фильма : 11. Leaving Las Vegas (Покидая Лас-Вегас)
Дата кодирования : UTC 2014-01-02 19:30:42
Программа кодирования : mkvmerge v6.3.0 ('You can't stop me!') built on Jul 19 2013 16:27:38
Библиотека кодирования : libebml v1.3.0 + libmatroska v1.4.1

Видео
Идентификатор : 1
Формат : AVC
Формат/Информация : Advanced Video Codec
Профиль формата : Main@L3.1
Параметр CABAC формата : Нет
Параметр ReFrames формата : 2 кадра
Параметр GOP формата : M=2, N=24
Идентификатор кодека : V_MPEG4/ISO/AVC
Продолжительность : 44 м.
Битрейт : 4156 Кбит/сек
Ширина : 1280 пикселей
Высота : 720 пикселей
Соотношение сторон : 16:9
Режим частоты кадров : Постоянный
Частота кадров : 23,976 кадра/сек
Цветовое пространство : YUV
Субдискретизация насыщенности : 4:2:0
Битовая глубина : 8 бит
Тип развёртки : Прогрессивная
Бит/(Пиксели*Кадры) : 0.188
Размер потока : 1,28 Гбайт (90%)
Заголовок : 11. Leaving Las Vegas (Покидая Лас-Вегас)
Язык : English
Default : Да
Forced : Нет
Основные цвета : BT.709
Характеристики трансфера : BT.709
Коэффициенты матрицы : BT.709

Аудио #1
Идентификатор : 2
Формат : AC-3
Формат/Информация : Audio Coding 3
Расширение режима : CM (complete main)
Параметр Endianness формата : Big
Идентификатор кодека : A_AC3
Продолжительность : 44 м.
Вид битрейта : Постоянный
Битрейт : 192 Кбит/сек
Каналы : 2 канала
Расположение каналов : Front: L R
Частота : 48,0 КГц
Битовая глубина : 16 бит
Метод сжатия : С потерями
Размер потока : 60,8 Мбайт (4%)
Заголовок : ДТВ
Язык : Russian
Default : Да
Forced : Да

Аудио #2
Идентификатор : 3
Формат : AC-3
Формат/Информация : Audio Coding 3
Расширение режима : CM (complete main)
Параметр Endianness формата : Big
Идентификатор кодека : A_AC3
Продолжительность : 44 м.
Вид битрейта : Постоянный
Битрейт : 192 Кбит/сек
Каналы : 2 канала
Расположение каналов : Front: L R
Частота : 48,0 КГц
Битовая глубина : 16 бит
Метод сжатия : С потерями
Размер потока : 60,8 Мбайт (4%)
Заголовок : English
Язык : English
Default : Нет
Forced : Нет
Общее
Уникальный идентификатор : 214990389277153021743917555511913571774 (0xA1BDA49195794F2AB54F1D7204AB65BE)
Полное имя : D:\UPLOADED\МОИ\CSI\CSI - Las-Vegas\S 07. CSI - Las-Vegas\12. Sweet Jane (Сладкая Джейн).mkv
Формат : Matroska
Версия формата : Version 4 / Version 2
Размер файла : 1,34 Гбайт
Продолжительность : 44 м.
Общий поток : 4280 Кбит/сек
Название фильма : 12. Sweet Jane (Сладкая Джейн)
Дата кодирования : UTC 2014-01-02 19:32:04
Программа кодирования : mkvmerge v6.3.0 ('You can't stop me!') built on Jul 19 2013 16:27:38
Библиотека кодирования : libebml v1.3.0 + libmatroska v1.4.1

Видео
Идентификатор : 1
Формат : AVC
Формат/Информация : Advanced Video Codec
Профиль формата : Main@L3.1
Параметр CABAC формата : Нет
Параметр ReFrames формата : 2 кадра
Параметр GOP формата : M=2, N=24
Идентификатор кодека : V_MPEG4/ISO/AVC
Продолжительность : 44 м.
Битрейт : 3811 Кбит/сек
Ширина : 1280 пикселей
Высота : 720 пикселей
Соотношение сторон : 16:9
Режим частоты кадров : Постоянный
Частота кадров : 23,976 кадра/сек
Цветовое пространство : YUV
Субдискретизация насыщенности : 4:2:0
Битовая глубина : 8 бит
Тип развёртки : Прогрессивная
Бит/(Пиксели*Кадры) : 0.172
Размер потока : 1,19 Гбайт (89%)
Заголовок : 12. Sweet Jane (Сладкая Джейн)
Язык : English
Default : Да
Forced : Нет
Основные цвета : BT.709
Характеристики трансфера : BT.709
Коэффициенты матрицы : BT.709

Аудио #1
Идентификатор : 2
Формат : AC-3
Формат/Информация : Audio Coding 3
Расширение режима : CM (complete main)
Параметр Endianness формата : Big
Идентификатор кодека : A_AC3
Продолжительность : 44 м.
Вид битрейта : Постоянный
Битрейт : 192 Кбит/сек
Каналы : 2 канала
Расположение каналов : Front: L R
Частота : 48,0 КГц
Битовая глубина : 16 бит
Метод сжатия : С потерями
Размер потока : 61,3 Мбайт (4%)
Заголовок : ДТВ
Язык : Russian
Default : Да
Forced : Да

Аудио #2
Идентификатор : 3
Формат : AC-3
Формат/Информация : Audio Coding 3
Расширение режима : CM (complete main)
Параметр Endianness формата : Big
Идентификатор кодека : A_AC3
Продолжительность : 44 м.
Вид битрейта : Постоянный
Битрейт : 192 Кбит/сек
Каналы : 2 канала
Расположение каналов : Front: L R
Частота : 48,0 КГц
Битовая глубина : 16 бит
Метод сжатия : С потерями
Размер потока : 61,3 Мбайт (4%)
Заголовок : English
Язык : English
Default : Нет
Forced : Нет
Общее
Уникальный идентификатор : 216139894377237249646661260937029262813 (0xA29B078BB98DCF6D9D0661C8BC709DDD)
Полное имя : D:\UPLOADED\МОИ\CSI\CSI - Las-Vegas\S 07. CSI - Las-Vegas\13. Redrum (Убийство).mkv
Формат : Matroska
Версия формата : Version 4 / Version 2
Размер файла : 1,37 Гбайт
Продолжительность : 44 м.
Общий поток : 4454 Кбит/сек
Название фильма : 13. Redrum (Убийство)
Дата кодирования : UTC 2014-01-02 19:33:24
Программа кодирования : mkvmerge v6.3.0 ('You can't stop me!') built on Jul 19 2013 16:27:38
Библиотека кодирования : libebml v1.3.0 + libmatroska v1.4.1

Видео
Идентификатор : 1
Формат : AVC
Формат/Информация : Advanced Video Codec
Профиль формата : Main@L3.1
Параметр CABAC формата : Нет
Параметр ReFrames формата : 2 кадра
Параметр GOP формата : M=2, N=24
Идентификатор кодека : V_MPEG4/ISO/AVC
Продолжительность : 44 м.
Битрейт : 3981 Кбит/сек
Ширина : 1280 пикселей
Высота : 720 пикселей
Соотношение сторон : 16:9
Режим частоты кадров : Постоянный
Частота кадров : 23,976 кадра/сек
Цветовое пространство : YUV
Субдискретизация насыщенности : 4:2:0
Битовая глубина : 8 бит
Тип развёртки : Прогрессивная
Бит/(Пиксели*Кадры) : 0.180
Размер потока : 1,23 Гбайт (89%)
Заголовок : 13. Redrum (Убийство)
Язык : English
Default : Да
Forced : Нет
Основные цвета : BT.709
Характеристики трансфера : BT.709
Коэффициенты матрицы : BT.709

Аудио #1
Идентификатор : 2
Формат : AC-3
Формат/Информация : Audio Coding 3
Расширение режима : CM (complete main)
Параметр Endianness формата : Big
Идентификатор кодека : A_AC3
Продолжительность : 44 м.
Вид битрейта : Постоянный
Битрейт : 192 Кбит/сек
Каналы : 2 канала
Расположение каналов : Front: L R
Частота : 48,0 КГц
Битовая глубина : 16 бит
Метод сжатия : С потерями
Размер потока : 60,6 Мбайт (4%)
Заголовок : ДТВ
Язык : Russian
Default : Да
Forced : Да

Аудио #2
Идентификатор : 3
Формат : AC-3
Формат/Информация : Audio Coding 3
Расширение режима : CM (complete main)
Параметр Endianness формата : Big
Идентификатор кодека : A_AC3
Продолжительность : 44 м.
Вид битрейта : Постоянный
Битрейт : 192 Кбит/сек
Каналы : 2 канала
Расположение каналов : Front: L R
Частота : 48,0 КГц
Битовая глубина : 16 бит
Метод сжатия : С потерями
Размер потока : 60,6 Мбайт (4%)
Заголовок : English
Язык : English
Default : Нет
Forced : Нет
Общее
Уникальный идентификатор : 230520747962291447212529733499713554061 (0xAD6CAE5E8E5E587190109D4C9F3D068D)
Полное имя : D:\UPLOADED\МОИ\CSI\CSI - Las-Vegas\S 07. CSI - Las-Vegas\14. Meet Market (Индустрия встреч).mkv
Формат : Matroska
Версия формата : Version 4 / Version 2
Размер файла : 1,41 Гбайт
Продолжительность : 43 м.
Общий поток : 4585 Кбит/сек
Название фильма : 14. Meet Market (Индустрия встреч)
Дата кодирования : UTC 2014-01-02 19:34:48
Программа кодирования : mkvmerge v6.3.0 ('You can't stop me!') built on Jul 19 2013 16:27:38
Библиотека кодирования : libebml v1.3.0 + libmatroska v1.4.1

Видео
Идентификатор : 1
Формат : AVC
Формат/Информация : Advanced Video Codec
Профиль формата : Main@L3.1
Параметр CABAC формата : Нет
Параметр ReFrames формата : 2 кадра
Параметр GOP формата : M=2, N=24
Идентификатор кодека : V_MPEG4/ISO/AVC
Продолжительность : 43 м.
Битрейт : 4109 Кбит/сек
Ширина : 1280 пикселей
Высота : 720 пикселей
Соотношение сторон : 16:9
Режим частоты кадров : Постоянный
Частота кадров : 23,976 кадра/сек
Цветовое пространство : YUV
Субдискретизация насыщенности : 4:2:0
Битовая глубина : 8 бит
Тип развёртки : Прогрессивная
Бит/(Пиксели*Кадры) : 0.186
Размер потока : 1,26 Гбайт (90%)
Заголовок : 14. Meet Market (Индустрия встреч)
Язык : English
Default : Да
Forced : Нет
Основные цвета : BT.709
Характеристики трансфера : BT.709
Коэффициенты матрицы : BT.709

Аудио #1
Идентификатор : 2
Формат : AC-3
Формат/Информация : Audio Coding 3
Расширение режима : CM (complete main)
Параметр Endianness формата : Big
Идентификатор кодека : A_AC3
Продолжительность : 43 м.
Вид битрейта : Постоянный
Битрейт : 192 Кбит/сек
Каналы : 2 канала
Расположение каналов : Front: L R
Частота : 48,0 КГц
Битовая глубина : 16 бит
Метод сжатия : С потерями
Размер потока : 60,3 Мбайт (4%)
Заголовок : ДТВ
Язык : Russian
Default : Да
Forced : Да

Аудио #2
Идентификатор : 3
Формат : AC-3
Формат/Информация : Audio Coding 3
Расширение режима : CM (complete main)
Параметр Endianness формата : Big
Идентификатор кодека : A_AC3
Продолжительность : 43 м.
Вид битрейта : Постоянный
Битрейт : 192 Кбит/сек
Каналы : 2 канала
Расположение каналов : Front: L R
Частота : 48,0 КГц
Битовая глубина : 16 бит
Метод сжатия : С потерями
Размер потока : 60,3 Мбайт (4%)
Заголовок : English
Язык : English
Default : Нет
Forced : Нет
Общее
Уникальный идентификатор : 249917487081254696321483488731334077649 (0xBC045B716E81A3E58B8C8CB791766CD1)
Полное имя : D:\UPLOADED\МОИ\CSI\CSI - Las-Vegas\S 07. CSI - Las-Vegas\15. Law of Gravity (Закон тяготения).mkv
Формат : Matroska
Версия формата : Version 4 / Version 2
Размер файла : 1,32 Гбайт
Продолжительность : 43 м.
Общий поток : 4297 Кбит/сек
Название фильма : 15. Law of Gravity (Закон тяготения)
Дата кодирования : UTC 2014-01-02 19:36:24
Программа кодирования : mkvmerge v6.3.0 ('You can't stop me!') built on Jul 19 2013 16:27:38
Библиотека кодирования : libebml v1.3.0 + libmatroska v1.4.1

Видео
Идентификатор : 1
Формат : AVC
Формат/Информация : Advanced Video Codec
Профиль формата : Main@L3.1
Параметр CABAC формата : Нет
Параметр ReFrames формата : 2 кадра
Параметр GOP формата : M=2, N=24
Идентификатор кодека : V_MPEG4/ISO/AVC
Продолжительность : 43 м.
Битрейт : 3827 Кбит/сек
Ширина : 1280 пикселей
Высота : 720 пикселей
Соотношение сторон : 16:9
Режим частоты кадров : Постоянный
Частота кадров : 23,976 кадра/сек
Цветовое пространство : YUV
Субдискретизация насыщенности : 4:2:0
Битовая глубина : 8 бит
Тип развёртки : Прогрессивная
Бит/(Пиксели*Кадры) : 0.173
Размер потока : 1,17 Гбайт (89%)
Заголовок : 15. Law of Gravity (Закон тяготения)
Язык : English
Default : Да
Forced : Нет
Основные цвета : BT.709
Характеристики трансфера : BT.709
Коэффициенты матрицы : BT.709

Аудио #1
Идентификатор : 2
Формат : AC-3
Формат/Информация : Audio Coding 3
Расширение режима : CM (complete main)
Параметр Endianness формата : Big
Идентификатор кодека : A_AC3
Продолжительность : 43 м.
Вид битрейта : Постоянный
Битрейт : 192 Кбит/сек
Каналы : 2 канала
Расположение каналов : Front: L R
Частота : 48,0 КГц
Битовая глубина : 16 бит
Метод сжатия : С потерями
Размер потока : 60,3 Мбайт (4%)
Заголовок : ДТВ
Язык : Russian
Default : Да
Forced : Да

Аудио #2
Идентификатор : 3
Формат : AC-3
Формат/Информация : Audio Coding 3
Расширение режима : CM (complete main)
Параметр Endianness формата : Big
Идентификатор кодека : A_AC3
Продолжительность : 43 м.
Вид битрейта : Постоянный
Битрейт : 192 Кбит/сек
Каналы : 2 канала
Расположение каналов : Front: L R
Частота : 48,0 КГц
Битовая глубина : 16 бит
Метод сжатия : С потерями
Размер потока : 60,3 Мбайт (4%)
Заголовок : English
Язык : English
Default : Нет
Forced : Нет
Общее
Уникальный идентификатор : 207164682589180181487043018026850025087 (0x9BDA7770980F9C1DB85126F233B17E7F)
Полное имя : D:\UPLOADED\МОИ\CSI\CSI - Las-Vegas\S 07. CSI - Las-Vegas\16. Monster in the Box (Монстр в коробке).mkv
Формат : Matroska
Версия формата : Version 4 / Version 2
Размер файла : 1,34 Гбайт
Продолжительность : 43 м.
Общий поток : 4407 Кбит/сек
Название фильма : 16. Monster in the Box (Монстр в коробке)
Дата кодирования : UTC 2014-01-02 19:37:48
Программа кодирования : mkvmerge v6.3.0 ('You can't stop me!') built on Jul 19 2013 16:27:38
Библиотека кодирования : libebml v1.3.0 + libmatroska v1.4.1

Видео
Идентификатор : 1
Формат : AVC
Формат/Информация : Advanced Video Codec
Профиль формата : Main@L3.1
Параметр CABAC формата : Нет
Параметр ReFrames формата : 2 кадра
Параметр GOP формата : M=2, N=24
Идентификатор кодека : V_MPEG4/ISO/AVC
Продолжительность : 43 м.
Битрейт : 3935 Кбит/сек
Ширина : 1280 пикселей
Высота : 720 пикселей
Соотношение сторон : 16:9
Режим частоты кадров : Постоянный
Частота кадров : 23,976 кадра/сек
Цветовое пространство : YUV
Субдискретизация насыщенности : 4:2:0
Битовая глубина : 8 бит
Тип развёртки : Прогрессивная
Бит/(Пиксели*Кадры) : 0.178
Размер потока : 1,19 Гбайт (89%)
Заголовок : 16. Monster in the Box (Монстр в коробке)
Язык : English
Default : Да
Forced : Нет
Основные цвета : BT.709
Характеристики трансфера : BT.709
Коэффициенты матрицы : BT.709

Аудио #1
Идентификатор : 2
Формат : AC-3
Формат/Информация : Audio Coding 3
Расширение режима : CM (complete main)
Параметр Endianness формата : Big
Идентификатор кодека : A_AC3
Продолжительность : 43 м.
Вид битрейта : Постоянный
Битрейт : 192 Кбит/сек
Каналы : 2 канала
Расположение каналов : Front: L R
Частота : 48,0 КГц
Битовая глубина : 16 бит
Метод сжатия : С потерями
Размер потока : 59,7 Мбайт (4%)
Заголовок : ДТВ
Язык : Russian
Default : Да
Forced : Да

Аудио #2
Идентификатор : 3
Формат : AC-3
Формат/Информация : Audio Coding 3
Расширение режима : CM (complete main)
Параметр Endianness формата : Big
Идентификатор кодека : A_AC3
Продолжительность : 43 м.
Вид битрейта : Постоянный
Битрейт : 192 Кбит/сек
Каналы : 2 канала
Расположение каналов : Front: L R
Частота : 48,0 КГц
Битовая глубина : 16 бит
Метод сжатия : С потерями
Размер потока : 59,7 Мбайт (4%)
Заголовок : English
Язык : English
Default : Нет
Forced : Нет
Общее
Уникальный идентификатор : 182490191706068910990712188698381480213 (0x894A551D2BD98845B2D56358118B7115)
Полное имя : D:\UPLOADED\МОИ\CSI\CSI - Las-Vegas\S 07. CSI - Las-Vegas\17. Fallen Idols (Падшие идолы).mkv
Формат : Matroska
Версия формата : Version 4 / Version 2
Размер файла : 1,35 Гбайт
Продолжительность : 44 м.
Общий поток : 4365 Кбит/сек
Название фильма : 17. Fallen Idols (Падшие идолы)
Дата кодирования : UTC 2014-01-02 19:39:34
Программа кодирования : mkvmerge v6.3.0 ('You can't stop me!') built on Jul 19 2013 16:27:38
Библиотека кодирования : libebml v1.3.0 + libmatroska v1.4.1

Видео
Идентификатор : 1
Формат : AVC
Формат/Информация : Advanced Video Codec
Профиль формата : Main@L3.1
Параметр CABAC формата : Нет
Параметр ReFrames формата : 2 кадра
Параметр GOP формата : M=2, N=24
Идентификатор кодека : V_MPEG4/ISO/AVC
Продолжительность : 44 м.
Битрейт : 3894 Кбит/сек
Ширина : 1280 пикселей
Высота : 720 пикселей
Соотношение сторон : 16:9
Режим частоты кадров : Постоянный
Частота кадров : 23,976 кадра/сек
Цветовое пространство : YUV
Субдискретизация насыщенности : 4:2:0
Битовая глубина : 8 бит
Тип развёртки : Прогрессивная
Бит/(Пиксели*Кадры) : 0.176
Размер потока : 1,20 Гбайт (89%)
Заголовок : 17. Fallen Idols (Падшие идолы)
Язык : English
Default : Да
Forced : Нет
Основные цвета : BT.709
Характеристики трансфера : BT.709
Коэффициенты матрицы : BT.709

Аудио #1
Идентификатор : 2
Формат : AC-3
Формат/Информация : Audio Coding 3
Расширение режима : CM (complete main)
Параметр Endianness формата : Big
Идентификатор кодека : A_AC3
Продолжительность : 44 м.
Вид битрейта : Постоянный
Битрейт : 192 Кбит/сек
Каналы : 2 канала
Расположение каналов : Front: L R
Частота : 48,0 КГц
Битовая глубина : 16 бит
Метод сжатия : С потерями
Размер потока : 60,8 Мбайт (4%)
Заголовок : ДТВ
Язык : Russian
Default : Да
Forced : Да

Аудио #2
Идентификатор : 3
Формат : AC-3
Формат/Информация : Audio Coding 3
Расширение режима : CM (complete main)
Параметр Endianness формата : Big
Идентификатор кодека : A_AC3
Продолжительность : 44 м.
Вид битрейта : Постоянный
Битрейт : 192 Кбит/сек
Каналы : 2 канала
Расположение каналов : Front: L R
Частота : 48,0 КГц
Битовая глубина : 16 бит
Метод сжатия : С потерями
Размер потока : 60,8 Мбайт (4%)
Заголовок : English
Язык : English
Default : Нет
Forced : Нет
Общее
Уникальный идентификатор : 199855239982880199397905963437929504022 (0x965AB8186ABB3108B73A366025BB9D16)
Полное имя : D:\UPLOADED\МОИ\CSI\CSI - Las-Vegas\S 07. CSI - Las-Vegas\18. Empty Eyes (Пустые глаза).mkv
Формат : Matroska
Версия формата : Version 4 / Version 2
Размер файла : 1,32 Гбайт
Продолжительность : 42 м.
Общий поток : 4414 Кбит/сек
Название фильма : 18. Empty Eyes (Пустые глаза)
Дата кодирования : UTC 2014-01-02 19:41:11
Программа кодирования : mkvmerge v6.3.0 ('You can't stop me!') built on Jul 19 2013 16:27:38
Библиотека кодирования : libebml v1.3.0 + libmatroska v1.4.1

Видео
Идентификатор : 1
Формат : AVC
Формат/Информация : Advanced Video Codec
Профиль формата : Main@L3.1
Параметр CABAC формата : Нет
Параметр ReFrames формата : 2 кадра
Параметр GOP формата : M=2, N=24
Идентификатор кодека : V_MPEG4/ISO/AVC
Продолжительность : 42 м.
Битрейт : 3942 Кбит/сек
Ширина : 1280 пикселей
Высота : 720 пикселей
Соотношение сторон : 16:9
Режим частоты кадров : Постоянный
Частота кадров : 23,976 кадра/сек
Цветовое пространство : YUV
Субдискретизация насыщенности : 4:2:0
Битовая глубина : 8 бит
Тип развёртки : Прогрессивная
Бит/(Пиксели*Кадры) : 0.178
Размер потока : 1,18 Гбайт (89%)
Заголовок : 18. Empty Eyes (Пустые глаза)
Язык : English
Default : Да
Forced : Нет
Основные цвета : BT.709
Характеристики трансфера : BT.709
Коэффициенты матрицы : BT.709

Аудио #1
Идентификатор : 2
Формат : AC-3
Формат/Информация : Audio Coding 3
Расширение режима : CM (complete main)
Параметр Endianness формата : Big
Идентификатор кодека : A_AC3
Продолжительность : 42 м.
Вид битрейта : Постоянный
Битрейт : 192 Кбит/сек
Каналы : 2 канала
Расположение каналов : Front: L R
Частота : 48,0 КГц
Битовая глубина : 16 бит
Метод сжатия : С потерями
Размер потока : 58,9 Мбайт (4%)
Заголовок : ДТВ
Язык : Russian
Default : Да
Forced : Да

Аудио #2
Идентификатор : 3
Формат : AC-3
Формат/Информация : Audio Coding 3
Расширение режима : CM (complete main)
Параметр Endianness формата : Big
Идентификатор кодека : A_AC3
Продолжительность : 42 м.
Вид битрейта : Постоянный
Битрейт : 192 Кбит/сек
Каналы : 2 канала
Расположение каналов : Front: L R
Частота : 48,0 КГц
Битовая глубина : 16 бит
Метод сжатия : С потерями
Размер потока : 58,9 Мбайт (4%)
Заголовок : English
Язык : English
Default : Нет
Forced : Нет
Общее
Уникальный идентификатор : 185148256425574161116142900936467208893 (0x8B4A41D29F9F7A0FA0D5A3020622DABD)
Полное имя : D:\UPLOADED\МОИ\CSI\CSI - Las-Vegas\S 07. CSI - Las-Vegas\19. Big Shots (Выстрелы).mkv
Формат : Matroska
Версия формата : Version 4 / Version 2
Размер файла : 1,29 Гбайт
Продолжительность : 41 м.
Общий поток : 4437 Кбит/сек
Название фильма : 19. Big Shots (Выстрелы)
Дата кодирования : UTC 2014-01-02 19:42:33
Программа кодирования : mkvmerge v6.3.0 ('You can't stop me!') built on Jul 19 2013 16:27:38
Библиотека кодирования : libebml v1.3.0 + libmatroska v1.4.1

Видео
Идентификатор : 1
Формат : AVC
Формат/Информация : Advanced Video Codec
Профиль формата : Main@L3.1
Параметр CABAC формата : Нет
Параметр ReFrames формата : 2 кадра
Параметр GOP формата : M=2, N=24
Идентификатор кодека : V_MPEG4/ISO/AVC
Продолжительность : 41 м.
Битрейт : 3965 Кбит/сек
Ширина : 1280 пикселей
Высота : 720 пикселей
Соотношение сторон : 16:9
Режим частоты кадров : Постоянный
Частота кадров : 23,976 кадра/сек
Цветовое пространство : YUV
Субдискретизация насыщенности : 4:2:0
Битовая глубина : 8 бит
Тип развёртки : Прогрессивная
Бит/(Пиксели*Кадры) : 0.179
Размер потока : 1,16 Гбайт (89%)
Заголовок : 19. Big Shots (Выстрелы)
Язык : English
Default : Да
Forced : Нет
Основные цвета : BT.709
Характеристики трансфера : BT.709
Коэффициенты матрицы : BT.709

Аудио #1
Идентификатор : 2
Формат : AC-3
Формат/Информация : Audio Coding 3
Расширение режима : CM (complete main)
Параметр Endianness формата : Big
Идентификатор кодека : A_AC3
Продолжительность : 41 м.
Вид битрейта : Постоянный
Битрейт : 192 Кбит/сек
Каналы : 2 канала
Расположение каналов : Front: L R
Частота : 48,0 КГц
Битовая глубина : 16 бит
Метод сжатия : С потерями
Размер потока : 57,4 Мбайт (4%)
Заголовок : ДТВ
Язык : Russian
Default : Да
Forced : Да

Аудио #2
Идентификатор : 3
Формат : AC-3
Формат/Информация : Audio Coding 3
Расширение режима : CM (complete main)
Параметр Endianness формата : Big
Идентификатор кодека : A_AC3
Продолжительность : 41 м.
Вид битрейта : Постоянный
Битрейт : 192 Кбит/сек
Каналы : 2 канала
Расположение каналов : Front: L R
Частота : 48,0 КГц
Битовая глубина : 16 бит
Метод сжатия : С потерями
Размер потока : 57,4 Мбайт (4%)
Заголовок : English
Язык : English
Default : Нет
Forced : Нет
Общее
Уникальный идентификатор : 182718964787173816150038654456357469638 (0x8976647F68AD87FFA4295157ABC43DC6)
Полное имя : D:\UPLOADED\МОИ\CSI\CSI - Las-Vegas\S 07. CSI - Las-Vegas\20. Lab Rats (Лабораторные крысы).mkv
Формат : Matroska
Версия формата : Version 4 / Version 2
Размер файла : 1,32 Гбайт
Продолжительность : 43 м.
Общий поток : 4353 Кбит/сек
Название фильма : 20. Lab Rats (Лабораторные крысы)
Дата кодирования : UTC 2014-01-02 19:43:53
Программа кодирования : mkvmerge v6.3.0 ('You can't stop me!') built on Jul 19 2013 16:27:38
Библиотека кодирования : libebml v1.3.0 + libmatroska v1.4.1

Видео
Идентификатор : 1
Формат : AVC
Формат/Информация : Advanced Video Codec
Профиль формата : Main@L3.1
Параметр CABAC формата : Нет
Параметр ReFrames формата : 2 кадра
Параметр GOP формата : M=2, N=24
Идентификатор кодека : V_MPEG4/ISO/AVC
Продолжительность : 43 м.
Битрейт : 3883 Кбит/сек
Ширина : 1280 пикселей
Высота : 720 пикселей
Соотношение сторон : 16:9
Режим частоты кадров : Постоянный
Частота кадров : 23,976 кадра/сек
Цветовое пространство : YUV
Субдискретизация насыщенности : 4:2:0
Битовая глубина : 8 бит
Тип развёртки : Прогрессивная
Бит/(Пиксели*Кадры) : 0.176
Размер потока : 1,18 Гбайт (89%)
Заголовок : 20. Lab Rats (Лабораторные крысы)
Язык : English
Default : Да
Forced : Нет
Основные цвета : BT.709
Характеристики трансфера : BT.709
Коэффициенты матрицы : BT.709

Аудио #1
Идентификатор : 2
Формат : AC-3
Формат/Информация : Audio Coding 3
Расширение режима : CM (complete main)
Параметр Endianness формата : Big
Идентификатор кодека : A_AC3
Продолжительность : 43 м.
Вид битрейта : Постоянный
Битрейт : 192 Кбит/сек
Каналы : 2 канала
Расположение каналов : Front: L R
Частота : 48,0 КГц
Битовая глубина : 16 бит
Метод сжатия : С потерями
Размер потока : 59,7 Мбайт (4%)
Заголовок : ДТВ
Язык : Russian
Default : Да
Forced : Да

Аудио #2
Идентификатор : 3
Формат : AC-3
Формат/Информация : Audio Coding 3
Расширение режима : CM (complete main)
Параметр Endianness формата : Big
Идентификатор кодека : A_AC3
Продолжительность : 43 м.
Вид битрейта : Постоянный
Битрейт : 192 Кбит/сек
Каналы : 2 канала
Расположение каналов : Front: L R
Частота : 48,0 КГц
Битовая глубина : 16 бит
Метод сжатия : С потерями
Размер потока : 59,7 Мбайт (4%)
Заголовок : English
Язык : English
Default : Нет
Forced : Нет
Общее
Уникальный идентификатор : 171355801120299186245211278893126873118 (0x80E9ED462FA3DDE4AF4C1753AB51701E)
Полное имя : D:\UPLOADED\МОИ\CSI\CSI - Las-Vegas\S 07. CSI - Las-Vegas\21. Ending Happy (Конец счастливчика).mkv
Формат : Matroska
Версия формата : Version 4 / Version 2
Размер файла : 1,32 Гбайт
Продолжительность : 44 м.
Общий поток : 4269 Кбит/сек
Название фильма : 21. Ending Happy (Конец счастливчика)
Дата кодирования : UTC 2014-01-02 19:45:12
Программа кодирования : mkvmerge v6.3.0 ('You can't stop me!') built on Jul 19 2013 16:27:38
Библиотека кодирования : libebml v1.3.0 + libmatroska v1.4.1

Видео
Идентификатор : 1
Формат : AVC
Формат/Информация : Advanced Video Codec
Профиль формата : Main@L3.1
Параметр CABAC формата : Нет
Параметр ReFrames формата : 2 кадра
Параметр GOP формата : M=2, N=24
Идентификатор кодека : V_MPEG4/ISO/AVC
Продолжительность : 44 м.
Битрейт : 3800 Кбит/сек
Ширина : 1280 пикселей
Высота : 720 пикселей
Соотношение сторон : 16:9
Режим частоты кадров : Постоянный
Частота кадров : 23,976 кадра/сек
Цветовое пространство : YUV
Субдискретизация насыщенности : 4:2:0
Битовая глубина : 8 бит
Тип развёртки : Прогрессивная
Бит/(Пиксели*Кадры) : 0.172
Размер потока : 1,17 Гбайт (89%)
Заголовок : 21. Ending Happy (Конец счастливчика)
Язык : English
Default : Да
Forced : Нет
Основные цвета : BT.709
Характеристики трансфера : BT.709
Коэффициенты матрицы : BT.709

Аудио #1
Идентификатор : 2
Формат : AC-3
Формат/Информация : Audio Coding 3
Расширение режима : CM (complete main)
Параметр Endianness формата : Big
Идентификатор кодека : A_AC3
Продолжительность : 44 м.
Вид битрейта : Постоянный
Битрейт : 192 Кбит/сек
Каналы : 2 канала
Расположение каналов : Front: L R
Частота : 48,0 КГц
Битовая глубина : 16 бит
Метод сжатия : С потерями
Размер потока : 60,7 Мбайт (4%)
Заголовок : ДТВ
Язык : Russian
Default : Да
Forced : Да

Аудио #2
Идентификатор : 3
Формат : AC-3
Формат/Информация : Audio Coding 3
Расширение режима : CM (complete main)
Параметр Endianness формата : Big
Идентификатор кодека : A_AC3
Продолжительность : 44 м.
Вид битрейта : Постоянный
Битрейт : 192 Кбит/сек
Каналы : 2 канала
Расположение каналов : Front: L R
Частота : 48,0 КГц
Битовая глубина : 16 бит
Метод сжатия : С потерями
Размер потока : 60,7 Мбайт (4%)
Заголовок : English
Язык : English
Default : Нет
Forced : Нет
Общее
Уникальный идентификатор : 211901608557685068226950513688632226570 (0x9F6AC3EBE9E5D36F95B447696AD9F30A)
Полное имя : D:\UPLOADED\МОИ\CSI\CSI - Las-Vegas\S 07. CSI - Las-Vegas\22. Leapin' Lizards (Прыгающие ящерицы).mkv
Формат : Matroska
Версия формата : Version 4 / Version 2
Размер файла : 1,36 Гбайт
Продолжительность : 43 м.
Общий поток : 4469 Кбит/сек
Название фильма : 22. Leapin' Lizards (Прыгающие ящерицы)
Дата кодирования : UTC 2014-01-02 19:46:25
Программа кодирования : mkvmerge v6.3.0 ('You can't stop me!') built on Jul 19 2013 16:27:38
Библиотека кодирования : libebml v1.3.0 + libmatroska v1.4.1

Видео
Идентификатор : 1
Формат : AVC
Формат/Информация : Advanced Video Codec
Профиль формата : Main@L3.1
Параметр CABAC формата : Нет
Параметр ReFrames формата : 2 кадра
Параметр GOP формата : M=2, N=24
Идентификатор кодека : V_MPEG4/ISO/AVC
Продолжительность : 43 м.
Битрейт : 3996 Кбит/сек
Ширина : 1280 пикселей
Высота : 720 пикселей
Соотношение сторон : 16:9
Режим частоты кадров : Постоянный
Частота кадров : 23,976 кадра/сек
Цветовое пространство : YUV
Субдискретизация насыщенности : 4:2:0
Битовая глубина : 8 бит
Тип развёртки : Прогрессивная
Бит/(Пиксели*Кадры) : 0.181
Размер потока : 1,21 Гбайт (89%)
Заголовок : 22. Leapin' Lizards (Прыгающие ящерицы)
Язык : English
Default : Да
Forced : Нет
Основные цвета : BT.709
Характеристики трансфера : BT.709
Коэффициенты матрицы : BT.709

Аудио #1
Идентификатор : 2
Формат : AC-3
Формат/Информация : Audio Coding 3
Расширение режима : CM (complete main)
Параметр Endianness формата : Big
Идентификатор кодека : A_AC3
Продолжительность : 43 м.
Вид битрейта : Постоянный
Битрейт : 192 Кбит/сек
Каналы : 2 канала
Расположение каналов : Front: L R
Частота : 48,0 КГц
Битовая глубина : 16 бит
Метод сжатия : С потерями
Размер потока : 59,7 Мбайт (4%)
Заголовок : ДТВ
Язык : Russian
Default : Да
Forced : Да

Аудио #2
Идентификатор : 3
Формат : AC-3
Формат/Информация : Audio Coding 3
Расширение режима : CM (complete main)
Параметр Endianness формата : Big
Идентификатор кодека : A_AC3
Продолжительность : 43 м.
Вид битрейта : Постоянный
Битрейт : 192 Кбит/сек
Каналы : 2 канала
Расположение каналов : Front: L R
Частота : 48,0 КГц
Битовая глубина : 16 бит
Метод сжатия : С потерями
Размер потока : 59,7 Мбайт (4%)
Заголовок : English
Язык : English
Default : Нет
Forced : Нет
Общее
Уникальный идентификатор : 252267262802565127077509415661984654470 (0xBDC8E854AC456F4DB9180439E711A486)
Полное имя : D:\UPLOADED\МОИ\CSI\CSI - Las-Vegas\S 07. CSI - Las-Vegas\23. The Good, the Bad and the Dominatrix (Добро, зло и доминанта).mkv
Формат : Matroska
Версия формата : Version 4 / Version 2
Размер файла : 1,30 Гбайт
Продолжительность : 43 м.
Общий поток : 4259 Кбит/сек
Название фильма : 23. The Good, the Bad and the Dominatrix (Добро, зло и доминанта)
Дата кодирования : UTC 2014-01-02 19:48:03
Программа кодирования : mkvmerge v6.3.0 ('You can't stop me!') built on Jul 19 2013 16:27:38
Библиотека кодирования : libebml v1.3.0 + libmatroska v1.4.1

Видео
Идентификатор : 1
Формат : AVC
Формат/Информация : Advanced Video Codec
Профиль формата : Main@L3.1
Параметр CABAC формата : Нет
Параметр ReFrames формата : 2 кадра
Параметр GOP формата : M=2, N=24
Идентификатор кодека : V_MPEG4/ISO/AVC
Продолжительность : 43 м.
Битрейт : 3790 Кбит/сек
Ширина : 1280 пикселей
Высота : 720 пикселей
Соотношение сторон : 16:9
Режим частоты кадров : Постоянный
Частота кадров : 23,976 кадра/сек
Цветовое пространство : YUV
Субдискретизация насыщенности : 4:2:0
Битовая глубина : 8 бит
Тип развёртки : Прогрессивная
Бит/(Пиксели*Кадры) : 0.172
Размер потока : 1,16 Гбайт (89%)
Заголовок : 23. The Good, the Bad and the Dominatrix (Добро, зло и доминанта)
Язык : English
Default : Да
Forced : Нет
Основные цвета : BT.709
Характеристики трансфера : BT.709
Коэффициенты матрицы : BT.709

Аудио #1
Идентификатор : 2
Формат : AC-3
Формат/Информация : Audio Coding 3
Расширение режима : CM (complete main)
Параметр Endianness формата : Big
Идентификатор кодека : A_AC3
Продолжительность : 43 м.
Вид битрейта : Постоянный
Битрейт : 192 Кбит/сек
Каналы : 2 канала
Расположение каналов : Front: L R
Частота : 48,0 КГц
Битовая глубина : 16 бит
Метод сжатия : С потерями
Размер потока : 60,1 Мбайт (5%)
Заголовок : ДТВ
Язык : Russian
Default : Да
Forced : Да

Аудио #2
Идентификатор : 3
Формат : AC-3
Формат/Информация : Audio Coding 3
Расширение режима : CM (complete main)
Параметр Endianness формата : Big
Идентификатор кодека : A_AC3
Продолжительность : 43 м.
Вид битрейта : Постоянный
Битрейт : 192 Кбит/сек
Каналы : 2 канала
Расположение каналов : Front: L R
Частота : 48,0 КГц
Битовая глубина : 16 бит
Метод сжатия : С потерями
Размер потока : 60,1 Мбайт (5%)
Заголовок : English
Язык : English
Default : Нет
Forced : Нет
Общее
Уникальный идентификатор : 196800981135800526686887093763144682251 (0x940E7D8208E452E38E4639EA8D6C0B0B)
Полное имя : D:\UPLOADED\МОИ\CSI\CSI - Las-Vegas\S 07. CSI - Las-Vegas\24. Living Doll (Живая кукла).mkv
Формат : Matroska
Версия формата : Version 4 / Version 2
Размер файла : 1,35 Гбайт
Продолжительность : 43 м.
Общий поток : 4414 Кбит/сек
Название фильма : 24. Living Doll (Живая кукла)
Дата кодирования : UTC 2014-01-02 19:49:32
Программа кодирования : mkvmerge v6.3.0 ('You can't stop me!') built on Jul 19 2013 16:27:38
Библиотека кодирования : libebml v1.3.0 + libmatroska v1.4.1

Видео
Идентификатор : 1
Формат : AVC
Формат/Информация : Advanced Video Codec
Профиль формата : Main@L3.1
Параметр CABAC формата : Нет
Параметр ReFrames формата : 2 кадра
Параметр GOP формата : M=2, N=24
Идентификатор кодека : V_MPEG4/ISO/AVC
Продолжительность : 43 м.
Битрейт : 3942 Кбит/сек
Ширина : 1280 пикселей
Высота : 720 пикселей
Соотношение сторон : 16:9
Режим частоты кадров : Постоянный
Частота кадров : 23,976 кадра/сек
Цветовое пространство : YUV
Субдискретизация насыщенности : 4:2:0
Битовая глубина : 8 бит
Тип развёртки : Прогрессивная
Бит/(Пиксели*Кадры) : 0.178
Размер потока : 1,21 Гбайт (89%)
Заголовок : 24. Living Doll (Живая кукла)
Язык : English
Default : Да
Forced : Нет
Основные цвета : BT.709
Характеристики трансфера : BT.709
Коэффициенты матрицы : BT.709

Аудио #1
Идентификатор : 2
Формат : AC-3
Формат/Информация : Audio Coding 3
Расширение режима : CM (complete main)
Параметр Endianness формата : Big
Идентификатор кодека : A_AC3
Продолжительность : 43 м.
Вид битрейта : Постоянный
Битрейт : 192 Кбит/сек
Каналы : 2 канала
Расположение каналов : Front: L R
Частота : 48,0 КГц
Битовая глубина : 16 бит
Метод сжатия : С потерями
Размер потока : 60,3 Мбайт (4%)
Заголовок : ДТВ
Язык : Russian
Default : Да
Forced : Да

Аудио #2
Идентификатор : 3
Формат : AC-3
Формат/Информация : Audio Coding 3
Расширение режима : CM (complete main)
Параметр Endianness формата : Big
Идентификатор кодека : A_AC3
Продолжительность : 43 м.
Вид битрейта : Постоянный
Битрейт : 192 Кбит/сек
Каналы : 2 канала
Расположение каналов : Front: L R
Частота : 48,0 КГц
Битовая глубина : 16 бит
Метод сжатия : С потерями
Размер потока : 60,3 Мбайт (4%)
Заголовок : English
Язык : English
Default : Нет
Forced : Нет

01. Built to Kill, Part 1 (Выстроенный для убийства, Часть 1)
02. Built to Kill, Part 2 (Выстроенный для убийства, Часть 2)
03. Toe Tags (Бирки на пальцах)
04. Fannysmackin' (Развлечение)
05. Double Cross (Крест-накрест)
06. Burn Out (Выгоревший)
07. Post Mortem (После смерти)
08. Happenstance (Случайность)
09. Living Legend (Живая легенда)
10. Loco Motives (Сумасшедшие побуждения)
11. Leaving Las Vegas (Покидая Лас-Вегас)
12. Sweet Jane (Сладкая Джейн)
13. Redrum (Убийство)
14. Meet Market (Индустрия встреч)
15. Law of Gravity (Закон тяготения)
16. Monster in the Box (Монстр в коробке)
17. Fallen Idols (Падшие идолы)
18. Empty Eyes (Пустые глаза)
19. Big Shots (Выстрелы)
20. Lab Rats (Лабораторные крысы)
21. Ending Happy (Конец счастливчика)
22. Leapin' Lizards (Прыгающие ящерицы)
23. The Good, the Bad and the Dominatrix (Добро, зло и доминанта)
24. Living Doll (Живая кукла)

Золотой глобус, 2001 год - Лучший драматический сериал, лучшая женская роль в драматическом сериале (Марж Хелгенбергер)
Золотой глобус, 2002 год - Лучший драматический сериал, лучшая женская роль на ТВ (Марж Хелгенбергер)
Золотой глобус, 2003 год - Лучшая женская роль на ТВ (Марж Хелгенбергер)
Эмми, 2004 год - Лучший драматический сериал
Золотой глобус, 2004 год - лучшая мужская роль (Уильям Л. Питерсен), лучший драматический сериал
Сатурн, 2005 год - лучший телесериал, созданный для телетрансляции
Сериал спародирован в:
1. Ангелы Чарли 2: Только вперед, 2003 (Charlie's Angels: Full Throttle)
2. CSI: Iowa, 2005
3. SSI: Sex Squad Investigation (видео), 2006
4. Американский выскочка, 2008 (An American Carol)
5. Hollywood's Nailin' Palin (видео), 2010
Уильям Петерсен (Гил Гриссом) работает в сериале по контракту «pay or play», показывающему, в общих словах, его незаменимость для проекта. Такой тип контрактов означает, что актёр получает деньги в любом случае — снимается он или нет. На нынешний момент Петерсен отсутствовал только в пяти эпизодах сериала, четыре из которых он пропустил по личным причинам.
Квентин Тарантино, режиссёр «Криминального чтива», снял два завершающих эпизода (24 и 25) 5 сезона сериала. Это произошло после того, как режиссёр признался в том, что он большой поклонник CSI и хотел бы сам снять «парочку серий» для него, а продюсеры ухватились за эту возможность и довели её до конца. Эпизоды, снятые Тарантино, безусловно выделяются из общего стиля сериала, и были выпущены в США на DVD в виде отдельного издания.
В каждом эпизоде сериала обязательно появляется несколько персонажей «на один эпизод», связанных с каким-то расследуемым преступлением. Некоторые из таких «одноэпизодных» актёров стали впоследствии звёздами в других сериалах. Например, это звезды сериала «Остаться в живых» — Джош Холлоуэй (Сойер), Дэниел Дэй Ким (Джин), Гарольд Перрино-мл. (Майкл), Иэн Сомерхолдер (Бун), Элизабет Митчелл (Джульет), Уильям Мапотер (Итан), Фредрик Лене (Маршал Эдвардс Марс), Кевин Дюранд (Мартин Кими). Также, в одном эпизоде CSI снималась звезда «Отчаянных домохозяек» Марсия Кросс (Бри Ван Де Камп). Ещё в одном эпизоде CSI играли: Майло Вентимилья — Питер Петрелли в сериале «Герои», Миша Коллинз — Кастиэль в сериале Сверхъестественное, Аманда Сейфрид Софи в «Мама Mia», любимец девушек Чад Майкл Мюррей, и юная звезда «Новолуния» Дакота Фаннинг. Так же в четырёх эпизодах вместо отсутствующего Уильяма Петерсена был введён персонаж Майкл Кепплер в исполнении Льва Шрайбера, а в пяти эпизодах появлялась Кей Панабэйкер, играющая Линдси Виллоу вместо Мэдисон МакРейнолдс. Так же звёздами эпизода были: Тейлор Свифт, Каризма Карпентер, Марк Дакаскос, Джастин Бибер
Сериал стал одной из главных причин возникновения так называемого «эффекта CSI», под которым понимают повышение общего уровня представлений о методах расследования преступлений, как у их жертв, так и у присяжных, рассматривающих дела в судах. «Эффект CSI» в целом повлиял на более критичную оценку доказательств, представляемых прокурорами на процессах, из-за чего последние стали предоставлять большее количество вещественных доказательств, в особенности тестов ДНК.
Хотя в целом сериал демонстрирует превосходство криминалистов над преступниками и трагическими обстоятельствами, в некоторых эпизодах показываются случаи когда закон и детективы бессильны и не способны наказать или даже найти преступника. Так, поиски «Миниатюриста» (вымышленного серийного убийцы, приносившего на места преступлений их миниатюрные модели со сценой убийства), длились весь 7 сезон и чуть не стоили жизни одному из криминалистов — Саре Сайдл. Косметолог, сделавший двум пациенткам смертельные внутривенные инъекции перекиси водорода, не был обвинён в уголовном преступлении, однако данные о его проступке были переданы семьям погибших для гражданского иска. Владелец казино, обвинявшийся в убийстве девушки, с помощью адвокатов и интриг был оправдан судом, несмотря на все усилия полицейских и криминалистов доказать его вину.
Несмотря на географическую привязанность к Лас-Вегасу, сериал в основном снимается в Калифорнии. В Лас-Вегасе работает только дополнительная съёмочная группа, которая по необходимости делает общие съёмки города. Первые пять сезонов снимались в городе Санта-Кларита, а с шестого — в Юниверсал Сити, городе расположенном на земле принадлежащей Universal Studios. Санта-Кларита была выбрана из-за своей похожести на окрестности настоящего Лас-Вегаса, причём все съёмки «вне помещений» до сих пор производятся там. При необходимости, однако, съёмочная группа и актёры выезжают в Лас-Вегас.
Отличительной особенностью сериала от реальной работы сотрудников криминалистических лабораторий является значительное отступление от процедуры полицейского расследования. В реальной жизни, преступления расследуют полицейские детективы, тогда как в сериале этим в основном занимаются сотрудники CSI, на самом деле не имеющие на это права. Случаи, когда полицейский детектив одновременно является и сотрудником криминалистической лаборатории, чрезвычайно редки.
Представители LGBT (сексуальных меньшинств) часто критикуют сериал за своё негативное представление, так как во многих сериях преступники или подозреваемые относятся к этим меньшинствам. С другой стороны, в сериале часто встречаются персонажи второго плана, которые относятся к LGBT, но показываются либо положительно, либо нейтрально, либо как жертвы преступлений из-за своего образа жизни.
В 9 сезоне главный герой сериала Гил Гриссом (Уильям Петерсен) уходит из шоу и актёр Лоуренс Фишборн начинает играть на постоянной основе. Однако, Гриссом появляется в одном из эпизодов 11 сезона...
jasinpapa
P.S. Большая просьба к скачавшим имеющим широкие каналы и объёмные винчестеры не уходить с раздачи как можно дольше!!!

Продолжительность: ~00:45:00 серия
Качество видео: WEB-DL 720p
Формат: MKV
Видеокодек: AVC
Битрейт видео: ~4000 Кбит/сек
Размер кадра: 1280x720 (16:9), 23,976 fps,~ 4000 Kbps
Аудиокодек: AC3
Битрейт аудио:
аудио rus: AC-3 at 192 Kbps 2 channels, 48.0 KHz, Профессиональный многоголосый - ДТВ
аудио eng: AC-3 at 192 Kbps 2 channels, 48.0 KHz, оригинальная дорожка
Место преступления: Лас-Вегас / CSI: Crime Scene Investigation все раздачи сериала

Скриншоты:

Время Раздачи: 24/7 - круглосуточно до 5 скачавших
[NNM-Club.me]_S 07. CSI - Las-Vegas.torrent
 Торрент: Платиновая раздача  Зарегистрирован
 
Скачать


Примагнититься
 Зарегистрирован:   08 Янв 2014 22:02:18
 Размер:   32,1 GB  (
 Рейтинг:   4,9 (Голосов: 22)
 Поблагодарили:   60
 Проверка:   Оформление проверено модератором 11 Янв 2014 01:02:28
Как cкачать  ·  Как раздать  ·  Правильно оформить  ·  Поднять ратио!  

_________________
На первом месте у меня семья и дети, а хобби =>Мои РЕЛИЗЫ <= в свободное от них время
Показать сообщения:   
Начать новую тему   Ответить на тему    Торрент-трекер NNM-Club -> Зарубежные сериалы -> Место преступления / CSI Часовой пояс: GMT + 3
Страница 1 из 1