Классический форум-трекер
canvas not supported
Нас вместе: 4 077 675

Ангел или демон (2013) SATRip [01-40 из 40]


 
 
RSS
Начать новую тему   Ответить на тему    Торрент-трекер NNM-Club -> Архив торрентов -> Архив Сериалов и Старого многосерийного кино до 90-х
Автор Сообщение
Loko73loko ®
Стаж: 8 лет 9 мес.
Сообщений: 334
Ratio: 24,134
Поблагодарили: 10719
100%
Откуда: Мистик фолс
russia.gif
Ангел или демон (2013) SATRip [01-40 из 40]

Год выпуска: 2013
Производство: Россия
Жанр: Триллер, Мистика, Мелодрама
Перевод: Не требуется (Оригинал, русский)

Дата российской премьеры: 5 апреля 2013



Режиссер:
Марк Горобец, Стас Иванов
Актеры: Анна Андрусенко, Кирилл Запорожский, Сергей Чирков, Алексей Комашко, Татьяна Федоровская, Анастасия Стежко, Анна Скиданова, Анфиса Вистингаузен, Валерий Панков, Сергей Борисов (III), Марцин Руй, Данила Якушев, Ярослав Бойко, Артём Яковлев (II), Анастасия Сердюк, Дарья Волга, Максим Литовченко, Александра Грин, Павел Делонг, Виталий Кудрявцев, Сергей Карасевич, Вадим Медведев (II), Елена Ландер, Ирина Савицкова, Федя Смирнов (II), Анастасия Маринина, Антонина Комиссарова, Иван Чуваткин, Оксана Дорохина, Анна Большова, Анита Бумагина, Сергей Петров (VII), Михаил Гаврилов (II), Елена Лагута, Олеся Лагута, Максим Меркулов, Кирилл Каганович, Максим Ратинер, Евгений Воловенк

Описание фильма:
Простая семнадцатилетняя школьница Маша Аверина никогда не подозревала о своей истиной природе. Она – земной ангел. Уже около ста лет в этом бренном мире не встречались люди, обладающие такой кристально чистой душой как у Маши. От своего наставника Яна девушка узнает, что призвана бороться с демонами и спасать невинных людей от их влияния. Но не только силы света видят в Маше огромный потенциал. Демоны желают заставить ее свернуть на тропу зла. Теперь, чтобы выполнить свою миссию, девушка должна научиться противостоять соблазнам, которые готовят для нее враги всего человечества.

Продолжительность: 40 x ~ 00:42:00
Качество видео: SATRip
Сэмпл: Скачать

Видеокодек: Xvid
Битрейт видео: ~~ 1600 Кбит/с
Размер кадра: 720х400
Аудиокодек: MP3
Битрейт аудио: 128 Кбит/с
Формат : AVI
Формат/Информация : Audio Video Interleave
Размер файла : 536 Мбайт
Продолжительность : 44 м.
Общий поток : 1677 Кбит/сек
Программа кодирования : VirtualDubMod 1.5.10.2 (build 2540/release)
Библиотека кодирования : VirtualDubMod build 2540/release

Видео
Идентификатор : 0
Формат : MPEG-4 Visual
Профиль формата : Advanced Simple@L5
Параметр BVOP формата : 2
Параметр QPel формата : Нет
Параметр GMC формата : Без точки перехода
Параметр матрицы формата : Default (MPEG)
Идентификатор кодека : XVID
Идентификатор кодека/Подсказка : XviD
Продолжительность : 44 м.
Битрейт : 1540 Кбит/сек
Ширина : 720 пикселей
Высота : 400 пикселей
Соотношение сторон : 16:9
Частота кадров : 25,000 кадров/сек
Цветовое пространство : YUV
Субдискретизация насыщенности : 4:2:0
Битовая глубина : 8 бит
Тип развёртки : Прогрессивная
Метод сжатия : С потерями
Бит/(Пиксели*Кадры) : 0.214
Размер потока : 492 Мбайт (92%)
Библиотека кодирования : XviD 65

Аудио
Идентификатор : 1
Формат : MPEG Audio
Версия формата : Version 1
Профиль формата : Layer 3
Режим : Joint stereo
Расширение режима : MS Stereo
Идентификатор кодека : 55
Идентификатор кодека/Подсказка : MP3
Продолжительность : 44 м.
Вид битрейта : Постоянный
Битрейт : 128 Кбит/сек
Каналы : 2 канала
Частота : 48,0 КГц
Метод сжатия : С потерями
Размер потока : 40,9 Мбайт (8%)
Выравнивание : Соединение по промежуткам
Продолжительность промежутка : 40 мс. (1,00 видеокадр)
Время предзагрузки промежутка : 504 мс.
Все раздачи сериала
Скриншоты:


Время раздачи: 12:00 до 3:00
[NNM-Club.me]_Angel ili demon.torrent
 Торрент: Платиновая раздача  Зарегистрирован
 
Скачать


Примагнититься
 Зарегистрирован:   10 Янв 2014 16:33:19
 Размер:   22 GB  (
 Рейтинг:   4,5 (Голосов: 60)
 Поблагодарили:   186
 Проверка:   Оформление проверено модератором 11 Янв 2014 16:49:48
Как cкачать  ·  Как раздать  ·  Правильно оформить  ·  Поднять ратио!  

_________________
i7-3770K 4.2 MHZ Asus P8Z77-V PRO | GTX 980Ti G1 Gaming| 18GB Kingston RAM | Corsair RM 1000 |Samsung 850 PRO 256 Gb | SSD Samsung 840 EVO 120Gb | WD Blue 320GB - WD Gren 2TB | WD red 4 TB | Windows 10 Pro x64
sereja8
Стаж: 9 лет 2 мес.
Сообщений: 4
Ratio: 0,295
100%
ukraine.gif
Замечательный фильм, интересно будет продолжение или нет.
otimchenko
Стаж: 9 лет 8 мес.
Сообщений: 155
Ratio: 3,255
Поблагодарили: 87
100%
Откуда: Ставрополь
russia.gif
до этого сериала не знала кто такой Сергей Чирков.... пришлось из-за него смотреть все 40 серий :)) великолепен :)
Топик был перенесен из форума Отечественные сериалы в форум Архив Сериалов

Причина переноса: раздающего не было 3 месяца.

Исправил релиз - напиши ЛС DriverV, дав ссылку на релиз.
Если нет ответа 24 часа - нажми на кнопку "Обратить внимание модераторов".
Показать сообщения:   
Начать новую тему   Ответить на тему    Торрент-трекер NNM-Club -> Архив торрентов -> Архив Сериалов и Старого многосерийного кино до 90-х Часовой пояс: GMT + 3
Страница 1 из 1