Классический форум-трекер
canvas not supported
Нас вместе: 4 093 507

Hiram Bullock & Billy Cobham & WDR Big Band Koln - Hiram Bullock Plays the Music of Jimi Hendrix (2004) [WavPack|Lossless]<Jazz Fusion>


 
 
RSS
Начать новую тему   Ответить на тему    Торрент-трекер NNM-Club -> Jazz, Blues, Soul -> Jazz (Lossless)
Автор Сообщение
Doshik ®
Стаж: 9 лет 4 мес.
Сообщений: 1688
Ratio: 43,716
Поблагодарили: 92660
100%
barbados.gif
Hiram Bullock & Billy Cobham & WDR Big Band Köln - Hiram Bullock Plays the Music of Jimi Hendrix (2004)
Год: 2004
Жанр: Jazz Fusion
Продолжительность: 00:47:50
Лейбл: ZYX Music
Каталог: BHM 1034-2

Кодек: WavPack (image+.cue + log)
Битрейт: Lossless

Треклист:
01. Crosstown Traffic; Little Miss Lover (7:22)
02. Red House (9:29)
03. Foxy Lady (6:26)
04. Little Wing (5:36)
05. Voodoo Child (5:28)
06. Gipsy Eyes (5:10)
07. Manic Depression (8:19)
Код:

Exact Audio Copy V0.99 prebeta 4 from 23. January 2008

EAC extraction logfile from 15. April 2009, 17:23

Hiram Bullock & Billy Cobham, WDR Big Band / Hiram Bullock - Plays the Music of Jimi Hendrix

Used drive  : HL-DT-STDVD-ROM DH16NS10   Adapter: 5  ID: 0

Read mode               : Secure
Utilize accurate stream : Yes
Defeat audio cache      : Yes
Make use of C2 pointers : No

Read offset correction                      : 102
Overread into Lead-In and Lead-Out          : Yes
Fill up missing offset samples with silence : Yes
Delete leading and trailing silent blocks   : No
Null samples used in CRC calculations       : Yes
Used interface                              : Installed external ASPI interface

Used output format : Internal WAV Routines
Sample format      : 44.100 Hz; 16 Bit; Stereo

TOC of the extracted CD

     Track |   Start  |  Length  | Start sector | End sector
    ---------------------------------------------------------
        1  |  0:00.00 |  7:22.28 |         0    |    33177
        2  |  7:22.28 |  9:29.13 |     33178    |    75865
        3  | 16:51.41 |  6:25.52 |     75866    |   104792
        4  | 23:17.18 |  5:35.44 |    104793    |   129961
        5  | 28:52.62 |  5:28.09 |    129962    |   154570
        6  | 34:20.71 |  5:09.53 |    154571    |   177798
        7  | 39:30.49 |  8:19.37 |    177799    |   215260

Range status and errors

Selected range

     Filename F:\Release\Hiram Bullock - Plays the Music of Jimi Hendrix\Hiram Bullock & Billy Cobham, WDR Big Band - Hiram Bullock - Plays the Music of Jimi Hendrix.wav

     Peak level 100.0 %
     Range quality 100.0 %
     Test CRC D022D42A
     Copy CRC D022D42A
     Copy OK

No errors occurred

AccurateRip summary

Track  1  not present in database
Track  2  not present in database
Track  3  not present in database
Track  4  not present in database
Track  5  not present in database
Track  6  not present in database
Track  7  not present in database

None of the tracks are present in the AccurateRip database

End of status report
Код:

-----------------------

DON'T MODIFY THIS FILE

-----------------------

PERFORMER: auCDtect Task Manager, ver. 1.5.1RC6 build 1.5.1.7
Copyright (c) 2008-2010 y-soft. All rights reserved
http://y-soft.org

ANALYZER: auCDtect: CD records authenticity detector, version 0.8.2
Copyright (c) 2004 Oleg Berngardt. All rights reserved.
Copyright (c) 2004 Alexander Djourik. All rights reserved.

FILE: Hiram Bullock & Billy Cobham, WDR Big Band - Plays the Music of Jimi Hendrix.wv
  Size: 350659276 Hash: 4046FD5B8449BD55E2C04B49B3291B7B Accuracy: -m8
  Conclusion: CDDA 100%
  Signature: 8BAD3EB5A91539C0F2149C387F2E9DDEA0F23E05
Время раздачи: 09:00 - 24:00
[NNM-Club.me]_Hiram Bullock Plays the Music of Jimi Hendrix_BabyChilly_release.torrent
 Торрент: Платиновая раздача  Зарегистрирован
 
Скачать


Примагнититься
 Зарегистрирован:   13 Янв 2014 08:40:51
 Размер:   336 MB  (
 Рейтинг:   4,9 (Голосов: 15)
 Поблагодарили:   54
 Проверка:   Оформление проверено модератором 13 Янв 2014 17:47:09
Как cкачать  ·  Как раздать  ·  Правильно оформить  ·  Поднять ратио!  
Показать сообщения:   
Начать новую тему   Ответить на тему    Торрент-трекер NNM-Club -> Jazz, Blues, Soul -> Jazz (Lossless) Часовой пояс: GMT + 3
Страница 1 из 1