Классический форум-трекер
canvas not supported
Нас вместе: 4 079 096

Буква в духе. Церковнославянская грамота(2012-2013) SATRip


 
 
RSS
Начать новую тему   Ответить на тему    Торрент-трекер NNM-Club -> Религии и культы -> Религиозное видео
Автор Сообщение
МиSHа ®
Стаж: 8 лет 8 мес.
Сообщений: 1290
Ratio: 84,995
Поблагодарили: 43111
100%
russia.gif
Буква в духе. Церковнославянская грамота(2012-2013) SATRip
Режиссер: ТК "Союз"
Год выпуска: 2012-13
Жанр: Лекции

Описание:
Курс ведет Сергей Анатольевич Наумов, кандидат филологических наук

Продолжительность: 73серии по ~14мин
Качество видео: SATRip

Видеокодек: Xvid
Битрейт видео: ~461 Кбит/сек
Размер кадра: 480/360
Аудиокодек: MP3
Битрейт аудио: 128 Кбит/сек, 44.1 КГц
Общее
Полное имя : H:\Буква в духе\01.Введение.avi
Формат : AVI
Формат/Информация : Audio Video Interleave
Размер файла : 59,4 Мбайт
Продолжительность : 13 м.
Общий поток : 601 Кбит/сек
Программа кодирования : MEncoder SVN-r33883(20110719-gcc4.5.2)
Библиотека кодирования : MPlayer

Видео
Идентификатор : 0
Формат : MPEG-4 Visual
Профиль формата : Advanced Simple@L5
Параметр BVOP формата : 2
Параметр QPel формата : Нет
Параметр GMC формата : Без точки перехода
Параметр матрицы формата : Default (H.263)
Идентификатор кодека : XVID
Идентификатор кодека/Подсказка : XviD
Продолжительность : 13 м.
Битрейт : 461 Кбит/сек
Ширина : 480 пикс.
Высота : 360 пикс.
Соотношение сторон : 4:3
Частота кадров : 25,000 кадр/сек
Цветовое пространство : YUV
Подвыборка цветности : 4:2:0
Битовая глубина : 8 бит
Тип развёртки : Прогрессивная
Метод сжатия : С потерями
Бит/(Пиксели*Кадры) : 0.107
Размер потока : 45,6 Мбайт (77%)
Библиотека кодирования : XviD 1.2.1 (UTC 2008-12-04)

Аудио
Идентификатор : 1
Формат : MPEG Audio
Версия формата : Version 1
Профиль формата : Layer 3
Режим : Joint stereo
Расширение режима : MS Stereo
Идентификатор кодека : 55
Идентификатор кодека/Подсказка : MP3
Продолжительность : 13 м.
Вид битрейта : Постоянный
Битрейт : 128 Кбит/сек
Каналы : 2 канала
Частота : 44,1 КГц
Метод сжатия : С потерями
Задержка видео : 40 мс.
Размер потока : 12,6 Мбайт (21%)
Выравнивание : Соединение по промежуткам
Продолжительность промежутка : 26 мс. (0,65 видеокадр)
Время предзагрузки промежутка : 522 ms
Библиотека кодирования : LAME3.98.4
Скриншоты:


Время раздачи: с 10:00 до 20:00
Bukva_duhe_[nnm-club]_avi_.torrent
 Торрент: Платиновая раздача  Зарегистрирован
 
Скачать


Примагнититься
 Зарегистрирован:   13 Янв 2014 17:46:36
 Размер:   4,28 GB  (
 Рейтинг:   4,2 (Голосов: 36)
 Поблагодарили:   84
 Проверка:   Оформление проверено модератором 13 Янв 2014 20:10:56
Как cкачать  ·  Как раздать  ·  Правильно оформить  ·  Поднять ратио!  
Загрузка...
Silvestr92
Стаж: 7 лет 8 мес.
Сообщений: 40
Ratio: 1,003
100%
отлично
Ю РОК
Стаж: 9 лет 3 мес.
Сообщений: 30
Ratio: 3,195
100%
Откуда: Обираловка
russia.gif
Большое СПАСИБО!!!

_________________
Шел по улице о машины спотыкаясь
ja33
Стаж: 9 лет 7 мес.
Сообщений: 105
Ratio: 0,761
Поблагодарили: 79
100%
russia.gif
Спасибо.
Показать сообщения:   
Начать новую тему   Ответить на тему    Торрент-трекер NNM-Club -> Религии и культы -> Религиозное видео Часовой пояс: GMT + 3
Страница 1 из 1