Классический форум-трекер
canvas not supported
Нас вместе: 4 093 904

Настоящий детектив / True Detective (2014) HDTVRip [H.264/720p-LQ] (Сезон 1 Серия 1-8 (8)) (Amedia)


Страницы:  1, 2, 3, 4, 5, 6, 7  След. 
 
RSS
Начать новую тему   Ответить на тему    Торрент-трекер NNM-Club -> Зарубежные сериалы
Автор Сообщение
Игорь_Вла​димирович​ ®
Стаж: 8 лет
Сообщений: 2523
Ratio: 1226,034
Раздал: 32,12 TB
Поблагодарили: 137344
100%

Настоящий детектив / True Detective (2014) HDTVRip [H.264/720p-LQ] (Сезон 1 Серия 1-8 (8)) (Amedia)
Год выпуска: 2014
Выпущено: США, HBO
Жанр: драма, криминал
Перевод: Многоголосый закадровый, профессиональный (Amedia)
Режиссер: Кэри Фукунага
Актеры: Мэттью МакКонахи, Вуди Харрельсон, Мишель Монахэн, Брюс Эллиотт, Рендал Гонсалес, Тори Киттлз, Дэвид Стивен Митчелл, Майкл Поттс, Эрик Прайс, Мэдисон Вульф

Описание фильма:
Главные герои — два детектива. В 2012 году в штате Луизиана повторно открывается дело о серийном убийстве в 1995 году. Детективы познакомились 17 лет назад, когда началось расследование, и с тех пор вместе охотились за киллером. Повествование будет вестись как в наше время, так и откатится назад, в середину девяностых.

Сэмпл
Озвучка: студия Новамедиа по заказу Amedia
Релиз: SCTeam
Продолжительность: ~01:00:00 серия
Качество видео: HDTVRip 720p
Видео: AVC, 1280x720 (16:9), 23.976 fps, 3 431 Kbps (0.155 bit/pixel)
Аудио #1 (рус): AC-3, 48.0 KHz, 2 ch, 192 Kbps, CBR
Аудио #2 (анг): AC-3, 48.0 KHz, 2 ch, 384 Kbps, CBR
01. The Long Bright Dark / Огромная яркая темнота
02. Seeing Things / Галлюцинации
03. The Locked Room / Закрытая комната
04. Who Goes There / Кто туда пойдет
05. The Secret Fate of All Life / Тайная судьба всей жизни
06. Haunted Houses / Дома с привидениями
07. After You've Gone / После того, как ты ушел
08. Form and Void / Форма и пустота
Уникальный идентификатор : 225968579839176406771758747859458624903 (0xA9FFF7271853AE1691B5C2B2790A8D87)
Полное имя : D:\Nastojashhij.detektiv.S01.HDTV.720p\Nastojashhij.detektiv.S01.E01.HDTV.720p.mkv
Формат : Matroska
Версия формата : Version 2
Размер файла : 1,71 Гбайт
Продолжительность : 59 м.
Общий поток : 4088 Кбит/сек
Дата кодирования : UTC 2014-01-13 19:05:57
Программа кодирования : mkvmerge v2.9.9 ('Tutu') built on Nov 25 2009 21:13:32
Библиотека кодирования : libebml v0.7.9 + libmatroska v0.8.1

Видео
Идентификатор : 1
Формат : AVC
Формат/Информация : Advanced Video Codec
Профиль формата : High@L4.1
Параметр CABAC формата : Да
Параметр ReFrames формата : 5 кадров
Идентификатор кодека : V_MPEG4/ISO/AVC
Продолжительность : 59 м.
Битрейт : 3431 Кбит/сек
Ширина : 1280 пикселей
Высота : 720 пикселей
Соотношение сторон : 16:9
Режим частоты кадров : Постоянный
Частота кадров : 23,976 кадра/сек
Цветовое пространство : YUV
Субдискретизация насыщенности : 4:2:0
Битовая глубина : 8 бит
Тип развёртки : Прогрессивная
Бит/(Пиксели*Кадры) : 0.155
Размер потока : 1,43 Гбайт (84%)
Библиотека кодирования : x264 core 140 r2377 1ca7bb9
Настройки программы : cabac=1 / ref=5 / deblock=1:0:0 / analyse=0x3:0x113 / me=umh / subme=8 / psy=1 / psy_rd=1.00:0.00 / mixed_ref=1 / me_range=16 / chroma_me=1 / trellis=1 / 8x8dct=1 / cqm=0 / deadzone=21,11 / fast_pskip=1 / chroma_qp_offset=-2 / threads=18 / lookahead_threads=3 / sliced_threads=0 / nr=0 / decimate=1 / interlaced=0 / bluray_compat=0 / constrained_intra=0 / bframes=3 / b_pyramid=2 / b_adapt=2 / b_bias=0 / direct=3 / weightb=1 / open_gop=0 / weightp=2 / keyint=250 / keyint_min=23 / scenecut=40 / intra_refresh=0 / rc_lookahead=50 / rc=crf / mbtree=1 / crf=18.0 / qcomp=0.60 / qpmin=0 / qpmax=69 / qpstep=4 / ip_ratio=1.40 / aq=1:1.00
Язык : English
Default : Нет
Forced : Нет
Коэффициенты матрицы : BT.709

Аудио #1
Идентификатор : 2
Формат : AC-3
Формат/Информация : Audio Coding 3
Расширение режима : CM (complete main)
Параметр Endianness формата : Big
Идентификатор кодека : A_AC3
Продолжительность : 59 м.
Вид битрейта : Постоянный
Битрейт : 192 Кбит/сек
Каналы : 2 канала
Расположение каналов : Front: L R
Частота : 48,0 КГц
Битовая глубина : 16 бит
Метод сжатия : С потерями
Размер потока : 82,0 Мбайт (5%)
Default : Да
Forced : Да

Аудио #2
Идентификатор : 3
Формат : AC-3
Формат/Информация : Audio Coding 3
Расширение режима : CM (complete main)
Параметр Endianness формата : Big
Идентификатор кодека : A_AC3
Продолжительность : 59 м.
Вид битрейта : Постоянный
Битрейт : 384 Кбит/сек
Каналы : 2 канала
Расположение каналов : Front: L R
Частота : 48,0 КГц
Битовая глубина : 16 бит
Метод сжатия : С потерями
Размер потока : 164 Мбайт (9%)
Default : Нет
Forced : Нет
Скриншоты:


Все релизы Настоящий детектив / True Detective

Время раздачи: 9:00 до 23:00, до первых пяти скачавших
[NNM-Club.me]_Nastojashhij.detektiv.S01.HDTV.720p.torrent
 Торрент: Платиновая раздача  Зарегистрирован
 
Скачать


Примагнититься
 Зарегистрирован:   12 Мар 2014 10:33:55
 Размер:   13,1 GB  (
 Рейтинг:   4,8 (Голосов: 327)
 Поблагодарили:   1117
 Проверка:   Оформление проверено модератором 12 Мар 2014 11:13:29
Как cкачать  ·  Как раздать  ·  Правильно оформить  ·  Поднять ратио!  

_________________

Мои релизы
erdinger
 
Стаж: 10 лет 1 мес.
Сообщений: 528
Ratio: 0,667
100%
germany.gif
Не очень сериал. Так обрадовался по началу, но чем дальше в лес... а жаль.
makar2488
Стаж: 8 лет 8 мес.
Сообщений: 10
Ratio: 9,539
23.81%
да норм
F!gaRo
Стаж: 10 лет 1 мес.
Сообщений: 269
Ratio: 12,127
Раздал: 7,814 TB
Поблагодарили: 1311
100%
russia.gif
Мэттью МакКонахи и Вуди Харрельсон всё таки. Стоит посмотреть и оценить.
revenant
Стаж: 13 лет 1 мес.
Сообщений: 15
Ratio: 24,766
100%
субтитры бы
podshib
Стаж: 10 лет 3 мес.
Сообщений: 25
Ratio: 10,498
4.13%
ukraine.gif
Очень понравилось.
faonik
Стаж: 9 лет 6 мес.
Сообщений: 220
Ratio: 13,551
Раздал: 3,952 TB
Поблагодарили: 10722
100%
russia.gif
мне нравится такие сериалы давно не смотрел спасибо )
Игорь_Вла​димирович​ ®
Стаж: 8 лет
Сообщений: 2523
Ratio: 1226,034
Раздал: 32,12 TB
Поблагодарили: 137344
100%
Добавлена 2-я серия.
Обновите торрент

_________________

Мои релизы
spb.d
Стаж: 9 лет 4 мес.
Сообщений: 126
Ratio: 85,327
Раздал: 49,46 TB
100%
Откуда: Saint-Pet​ersburg​
russia.gif
Спасибо, оперативно!

_________________
Intel Core i5-2300 2.8GHz/Pegatron 2AB6 H67/Samsung DDR3-1333 МГц 2х2gb/SSD 120ГБ OCZ Vertex 3/HDD 1ТБ, Seagate Barracuda 7200. ST31000524AS/
HDD 2ТБ Seagate Pipeline HD ST2000VM003/nvidia gtx 550 ti 1gb ddr5 msi/CoolerMaster GX RS750-ACAA 750W/HP-DVD-RAM GH60L/HP pavilion ips 22xi /Windows 7 32/bit
osman_if
Стаж: 6 лет 2 мес.
Сообщений: 17
Ratio: 20,874
29.3%
ukraine.gif
Качественно сделанное кино, даже назвать "сериалом" язык не поворачивается.
faonik
Стаж: 9 лет 6 мес.
Сообщений: 220
Ratio: 13,551
Раздал: 3,952 TB
Поблагодарили: 10722
100%
russia.gif
спасибо
EugenDoc
Стаж: 7 лет 2 мес.
Сообщений: 64
Ratio: 12,255
87.88%
Спасибо огромное, а то кроме "Черный список" и глянуть нечего. Хотя, что я сравниваю...
Mr_Romizz
Стаж: 8 лет 9 мес.
Сообщений: 1543
Ratio: 2,614
100%
Откуда: Санкт-Петербург
russia.gif
отличный сериал. НВО кокажек не выпускает!!
Dreamer57
Стаж: 7 лет 10 мес.
Сообщений: 113
Ratio: 2,814
100%
russia.gif
Отличное кино.Спасибо. :да:
Sniper84
Стаж: 8 лет 1 мес.
Сообщений: 68
Ratio: 3,723
100%
Откуда: Sevastopol
slovakia.gif
Спасибо! Хороший сериал .

_________________
" У каждого Абрама - своя программа"
Показать сообщения:   
Начать новую тему   Ответить на тему    Торрент-трекер NNM-Club -> Зарубежные сериалы Часовой пояс: GMT + 3
Страницы:  1, 2, 3, 4, 5, 6, 7  След.
Страница 1 из 7