Классический форум-трекер
canvas not supported
Нас вместе: 4 077 907

Trance Lucid - Arise (1996) [FLAC|Lossless]<Instrumental>


 
 
RSS
Начать новую тему   Ответить на тему    Торрент-трекер NNM-Club -> Other Styles -> Instrumental (Lossless)
Автор Сообщение
Glebany ®
 
Стаж: 8 лет 7 мес.
Сообщений: 177
Ratio: 89,203
Поблагодарили: 4873
100%
Trance Lucid - Arise (1996)
Год: 1996
Жанр: Instrumental
Продолжительность: 00:51:58

Кодек: FLAC (tracks+.cue)
Битрейт: Lossless
Источник: Собственный рип
Издатель (лейбл): Altra Mix Records
Номер по каталогу: AM41701

Треклист:
01 April
02 Balloons
03 Unbridled
04 Leaving
05 A Mother's Sorrow
06 Jorge And Juan Carlos
07 Peace
08 Dust
09 Everafter
10 Vision
11 Blue
Код:

Exact Audio Copy V1.0 beta 3 from 29. August 2011

Отчёт EAC об извлечении, выполненном 19. января 2014, 16:50

Arise / Trance Lucid

Дисковод: HL-DT-STDVDRAM GT51N   Adapter: 0  ID: 0

Режим чтения                 : Достоверность
Использование точного потока : Да
Отключение кэша аудио        : Да
Использование указателей C2  : Нет

Коррекция смещения при чтении                     : 103
Способность читать области Lead-in и Lead-out     : Нет
Заполнение пропущенных сэмплов тишиной            : Да
Удаление блоков с тишиной в начале и конце        : Нет
При вычислениях CRC использовались нулевые сэмплы : Да
Интерфейс                                         : Установленный внешний ASPI-интерфейс
Обработка зазоров                                 : Добавлено к предыдущему треку

Выходной формат          : Пользовательский кодировщик
Выбранный битрейт        : 128 kBit/s
Качество                 : Высокий
Добавление ID3-тега      : Нет
Утилита сжатия           : C:\Program Files (x86)\Exact Audio Copy\Flac\flac.exe
Дополнительные параметры : -V -8 -T "Date=%year%" -T "Genre=%genre%" %source%

TOC извлечённого CD

     Трек |   Старт  | Длительность | Начальный сектор | Конечный сектор
    ---------------------------------------------------------------------
       1  |  0:00.00 |    3:37.52   |           0      |      16326
       2  |  3:37.52 |    6:08.12   |       16327      |      43938
       3  |  9:45.64 |    4:21.03   |       43939      |      63516
       4  | 14:06.67 |    7:14.15   |       63517      |      96081
       5  | 21:21.07 |    3:44.15   |       96082      |     112896
       6  | 25:05.22 |    5:30.65   |      112897      |     137711
       7  | 30:36.12 |    5:20.18   |      137712      |     161729
       8  | 35:56.30 |    5:25.32   |      161730      |     186136
       9  | 41:21.62 |    3:40.45   |      186137      |     202681
      10  | 45:02.32 |    2:56.10   |      202682      |     215891
      11  | 47:58.42 |    4:00.28   |      215892      |     233919

Трек  1

     Имя файла C:\Users\Egorich\Desktop\Trance Lucid - Arise\01 April.wav

     Длина предзазора  0:00:02.00

     Пиковый уровень 100.0 %
     Скорость извлечения 2.8 X
     Качество трека 100.0 %
     CRC теста 20A20FE6
     CRC копии 20A20FE6
     Точное извлечение (достоверность 1)  [B7B9BAAF]  (AR v1)
     Копирование... OK

Трек  2

     Имя файла C:\Users\Egorich\Desktop\Trance Lucid - Arise\02 Balloons.wav

     Пиковый уровень 100.0 %
     Скорость извлечения 3.0 X
     Качество трека 99.9 %
     CRC теста 4502C3E5
     CRC копии 4502C3E5
     Точное извлечение (достоверность 1)  [F2C6BF2F]  (AR v1)
     Копирование... OK

Трек  3

     Имя файла C:\Users\Egorich\Desktop\Trance Lucid - Arise\03 Unbridled.wav

     Пиковый уровень 100.0 %
     Скорость извлечения 3.6 X
     Качество трека 100.0 %
     CRC теста AAD22E17
     CRC копии AAD22E17
     Точное извлечение (достоверность 1)  [F73EA9B2]  (AR v1)
     Копирование... OK

Трек  4

     Имя файла C:\Users\Egorich\Desktop\Trance Lucid - Arise\04 Leaving.wav

     Пиковый уровень 70.0 %
     Скорость извлечения 4.2 X
     Качество трека 100.0 %
     CRC теста CE95EF54
     CRC копии CE95EF54
     Точное извлечение (достоверность 1)  [A750AEC2]  (AR v1)
     Копирование... OK

Трек  5

     Имя файла C:\Users\Egorich\Desktop\Trance Lucid - Arise\05 A Mother's Sorrow.wav

     Пиковый уровень 93.6 %
     Скорость извлечения 4.2 X
     Качество трека 100.0 %
     CRC теста 5A1CD83F
     CRC копии 5A1CD83F
     Точное извлечение (достоверность 1)  [357843C1]  (AR v1)
     Копирование... OK

Трек  6

     Имя файла C:\Users\Egorich\Desktop\Trance Lucid - Arise\06 Jorgi and Juan Carlos.wav

     Длина предзазора  0:00:02.00

     Пиковый уровень 100.0 %
     Скорость извлечения 4.6 X
     Качество трека 100.0 %
     CRC теста B0A90565
     CRC копии B0A90565
     Точное извлечение (достоверность 1)  [45317B49]  (AR v1)
     Копирование... OK

Трек  7

     Имя файла C:\Users\Egorich\Desktop\Trance Lucid - Arise\07 Peace.wav

     Пиковый уровень 100.0 %
     Скорость извлечения 4.9 X
     Качество трека 100.0 %
     CRC теста DE32B643
     CRC копии DE32B643
     Точное извлечение (достоверность 1)  [239A9DE1]  (AR v1)
     Копирование... OK

Трек  8

     Имя файла C:\Users\Egorich\Desktop\Trance Lucid - Arise\08 Dust.wav

     Пиковый уровень 100.0 %
     Скорость извлечения 5.2 X
     Качество трека 100.0 %
     CRC теста 73537333
     CRC копии 73537333
     Точное извлечение (достоверность 1)  [D8E67424]  (AR v1)
     Копирование... OK

Трек  9

     Имя файла C:\Users\Egorich\Desktop\Trance Lucid - Arise\09 Everafter.wav

     Пиковый уровень 92.5 %
     Скорость извлечения 5.1 X
     Качество трека 100.0 %
     CRC теста F146F3CD
     CRC копии F146F3CD
     Точное извлечение (достоверность 1)  [33968E19]  (AR v1)
     Копирование... OK

Трек 10

     Имя файла C:\Users\Egorich\Desktop\Trance Lucid - Arise\10 Vision.wav

     Пиковый уровень 99.8 %
     Скорость извлечения 5.0 X
     Качество трека 100.0 %
     CRC теста 5D799A36
     CRC копии 5D799A36
     Точное извлечение (достоверность 1)  [724D463F]  (AR v1)
     Копирование... OK

Трек 11

     Имя файла C:\Users\Egorich\Desktop\Trance Lucid - Arise\11 Blue.wav

     Длина предзазора  0:00:01.12

     Пиковый уровень 79.9 %
     Скорость извлечения 4.4 X
     Качество трека 99.9 %
     CRC теста 7827D9CA
     CRC копии 7827D9CA
     Точное извлечение (достоверность 1)  [2806FD52]  (AR v1)
     Копирование... OK

Все треки извлечены точно

Ошибок не произошло

Конец отчёта

==== Контрольная сумма отчёта 852941B1710D24E08141E181F9666499F3132CAD10131A361AEE253786248E46 ====
Код:

-----------------------

DON'T MODIFY THIS FILE

-----------------------

PERFORMER: auCDtect Task Manager, ver. 1.6.0 RC1 build 1.6.0.1
Copyright (c) 2008-2010 y-soft. All rights reserved
http://y-soft.org

ANALYZER: auCDtect: CD records authenticity detector, version 0.8.2
Copyright (c) 2004 Oleg Berngardt. All rights reserved.
Copyright (c) 2004 Alexander Djourik. All rights reserved.

FILE: 11 Blue.flac
  Size: 15274964 Hash: 8186B64ED1A0C62B1452E85419DCEDC5 Accuracy: -m0
  Conclusion: CDDA 100%
  Signature: BA8CAAF5B78A14F0EC392193C035823FBC110852
FILE: 10 Vision.flac
  Size: 17839362 Hash: CE97FD9BE2A5DBF6A893BD03B7C7E7CC Accuracy: -m0
  Conclusion: CDDA 100%
  Signature: F6CCF6EC68A143C5E32FD22B4DC78ACD0D8AF4B3
FILE: 09 Everafter.flac
  Size: 17388289 Hash: 07CCD4165D0A2D388EB16402457CFB6B Accuracy: -m0
  Conclusion: CDDA 99%
  Signature: 407238CF790C0B8B971892A4011E52FF7E1052F3
FILE: 08 Dust.flac
  Size: 27091225 Hash: F5707437F0A6B6B659D3CA0302C8D1EE Accuracy: -m0
  Conclusion: CDDA 99%
  Signature: 7BFBF348BD852052586F937103AD001AA479A716
FILE: 07 Peace.flac
  Size: 29609813 Hash: 5FC20BEF7825ACD87A1ABB3A4EFA33CA Accuracy: -m0
  Conclusion: CDDA 100%
  Signature: 4A5F898CB7607826CF9EF5EBB7E70B0B48B6866C
FILE: 06 Jorgi and Juan Carlos.flac
  Size: 33031345 Hash: 23181431722990682E0F738524A48B78 Accuracy: -m0
  Conclusion: CDDA 100%
  Signature: 5817DB63B5615382559E02496AA7219CD223B08B
FILE: 05 A Mother's Sorrow.flac
  Size: 15839195 Hash: 02F1513ECA94C3E55255E911C388FD68 Accuracy: -m0
  Conclusion: CDDA 100%
  Signature: C324BB845CCEF502E5C6C9DF64E6C1796967B71F
FILE: 04 Leaving.flac
  Size: 38035272 Hash: 78D38515EF71D07CCF0B2D195CFF39F3 Accuracy: -m0
  Conclusion: CDDA 100%
  Signature: 4A9C8530F0CF475F6C95F3BA9F6D0CF3C47B5164
FILE: 03 Unbridled.flac
  Size: 24771173 Hash: 28EC483B24538A23765509CE8238EEA4 Accuracy: -m0
  Conclusion: CDDA 99%
  Signature: 195073027EA76328EF7D357047129D4807FBC497
FILE: 02 Balloons.flac
  Size: 31303248 Hash: 62C5A000F005D9A7052A28653DB4E1DD Accuracy: -m0
  Conclusion: CDDA 99%
  Signature: B0C370C9D90245FA7F215212BADD24B873362F52
FILE: 01 April.flac
  Size: 20815580 Hash: F45D1EFDC2808853B9EFD7F3B51A075A Accuracy: -m0
  Conclusion: CDDA 100%
  Signature: 1B5B7F23AE3498F38EF0791DF1FE2223502D887C
Время раздачи: 24/7 (круглосуточно)


Поглощение/вытеснение
Только с согласия релизера

DesideriuM
[NNM-Club.me]_Trance Lucid - Arise.torrent
 Торрент: Платиновая раздача  Зарегистрирован
 
Скачать


Примагнититься
 Зарегистрирован:   19 Янв 2014 16:21:23
 Размер:   258 MB  (
 Рейтинг:   4,6 (Голосов: 18)
 Поблагодарили:   82
 Проверка:   Оформление проверено модератором 19 Янв 2014 19:05:29
Как cкачать  ·  Как раздать  ·  Правильно оформить  ·  Поднять ратио!  
Glebany ®
 
Стаж: 8 лет 7 мес.
Сообщений: 177
Ratio: 89,203
Поблагодарили: 4873
100%
Trance Lucid - Arise (1996) [ALAC|Tracks]<Instrumental> то же самое но в ААС
BurgerKing
Стаж: 9 лет 1 мес.
Сообщений: 961
Ratio: 4,057
100%
russia.gif
спасибо
Glebany ®
 
Стаж: 8 лет 7 мес.
Сообщений: 177
Ratio: 89,203
Поблагодарили: 4873
100%
BurgerKing писал(а): Перейти к сообщению
спасибо


На здоровье!!! =)
Показать сообщения:   
Начать новую тему   Ответить на тему    Торрент-трекер NNM-Club -> Other Styles -> Instrumental (Lossless) Часовой пояс: GMT + 3
Страница 1 из 1