Классический форум-трекер
canvas not supported
Нас вместе: 4 093 798

Настоящий детектив / True Detective (2014) HDTV [1080i] (Сезон 1, серии 1-8 из 8) Amedia


Страницы:  1, 2, 3, 4, 5, 6, 7  След. 
 
RSS
Начать новую тему   Ответить на тему    Торрент-трекер NNM-Club -> Зарубежные сериалы
Автор Сообщение
seperovych ®
Стаж: 9 лет 8 мес.
Сообщений: 1501
Ratio: 55,093
Раздал: 35,58 TB
Поблагодарили: 150012
100%
Откуда: Киев
ukraine.gif
Настоящий детектив / True Detective (2014) HDTV [1080i] (Сезон 1, серии 1-8 из 8) Amedia
Производство: "HBO", США
Год выпуска: 2014
Жанр: Драма, Криминал

Перевод: Профессиональный, многоголосый закадровый - Новамедиа по заказу Amedia

Режиссер: Кэри Фукунага
Актеры: Мэттью МакКонахи, Вуди Харрельсон, Мишель Монахэн, Брюс Эллиотт, Рендал Гонсалес, Тори Киттлз, Дэвид Стивен Митчелл, Майкл Поттс, Эрик Прайс, Мэдисон Вульф

Описание фильма:
Главные герои — два детектива. В 2012 году в штате Луизиана повторно открывается дело о серийном убийстве в 1995 году. Детективы познакомились 17 лет назад, когда началось расследование, и с тех пор вместе охотились за киллером. Повествование будет вестись как в наше время, так и откатится назад, в середину девяностых.



Дата мировой премьеры: 12.01.2014
Дата российской премьеры: 13.01.2014

Продолжительность: 8 x ~ 00:58:00
Качество видео: HDTV

Видеокодек: AVC/H.264
Битрейт видео: ~6600 Kbps
Размер кадра: 1920x1080
Аудио #1: /RUS/ AC3, 5.1 ch, 384 Kbps
Аудио #2: /ENG/ AC3, 2.0 ch, 192 Kbps
Код: выделить все
Общее
Уникальный идентификатор : 238429974450271719542791931788850080939 (0xB35FF157A06A7FB9B7D05D5B88D7ACAB)
Полное имя : E:\DOWNLOADS\Настоящий детектив (2014) HDTV 1080\Настоящий детектив - 01 серия.mkv
Формат : Matroska
Версия формата : Version 4 / Version 2
Размер файла : 2,95 Гбайт
Продолжительность : 57 м.
Общий поток : 7361 Кбит/сек
Дата кодирования : UTC 2014-01-21 18:16:06
Программа кодирования : mkvmerge v6.1.0 ('Old Devil') built on Mar 4 2013 09:10:42
Библиотека кодирования : libebml v1.3.0 + libmatroska v1.4.0

Видео
Идентификатор : 1
Формат : AVC
Формат/Информация : Advanced Video Codec
Профиль формата : High@L4.0
Параметр CABAC формата : Да
Параметр ReFrames формата : 4 кадра
Идентификатор кодека : V_MPEG4/ISO/AVC
Продолжительность : 57 м.
Битрейт : 6638 Кбит/сек
Ширина : 1920 пикселей
Высота : 1080 пикселей
Соотношение сторон : 16:9
Режим частоты кадров : Постоянный
Частота кадров : 25,000 кадров/сек
Стандарт вещания : Component
Цветовое пространство : YUV
Субдискретизация насыщенности : 4:2:0
Битовая глубина : 8 бит
Тип развёртки : MBAFF
Бит/(Пиксели*Кадры) : 0.128
Размер потока : 2,66 Гбайт (90%)
Default : Да
Forced : Нет
Основные цвета : BT.709
Характеристики трансфера : BT.709
Коэффициенты матрицы : BT.709

Аудио #1
Идентификатор : 2
Формат : AC-3
Формат/Информация : Audio Coding 3
Расширение режима : CM (complete main)
Параметр Endianness формата : Big
Идентификатор кодека : A_AC3
Продолжительность : 57 м.
Вид битрейта : Постоянный
Битрейт : 384 Кбит/сек
Каналы : 6 каналов
Расположение каналов : Front: L C R, Side: L R, LFE
Частота : 48,0 КГц
Битовая глубина : 16 бит
Метод сжатия : С потерями
Размер потока : 157 Мбайт (5%)
Язык : Russian
Default : Да
Forced : Нет

Аудио #2
Идентификатор : 3
Формат : AC-3
Формат/Информация : Audio Coding 3
Расширение режима : CM (complete main)
Параметр Endianness формата : Big
Идентификатор кодека : A_AC3
Продолжительность : 57 м.
Вид битрейта : Постоянный
Битрейт : 192 Кбит/сек
Каналы : 2 канала
Расположение каналов : Front: L R
Частота : 48,0 КГц
Битовая глубина : 16 бит
Метод сжатия : С потерями
Размер потока : 78,7 Мбайт (3%)
Язык : English
Default : Нет
Forced : Нет
01 серия - The Long Bright Dark / Огромная яркая темнота
02 серия - Seeing Things / Галлюцинации
03 серия - The Locked Room / Закрытая комната
04 серия - Who Goes There / Кто туда пойдет
05 серия - The Secret Fate of All Life / Тайная судьба всей жизни
06 серия - Haunted Houses / Дома с привидениями
07 серия - After You've Gone / После того, как ты ушел
08 серия - Form and Void / Форма и пустота
Скриншоты:


Все раздачи сериала «Настоящий детектив»

Время раздачи: с 10.00 до 20.00
[NNM-Club.me]_Nastoyashchiy detektiv (2014) HDTV 1080.torrent
 Торрент: Платиновая раздача  Зарегистрирован
 
Скачать


Примагнититься
 Зарегистрирован:   11 Мар 2014 08:25:42
 Размер:   22,5 GB  (
 Рейтинг:   4,9 (Голосов: 331)
 Поблагодарили:   1135
 Проверка:   Оформление проверено модератором 11 Мар 2014 08:41:14
Как cкачать  ·  Как раздать  ·  Правильно оформить  ·  Поднять ратио!  
Ozonize
Стаж: 7 лет 2 мес.
Сообщений: 4
Ratio: 14,684
5.1%
Спасибо! Суперский - жду новых серий!
stalker_14
Стаж: 8 лет 7 мес.
Сообщений: 2
Ratio: 1,197
33.33%
просто обалденный
seperovych ®
Стаж: 9 лет 8 мес.
Сообщений: 1501
Ratio: 55,093
Раздал: 35,58 TB
Поблагодарили: 150012
100%
Откуда: Киев
ukraine.gif
29/01/2014 добавил 3 серию...

Пожалуйста, перекачайте торрент.
Slightly Mad
Стаж: 6 лет 5 мес.
Сообщений: 61
Ratio: 100,843
100%
ussr.gif
подписываюсь.
Bonusso
Стаж: 8 лет 11 мес.
Сообщений: 143
Ratio: 7,179
100%
austria.gif
Метью МакКоннахи после "СПИДа" (где он сыграл больного СПИДом) выражением лица на 4-м скрине на Юматова похож! :))
6a6ka
Стаж: 9 лет
Сообщений: 44
Ratio: 202,388
100%
Откуда: Moscow
ussr.gif
по каким дням выходят новые серии?
koroleon
Стаж: 8 лет 8 мес.
Сообщений: 3
Ratio: 20,276
14.29%
Откуда: Новочеркасск
russia.gif
Серии выходят по воскресеньям в 21:00 на канале НВО.
2 февраля серии не было.

1. 12 января 2014 - The Long Bright Dark
2. 19 января 2014 - Seeing Things
3. 26 января 2014 - The Locked Room
4. 9 февраля 2014 - Who Goes There
5. 16 февраля 2014 - The Secret Fate of All Life
6. 23 февраля 2014 - Haunted Houses
7. 2 марта 2014 - After You've Gone
8. 9 марта 2014 - Form and Void

Источник: http://www.toramp.com/schedule.php?id=964
seperovych ®
Стаж: 9 лет 8 мес.
Сообщений: 1501
Ratio: 55,093
Раздал: 35,58 TB
Поблагодарили: 150012
100%
Откуда: Киев
ukraine.gif
11/02/2014 добавил 4 серию...

Пожалуйста, перекачайте торрент.
Anri-Leola
Стаж: 8 лет 8 мес.
Сообщений: 32
Ratio: 3,509
3.03%
russia.gif
спасибо!.. отличный сериал.
floder
Стаж: 7 лет 7 мес.
Сообщений: 3
Ratio: 4,583
2.15%
ussr.gif
Спасибо за раздачу. Сериал очень неплох.
santa173
Стаж: 11 лет 11 мес.
Сообщений: 3
Ratio: 1,406
100%
а я бы сказал, аааахрененно крутое кино!!!! давно я такого не видел и в полном метре, а тут качество полного метра... НАСТОЯЩИЙ детектив )
PekeLIS
Стаж: 8 лет 6 мес.
Сообщений: 14
Ratio: 34,6
1.09%
Субтитры имеются?
hppl
Стаж: 6 лет 2 мес.
Сообщений: 534
Ratio: 2,787
Раздал: 1,102 TB
100%
north_korea.gif
когда 5-я?
ivvimer
Стаж: 8 лет
Сообщений: 9
Ratio: 4,11
0%
Зачетный сериал
Показать сообщения:   
Начать новую тему   Ответить на тему    Торрент-трекер NNM-Club -> Зарубежные сериалы Часовой пояс: GMT + 3
Страницы:  1, 2, 3, 4, 5, 6, 7  След.
Страница 1 из 7