Классический форум-трекер
canvas not supported
Нас вместе: 4 093 164

Доктор Кто / Doctor Who (2010-2013) Blu-Ray [1080i] (Сезон 5-7; 42 эпизода) [EN]


Страницы:   Пред.  1, 2 
 
RSS
Начать новую тему   Ответить на тему    Торрент-трекер NNM-Club -> Зарубежные сериалы -> Сериалы без перевода
Автор Сообщение
Koulf ®
Стаж: 7 лет
Сообщений: 15
Ratio: 1075,809
Поблагодарили: 314
100%
Доктор Кто / Doctor Who (2010-2013) [1080i] Blu-Ray (Сезон 5-7; 42 эпизода) [EN]
Год выпуска: 2010-2013
Жанр: Фантастика, Комедия, Драма

Перевод: Отсутствует
Язык: Английский
Вид субтитров: Вшитые отключаемые
Язык субтитров: Английские


Дата мировой премьеры: 03.04.2010
Дата выхода DVD/Blu-Ray релиза: 4.11.2013

Режиссер: Адам Смит, Эндрю Ганн, Джонни Кэмпбелл, Тоби Хэйнс и др.
Актеры: Мэтт Смит, Карен Гиллан, Артур Дарвилл, Дженна-Луиза Коулман и др.

Описание фильма:
Семь сезонов обновленного британского научно-фантастического сериала "Доктор Кто" издали на Blu-Ray. И теперь оригинальные образы дисков доступны всем российским фанатам! Теперь и сезоны с Мэттом Смитом!

Наличие дополнительных материалов: есть - дневники съемочной группы, бонусные серии
Эпизоды в раздаче:

«The Eleventh Hour»
«The Beast Below»
«Victory of the Daleks»
«The Time of Angels»
«Flesh & Stone»
«The Vampires of Venice»
«Amy's Choice»
«The Hungry Earth»
«Cold Blood»
«Vincent and the Doctor»
«The Lodger»
«The Pandorica Opens»
«The Big Bang»
«A Christmas Carol»

«The Impossible Astronaut»
«Day of the Moon»
«The Curse of the Black Spot»
«The Doctor's Wife»
«The Rebel Flesh»
«The Almost People»
«A Good Man Goes to War»
«Let’s Kill Hitler»
«Night Terrors»
«The Girl Who Waited»
«The God Complex»
«Closing Time»
«The Wedding of River Song»
«The Doctor, the Widow and the Wardrobe»

«Asylum of the Daleks»
«Dinosaurs on a Spaceship»
«A Town Called Mercy»
«The Power of Three»
«The Angels Take Manhattan»
«The Snowmen»
«The Bells of Saint John»
«The Rings of Akhaten»
«Cold War»
«Hide»
«Journey to the Centre of the TARDIS»
«The Crimson Horror»
«Nightmare in Silver»
«The Name of the Doctor»
Формат : BDAV
Формат/Информация : Blu-ray Video
Размер файла : 11,4 Гбайт
Продолжительность : 41 м.
Общий поток : 39,4 Мбит/сек
Максимальный общий битрейт : 48,0 Мбит/сек

Видео
Идентификатор : 4113 (0x1011)
Идентификатор меню : 1 (0x1)
Формат : VC-1
Профиль формата : Advanced@L3
Идентификатор кодека : 234
Продолжительность : 41 м.
Битрейт : 35,3 Мбит/сек
Ширина : 1920 пикселей
Высота : 1080 пикселей
Соотношение сторон : 16:9
Частота кадров : 25,000 кадров/сек
Субдискретизация насыщенности : 4:2:0
Битовая глубина : 8 бит
Тип развёртки : Чересстрочная
Порядок развёртки : Верхнее поле первое
Метод сжатия : С потерями
Бит/(Пиксели*Кадры) : 0.682
Размер потока : 10,2 Гбайт (90%)

Аудио #1
Идентификатор : 4352 (0x1100)
Идентификатор меню : 1 (0x1)
Формат : DTS
Формат/Информация : Digital Theater Systems
Профиль формата : HRA / Core
Режим смешивания : Stream extension
Идентификатор кодека : 133
Продолжительность : 41 м.
Вид битрейта : Постоянный
Битрейт : 2047 Кбит/сек / 1510 Кбит/сек
Каналы : 6 каналов
Расположение каналов : Front: L C R, Side: L R, LFE
Частота : 48,0 КГц
Битовая глубина : 16 бит
Метод сжатия : С потерями
Размер потока : 607 Мбайт (5%)

Аудио #2
Идентификатор : 4353 (0x1101)
Идентификатор меню : 1 (0x1)
Формат : AC-3
Формат/Информация : Audio Coding 3
Расширение режима : CM (complete main)
Параметр Endianness формата : Big
Идентификатор кодека : 129
Продолжительность : 41 м.
Вид битрейта : Постоянный
Битрейт : 448 Кбит/сек
Каналы : 2 канала
Расположение каналов : Front: L R
Частота : 48,0 КГц
Битовая глубина : 16 бит
Метод сжатия : С потерями
Размер потока : 133 Мбайт (1%)

Текст
Идентификатор : 4608 (0x1200)
Идентификатор меню : 1 (0x1)
Формат : PGS
Идентификатор кодека : 144
Продолжительность: 00:45:00
Качество видео: Blu-Ray
Сэмпл: Скачать

Видеокодек: VC-1
Битрейт видео: ~35,3 Мбит/с
Размер кадра: 1920x1080
Аудио #1: DTS, 6 каналов, ~2047 кбит/сек — Английский
Аудио #2: AC-3, 2 канала, ~448 кбит/сек — Английский

Скриншоты:


Все релизы сериала "Доктор Кто"

Сезоны 1-4 на Blu-Ray

Время раздачи: 24/7 (круглосуточно)
[NNM-Club.me]_Doctor Who - The Complete Series 1-7 Blu-Ray British Box Set Part 2.torrent
 Торрент: Платиновая раздача  Зарегистрирован
 
Скачать


Примагнититься
 Зарегистрирован:   21 Янв 2014 23:40:05
 Размер:   636 GB  (
 Рейтинг:   4,6 (Голосов: 49)
 Поблагодарили:   105
 Проверка:   Оформление проверено модератором 22 Янв 2014 19:03:13
Как cкачать  ·  Как раздать  ·  Правильно оформить  ·  Поднять ратио!  
RoxMarty
Стаж: 9 лет 3 мес.
Сообщений: 22
Ratio: 17,375
100%
russia.gif
Жаль...
flexxi
Стаж: 11 лет 11 мес.
Сообщений: 10
Ratio: 9,75
Раздал: 2,223 TB
100%
Откуда: Москва
russia.gif
просто великолепно! господа,а кто нибудь сей труд с русской озвучкой сделает все сезоны в таком качестве или рип на 1080р?
suprainsaniam
Стаж: 5 лет 11 мес.
Сообщений: 83
Ratio: 26,834
Поблагодарили: 24
100%
Откуда: ОТТУДА!
russia.gif
Сэмпл восстановите пожалуйста.

_________________
kirillbig
Стаж: 7 лет 8 мес.
Сообщений: 1
Ratio: 66,609
0%
Koulf
здравствуйте, спасибо за релиз и если у Вас в наличие имеются блюрей диски 2 последних серий 7 сезона, а вернее The Time of the Doctor и The Day of the Doctor то пожалуйста прошу осуществите выкладывание такого материала. Спасибо)
Batyay
Стаж: 7 лет 4 мес.
Сообщений: 52
Ratio: 0,295
77.78%
Откуда: Planet Earth
pirates.png
Блин,а с русскими субтитрами есть что?

Добавлено спустя 5 минут 40 секунд:

Ребята мне срочно нужно с русскими субтитрами
SFman
Стаж: 10 лет 2 мес.
Сообщений: 42
Ratio: 7,221
22%
russia.gif
Не удалось сразу скачать эту раздачу полностью. Потом испортился хард для торентов.
На днях решил качать посредством модема Кинетик (встроенным клиентом) на внешний хард.
Только вот по какой-то причине не происходит соединение с сидом вообще. Появляется иногда другой личер, но не сид. Таким образом я уже скачал несколько торентов - все было нормально. Не понимаю в чем заковыка в этот раз.
Версия клиента -Transmission 2-82.2
Может быть посоветуете что-нибудь (кроме смены прошивки).
Skrit
Стаж: 9 лет 9 мес.
Сообщений: 3
Ratio: 252,601
0%
russia.gif
Стоит ждать продолжения банкета по окончанию эры Капальди или можно скачивать рипы? :задумался:
SFman
Стаж: 10 лет 2 мес.
Сообщений: 42
Ratio: 7,221
22%
russia.gif
У Клары Освин Освальд сегодня День Рождения.

Добавлено спустя 22 минуты 20 секунд:

9 сезон в таком же качестве так и не появился. А между тем он продавался на Амазоне с хорошей скидкой.
SFman
Стаж: 10 лет 2 мес.
Сообщений: 42
Ratio: 7,221
22%
russia.gif
У Дженны сегодня День Рождения! :цветок:
Показать сообщения:   
Начать новую тему   Ответить на тему    Торрент-трекер NNM-Club -> Зарубежные сериалы -> Сериалы без перевода Часовой пояс: GMT + 3
Страницы:   Пред.  1, 2
Страница 2 из 2