Классический форум-трекер
canvas not supported
Нас вместе: 4 094 641

Настоящий детектив / True Detective (2014) HDTVRip (Сезон 1, серии 1-8 из 8) Amedia


Страницы:  1, 2, 3  След. 
 
RSS
Начать новую тему   Ответить на тему    Торрент-трекер NNM-Club -> Зарубежные сериалы
Автор Сообщение
seperovych ®
Стаж: 9 лет 8 мес.
Сообщений: 1501
Ratio: 55,093
Раздал: 35,58 TB
Поблагодарили: 150036
100%
Откуда: Киев
ukraine.gif
Настоящий детектив / True Detective (2014) HDTVRip (Сезон 1, серии 1-8 из 8) Amedia
Производство: "HBO", США
Год выпуска: 2014
Жанр: Драма, Криминал

Перевод: Профессиональный, многоголосый закадровый - Новамедиа по заказу Amedia

Режиссер: Кэри Фукунага
Актеры: Мэттью МакКонахи, Вуди Харрельсон, Мишель Монахэн, Брюс Эллиотт, Рендал Гонсалес, Тори Киттлз, Дэвид Стивен Митчелл, Майкл Поттс, Эрик Прайс, Мэдисон Вульф

Описание фильма:
Главные герои — два детектива. В 2012 году в штате Луизиана повторно открывается дело о серийном убийстве в 1995 году. Детективы познакомились 17 лет назад, когда началось расследование, и с тех пор вместе охотились за киллером. Повествование будет вестись как в наше время, так и откатится назад, в середину девяностых.



Дата мировой премьеры: 12.01.2014
Дата российской премьеры: 13.01.2014

Продолжительность: 8 x ~ 00:58:00
Качество видео: HDTVRip (Рип с HDTV 1080p)

Видеокодек: Xvid
Битрейт видео: ~1800 Kbps
Размер кадра: 720x400
Аудио #1: /RUS/ AC3, 5.1 ch, 384 Kbps
Аудио #2: /ENG/ AC3, 2.0 ch, 192 Kbps
Код: выделить все
Общее
Полное имя : E:\DOWNLOADS\Настоящий детектив (2014) HDTVRip\Настоящий детектив - 01 серия.avi
Формат : AVI
Формат/Информация : Audio Video Interleave
Размер файла : 981 Мбайт
Продолжительность : 57 м.
Общий поток : 2394 Кбит/сек
Программа кодирования : VirtualDubMod 1.5.10.3 (build 2550/release)
Библиотека кодирования : VirtualDubMod build 2550/release

Видео
Идентификатор : 0
Формат : MPEG-4 Visual
Профиль формата : Advanced Simple@L5
Параметр BVOP формата : 1
Параметр QPel формата : Нет
Параметр GMC формата : Без точки перехода
Параметр матрицы формата : Default (MPEG)
Идентификатор кодека : XVID
Идентификатор кодека/Подсказка : XviD
Продолжительность : 57 м.
Битрейт : 1803 Кбит/сек
Ширина : 720 пикселей
Высота : 400 пикселей
Соотношение сторон : 16:9
Частота кадров : 25,000 кадров/сек
Цветовое пространство : YUV
Субдискретизация насыщенности : 4:2:0
Битовая глубина : 8 бит
Тип развёртки : Прогрессивная
Метод сжатия : С потерями
Бит/(Пиксели*Кадры) : 0.250
Размер потока : 739 Мбайт (75%)
Библиотека кодирования : XviD 73

Аудио #1
Идентификатор : 1
Формат : AC-3
Формат/Информация : Audio Coding 3
Расширение режима : CM (complete main)
Параметр Endianness формата : Big
Идентификатор кодека : 2000
Продолжительность : 57 м.
Вид битрейта : Постоянный
Битрейт : 384 Кбит/сек
Каналы : 6 каналов
Расположение каналов : Front: L C R, Side: L R, LFE
Частота : 48,0 КГц
Битовая глубина : 16 бит
Метод сжатия : С потерями
Размер потока : 157 Мбайт (16%)
Выравнивание : Разделение по промежуткам
Продолжительность промежутка : 40 мс. (1,00 видеокадр)
Время предзагрузки промежутка : 500 мс.

Аудио #2
Идентификатор : 2
Формат : AC-3
Формат/Информация : Audio Coding 3
Расширение режима : CM (complete main)
Параметр Endianness формата : Big
Идентификатор кодека : 2000
Продолжительность : 57 м.
Вид битрейта : Постоянный
Битрейт : 192 Кбит/сек
Каналы : 2 канала
Расположение каналов : Front: L R
Частота : 48,0 КГц
Битовая глубина : 16 бит
Метод сжатия : С потерями
Размер потока : 78,7 Мбайт (8%)
Выравнивание : Разделение по промежуткам
Продолжительность промежутка : 40 мс. (1,00 видеокадр)
Время предзагрузки промежутка : 500 мс.
01 серия - The Long Bright Dark / Огромная яркая темнота
02 серия - Seeing Things / Галлюцинации
03 серия - The Locked Room / Закрытая комната
04 серия - Who Goes There / Кто туда пойдет
05 серия - The Secret Fate of All Life / Тайная судьба всей жизни
06 серия - Haunted Houses / Дома с привидениями
07 серия - After You've Gone / После того, как ты ушел
08 серия - Form and Void / Форма и пустота
Скриншоты:


Все раздачи сериала «Настоящий детектив»

Время раздачи: с 10.00 до 20.00
[NNM-Club.me]_Nastoyashchiy detektiv (2014) HDTVRip.torrent
 Торрент: Платиновая раздача  Зарегистрирован
 
Скачать


Примагнититься
 Зарегистрирован:   11 Мар 2014 10:41:27
 Размер:   7,34 GB  (
 Рейтинг:   4,8 (Голосов: 335)
 Поблагодарили:   1355
 Проверка:   Оформление проверено модератором 11 Мар 2014 11:31:11
Как cкачать  ·  Как раздать  ·  Правильно оформить  ·  Поднять ратио!  
dukaf
Стаж: 7 лет 8 мес.
Сообщений: 21
Ratio: 8,206
100%
отличный сериал!перевод тоже понравился,спасибо за раздачу :поклоняется:
d-fence
Стаж: 10 лет 9 мес.
Сообщений: 10
Ratio: 26,767
100%
шикарно, HBO на высоте как обычно. интересно, скоро ли будет третья серия?
yurich_1
Стаж: 9 лет 5 мес.
Сообщений: 13
Ratio: 1,74
66.67%
Зер гуд. настоятельно рекомендую.
diavolena
Стаж: 7 лет 1 мес.
Сообщений: 23
Ratio: 9,288
100%
russia.gif
Сериал не плохой, интересная идея, но на мой взгляд слишком много разговоров и диалогов, нудновато получается...
Hanni82
Стаж: 9 лет 6 мес.
Сообщений: 34
Ratio: 2,363
100%
Мне очень понравились первые 2 серии. На мой взгляд, достаточно стильно и необычно. МакКонахи не узнать. Здорово поработал над ролью. Очень молодо выглядит, но не похож на себя молодого... как-то так. Спасибо за третью серию. Буду ждать еще, пока Ганнибал не вышел))
g6.msk.rus
Стаж: 12 лет 4 мес.
Сообщений: 255
Ratio: 4,261
100%
Откуда: Мышезадрищенск
ussr.gif
крышу срывает, музыка улет, атмосфера и стиль есть у фильма.. по этому сериалу можно было бы сделать неплохую игру
Anri-Leola
Стаж: 8 лет 8 мес.
Сообщений: 32
Ratio: 3,509
3.03%
russia.gif
супер сериал!.. и отличная озвучка.. Спасибо!

кто-нибудь знает даты выхода серий?
laku
Стаж: 7 лет 3 мес.
Сообщений: 76
Ratio: 17,485
100%
russia.gif
давно не получал столько эмоций от просмотра сериала, да что там сериала, и от кина тоже. Очень круто сняли. Макконахью красава:)
marvol
Стаж: 8 лет
Сообщений: 1
Ratio: 6,873
4.05%
Сериал просто бомба!
Атмосфера, музыка, игра актеров - все на высоком уровне!
Мэттью МакКонахи аплодирую стоя!
Digstut
Стаж: 7 лет
Сообщений: 48
Ratio: 2,37
Поблагодарили: 3
79.43%
russia.gif
Интересный криминальчик! :стрельба:
d-fence
Стаж: 10 лет 9 мес.
Сообщений: 10
Ratio: 26,767
100%
а нет ли оригинальных (english) субтитров?
sapels
Стаж: 9 лет 10 мес.
Сообщений: 31
Ratio: 10,682
Поблагодарили: 326
69.7%
malta.gif
seperovych
Спасибо за раздачу. Когда финальную серию ожидать?
seperovych ®
Стаж: 9 лет 8 мес.
Сообщений: 1501
Ratio: 55,093
Раздал: 35,58 TB
Поблагодарили: 150036
100%
Откуда: Киев
ukraine.gif
11/03/2014 добавил 8 серию...
Сезон ОКОНЧЕН!!!
Пожалуйста, перекачайте торрент.


Русские субтитры для 1-8 серий! Скачивайте...
dark_elf2
Стаж: 11 лет 8 мес.
Сообщений: 1017
Ratio: 10,598
Поблагодарили: 80445
100%
ussr.gif
Спасибо большое за труды!
Показать сообщения:   
Начать новую тему   Ответить на тему    Торрент-трекер NNM-Club -> Зарубежные сериалы Часовой пояс: GMT + 3
Страницы:  1, 2, 3  След.
Страница 1 из 3