Классический форум-трекер
canvas not supported
Нас вместе: 4 093 759

Настоящий детектив / True Detective (2014) HDTVRip [720p] (Сезон 1, Серии 1-8 из 8) BaibaKo


 
 
RSS
Начать новую тему   Ответить на тему    Торрент-трекер NNM-Club -> Зарубежные сериалы
Автор Сообщение
DriverV ®
Модератор Сериалов
Uploader 500+
Стаж: 9 лет 6 мес.
Сообщений: 15524
Ratio: 24K
Поблагодарили: 671763
100%
nnm-club.gif
Настоящий детектив / True Detective (2014) HDTVRip [720p] (Сезон 1, Серии 1-8 из 8) BaibaKo
Год выпуска: 2014
Страна: США
Жанр: драма, криминал

Перевод: Многоголосый закадровый, профессиональный - BaibaKo

Автор перевода: Светлана Самойленко
Озвучка: Татьяна Оболевич, Михаил Косяков, Олекса Мельник и Виталий Ткаченко
Монтаж: Виталий Ткаченко
Обложка: Антон Максимов


Дата мировой премьеры: 12 января 2014

Режиссер: Кэри Фукунага
Актеры: Мэттью МакКонахи, Вуди Харрельсон, Мишель Монахэн, Брюс Эллиотт, Рендал Гонсалес, Тори Киттлз, Дэвид Стивен Митчелл, Майкл Поттс, Эрик Прайс, Мэдисон Вульф и др.

Описание фильма:
Главные герои — два детектива. В 2012 году в штате Луизиана повторно открывается дело о серийном убийстве в 1995 году. Детективы познакомились 17 лет назад, когда началось расследование, и с тех пор вместе охотились за киллером. Повествование будет вестись как в наше время, так и откатится назад, в середину девяностых.

Продолжительность: ~01:00:00 серия
Качество видео: HDTVRip 720p

Видеокодек: AVC
Формат: MKV
Битрейт видео: ~3427 kb/s
Размер кадра: 1280x720 (16:9)
Аудио Rus: (AC-3, 48,0 kHz, 6 ch, 384 kb/s) - многоголосый закадровый
Аудио Eng: (AC-3, 48,0 kHz, 2 ch, 384 kb/s) - оригинал

Сэмпл

Все раздачи "Настоящий детектив / True Detective"

ВНИМАНИЕ! В сериале присутствует ненормативная лексика.
Возрастное ограничение 18+
Общее
Полное имя : D:\Настоящий детектив (сезон 1) True Detective (2014) HDTVRip 720p - BaibaKo\True.Detective.s01e01.HDTV720p.Rus.Eng.BaibaKo.tv.mkv
Формат : Matroska
Версия формата : Version 4 / Version 2
Размер файла : 1,79 Гбайт
Продолжительность : 59 м.
Общий поток : 4280 Кбит/сек
Название фильма : BaibaKo.tv presents - Настоящий детектив 1x01
Дата кодирования : UTC 2014-01-22 01:12:24
Программа кодирования : mkvmerge v6.6.0 ('The Edge Of The In Between') built on Dec 1 2013 17:55:00
Библиотека кодирования : libebml v1.3.0 + libmatroska v1.4.1

Видео
Идентификатор : 1
Формат : AVC
Формат/Информация : Advanced Video Codec
Профиль формата : High@L4.1
Параметр CABAC формата : Да
Параметр ReFrames формата : 5 кадров
Идентификатор кодека : V_MPEG4/ISO/AVC
Продолжительность : 59 м.
Битрейт : 3427 Кбит/сек
Ширина : 1280 пикселей
Высота : 720 пикселей
Соотношение сторон : 16:9
Режим частоты кадров : Постоянный
Частота кадров : 23,976 кадра/сек
Цветовое пространство : YUV
Субдискретизация насыщенности : 4:2:0
Битовая глубина : 8 бит
Тип развёртки : Прогрессивная
Бит/(Пиксели*Кадры) : 0.155
Размер потока : 1,43 Гбайт (80%)
Библиотека кодирования : x264 core 140 r2377 1ca7bb9
Настройки программы : cabac=1 / ref=5 / deblock=1:0:0 / analyse=0x3:0x113 / me=umh / subme=8 / psy=1 / psy_rd=1.00:0.00 / mixed_ref=1 / me_range=16 / chroma_me=1 / trellis=1 / 8x8dct=1 / cqm=0 / deadzone=21,11 / fast_pskip=1 / chroma_qp_offset=-2 / threads=18 / lookahead_threads=3 / sliced_threads=0 / nr=0 / decimate=1 / interlaced=0 / bluray_compat=0 / constrained_intra=0 / bframes=3 / b_pyramid=2 / b_adapt=2 / b_bias=0 / direct=3 / weightb=1 / open_gop=0 / weightp=2 / keyint=250 / keyint_min=23 / scenecut=40 / intra_refresh=0 / rc_lookahead=50 / rc=crf / mbtree=1 / crf=18.0 / qcomp=0.60 / qpmin=0 / qpmax=69 / qpstep=4 / ip_ratio=1.40 / aq=1:1.00
Язык : English
Default : Да
Forced : Нет
Коэффициенты матрицы : BT.709

Аудио #1
Идентификатор : 2
Формат : AC-3
Формат/Информация : Audio Coding 3
Расширение режима : CM (complete main)
Параметр Endianness формата : Big
Идентификатор кодека : A_AC3
Продолжительность : 59 м.
Вид битрейта : Постоянный
Битрейт : 384 Кбит/сек
Каналы : 6 каналов
Расположение каналов : Front: L C R, Side: L R, LFE
Частота : 48,0 КГц
Битовая глубина : 16 бит
Метод сжатия : С потерями
Размер потока : 164 Мбайт (9%)
Заголовок : Rus BaibaKo.tv DD5.1
Язык : Russian
Default : Да
Forced : Нет

Аудио #2
Идентификатор : 3
Формат : AC-3
Формат/Информация : Audio Coding 3
Расширение режима : CM (complete main)
Параметр Endianness формата : Big
Идентификатор кодека : A_AC3
Продолжительность : 59 м.
Вид битрейта : Постоянный
Битрейт : 384 Кбит/сек
Каналы : 2 канала
Расположение каналов : Front: L R
Частота : 48,0 КГц
Битовая глубина : 16 бит
Метод сжатия : С потерями
Размер потока : 164 Мбайт (9%)
Заголовок : Eng DD5.1
Язык : English
Default : Нет
Forced : Нет
Скриншоты:




Время раздачи: 24/7 - круглосуточно (по возможности)
[NNM-Club.me]_Nastoyashchiy detektiv (sezon 1) True Detective (2014) HDTVRip 720p - BaibaKo.torrent
 Торрент: Платиновая раздача  Зарегистрирован
 
Скачать


Примагнититься
 Зарегистрирован:   02 Апр 2014 05:45:40
 Размер:   20,2 GB  (
 Рейтинг:   4,7 (Голосов: 119)
 Поблагодарили:   404
 Проверка:   Оформление проверено модератором 02 Апр 2014 07:10:21

Лучшие зарубежные сериалы (без рекламы)
Как cкачать  ·  Как раздать  ·  Правильно оформить  ·  Поднять ратио!  
Хока
Стаж: 7 лет 10 мес.
Сообщений: 195
Ratio: 26,021
100%
Откуда: Азовье
ussr.gif
Кто звёзды присваивал!? Отпишитесь как фильм!!! :новогоднее пиво:
RealDamp
Стаж: 10 лет 4 мес.
Сообщений: 68
Ratio: 11,527
3.88%
ukraine.gif
фильм держит + именитые актеры

_________________
ZzzZz...
BlackIce2004
Стаж: 13 лет
Сообщений: 581
Ratio: 6,016
Раздал: 8,563 TB
Поблагодарили: 1570
100%
Откуда: Одесса
ukraine.gif
бомбавый сериал, сюжет, постановка, актеры - все на высоте. Особенно нравится на сколько интересно прописан персонаж Мэттью МакКонахи.

_________________
Жизнь - это борьба богатства и порядочности, стремясь к одному жертвуешь другим
xyJluraH
Стаж: 8 лет 1 мес.
Сообщений: 44
Ratio: 40,52
100%
ukraine.gif
Сериал просто бомба +10 по пятибалльной системе. Вчера посмотрел 6-ю
Etan Bateman
Стаж: 9 лет 11 мес.
Сообщений: 60
Ratio: 31,079
100%
russia.gif
Все так нахваливают... скачаю как все серии от Байбако выйдут)
DriverV ®
Модератор Сериалов
Uploader 500+
Стаж: 9 лет 6 мес.
Сообщений: 15524
Ratio: 24K
Поблагодарили: 671763
100%
nnm-club.gif
Добавлена 8 заключительная серия сезона.
Перекачайте торрент.
Аливген
 
Стаж: 9 лет 5 мес.
Сообщений: 320
Ratio: 5,283
Раздал: 9,197 TB
100%
ussr.gif
Отличный сериал - Что МакKонахи, что Харрельсон - выложились по полной. Умный и глубокий сценарий. Смотреть внимательно - очень важны диалоги между главными героями. 5 из 5.
valrus
Стаж: 10 лет 5 мес.
Сообщений: 13
Ratio: 4,756
20.93%
russia.gif
Это лучшее, что я смотрел за последние два года. Честно говоря - под впечатлением уже несколько дней.
Pe22
Стаж: 6 лет 2 мес.
Сообщений: 4
Ratio: 2,739
40%
Великолепно, именно в этом переводе смотрел, супер. Просто отлично сыграл Мэтью МакКонахи. Да и остальные играют просто отлично.

Добавлено спустя 21 секунду:

А когда продолжение? Или Сезон 2 не будет
a1n3d
 
Стаж: 13 лет 3 мес.
Сообщений: 139
Ratio: 78,172
4.26%
zimbabwe.gif
МакКонахи стал открытием как актер. Харизматичный, сукин сын.
Показать сообщения:   
Начать новую тему   Ответить на тему    Торрент-трекер NNM-Club -> Зарубежные сериалы Часовой пояс: GMT + 3
Страница 1 из 1