Классический форум-трекер
canvas not supported
Нас вместе: 4 079 123

Dog Soldier: Shadows of the Past | Пес Войны: Тени прошлого [1989, OVA] LDRip 480p HS


 
 
RSS
Начать новую тему   Ответить на тему    Торрент-трекер NNM-Club -> Аниме разное -> Аниме хардсаб
Автор Сообщение
loki ®
Стаж: 8 лет 9 мес.
Сообщений: 4714
Ratio: 66
Поблагодарили: 36834
100%
Откуда: Днепр
roody.gif
ドッグソルジャー
Dog Soldier: Shadows of the Past
Пес Войны: Тени прошлого


Жанр: приключения
Тип: OVA
Продолжительность: 1 эп., 46 мин.
Премьера: 08.10.1989
Производство/студия: ANIMATE & J.C. Staff
Автор оригинала: Саруватари Тэцуя
Режиссер: Эбата Хироюки
Качество видео: LDRip
Контейнер: MKV
Видео: MPEG4/AVC
Битрейт видео: 3929 kbps; 23.976 fps
Размер кадра: 640x480
Аудио:
JAP; AC3; 48.0 KHz; 2.0 ch; 384 kbps
Субтитры:
RUS; Бозон Хиггса ASS (ext)
ENG; хардсаб
Описание:
Когда американский ученый, везущий лекарство от вируса СПИДа, похищен торговцами оружием, Джон Кёскэ вынужден вернуться из отставки. Он принимает вызов, что-бы вернуть антидот.
© ANN
Код:
Общее
Уникальный идентификатор                 : 252660039098240796304314655491490588406 (0xBE148DB27FDABE748ABFE8671D2C26F6)
Полное имя                               : Dog Soldier - LaserDisc.mkv
Формат                                   : Matroska
Версия формата                           : Version 2
Размер файла                             : 1,39 Гбайт
Продолжительность                        : 46 м.
Общий поток                              : 4315 Кбит/сек
Дата кодирования                         : UTC 2009-10-12 18:36:47
Программа кодирования                    : mkvmerge v2.8.0 ('The Tree') built on May  9 2009 16:17:12
Библиотека кодирования                   : libebml v0.7.7 + libmatroska v0.8.1

Видео
Идентификатор                            : 1
Формат                                   : AVC
Формат/Информация                        : Advanced Video Codec
Профиль формата                          : High@L4.1
Параметр CABAC формата                   : Да
Параметр ReFrames формата                : 4 кадра
Идентификатор кодека                     : V_MPEG4/ISO/AVC
Продолжительность                        : 46 м.
Битрейт                                  : 3845 Кбит/сек
Ширина                                   : 640 пикселей
Высота                                   : 480 пикселей
Соотношение сторон                       : 4:3
Режим частоты кадров                     : Постоянный
Частота кадров                           : 23,976 кадра/сек
Цветовое пространство                    : YUV
Субдискретизация насыщенности            : 4:2:0
Битовая глубина                          : 8 бит
Тип развёртки                            : Прогрессивная
Бит/(Пиксели*Кадры)                      : 0.522
Размер потока                            : 1,24 Гбайт (89%)
Заголовок                                : x264 CRF (LaserDisc)
Библиотека кодирования                   : x264 core 68 r1183M f21daff
Настройки программы                      : cabac=1 / ref=4 / deblock=1:1:2 / analyse=0x3:0x113 / me=umh / subme=7 / psy_rd=1.0:0.0 / mixed_ref=1 / me_range=16 / chroma_me=1 / trellis=2 / 8x8dct=1 / cqm=0 / deadzone=21,11 / chroma_qp_offset=-2 / threads=6 / nr=0 / decimate=0 / mbaff=0 / bframes=3 / b_pyramid=1 / b_adapt=1 / b_bias=0 / direct=1 / wpredb=1 / keyint=250 / keyint_min=25 / scenecut=40 / rc=crf / crf=16.0 / qcomp=0.60 / qpmin=10 / qpmax=51 / qpstep=4 / vbv_maxrate=38000 / vbv_bufsize=30000 / ip_ratio=1.40 / pb_ratio=1.30 / aq=1:1.00
Язык                                     : English
Default                                  : Да
Forced                                   : Нет

Аудио
Идентификатор                            : 2
Формат                                   : AC-3
Формат/Информация                        : Audio Coding 3
Расширение режима                        : CM (complete main)
Параметр Endianness формата              : Big
Идентификатор кодека                     : A_AC3
Продолжительность                        : 46 м.
Вид битрейта                             : Постоянный
Битрейт                                  : 384 Кбит/сек
Каналы                                   : 2 канала
Расположение каналов                     : Front: L R
Частота                                  : 48,0 КГц
Битовая глубина                          : 16 бит
Метод сжатия                             : С потерями
Задержка видео                           : 24 мс.
Размер потока                            : 126 Мбайт (9%)
Заголовок                                : Ac3 2.0
Язык                                     : Japanese
Default                                  : Да
Forced                                   : Нет
Код:
File: Dog Soldier - LaserDisc.mkv
 Duration: 00:46:00 (2760.17)
 Track #1: default video (x264 CRF (LaserDisc))
  lang: eng (4)
  codc: V_MPEG4/ISO/AVC -> H264/AVC (22)
  reso: 640x480 -> 4:3
  fram: 23.976 fps
  rate: 3929 kbps (3928.74)
  dura: 00:46:00 (2760.13)
  size: 1.26 GB (1355478526)
 Track #2: default audio (Ac3 2.0)
  lang: jpn -> Japanese (2)
  codc: A_AC3 -> AC3 (2)
  chan: 2 -> Stereo
  samp: 48000 Hz
  rate: 384 kbps (384.05)
  dura: 00:46:00 (2759.84)
  size: 126.35 MB (132491004)
 Sizes: (check sanity)
  disk: 1.39 GB (1488606354)
  trac: 1.39 GB (1487969530) [based on track size]
  bitr: 1.39 GB (1487983430) [based on bitrate]
  tdif: 621.90 KB (636824) 0.04%
  bdif: 608.32 KB (622923) 0.04%

ANN || AniDB || MAL || World Art




Время раздачи: 24/7
[NNM-Club.me]_Dog_Soldier_OVA.torrent
 Торрент: Платиновая раздача  Зарегистрирован
 
Скачать


Примагнититься
 Зарегистрирован:   02 Фев 2014 23:09:08
 Размер:   1,39 GB  (
 Рейтинг:   4,3 (Голосов: 21)
 Поблагодарили:   20
 Проверка:   Оформление проверено модератором 02 Фев 2014 23:31:32
Как cкачать  ·  Как раздать  ·  Правильно оформить  ·  Поднять ратио!  
Prism7
Стаж: 5 лет 9 мес.
Сообщений: 4
Ratio: 7,036
100%
Классная Анимеха. Как раз хотел нетронутый моралью боевик из детства посмотреть))
Показать сообщения:   
Начать новую тему   Ответить на тему    Торрент-трекер NNM-Club -> Аниме разное -> Аниме хардсаб Часовой пояс: GMT + 3
Страница 1 из 1