Классический форум-трекер
canvas not supported
Нас вместе: 4 118 164

Ответный ход (1981) DVDRip


 
 
RSS
Начать новую тему   Ответить на тему    Торрент-трекер NNM-Club -> Классика кино и Старые фильмы до 90-х -> Старые Отечественные Фильмы (HD*Rip/LQ, DVDRip, SATRip, VHSRip)
Автор Сообщение
ab5144 ®
Стаж: 9 лет 3 мес.
Сообщений: 2691
Ratio: 79,58
Поблагодарили: 266703
100%
Ответный ход (1981) DVDRip
Производство: СССР, Мосфильм
Жанр: боевик, драма, приключения, военный

Режиссер: Михаил Туманишвили
Актеры: Борис Галкин, Вадим Спиридонов, Валентина Березуцкая, Елена Глебова, Анатолий Кузнецов, Михай Волонтир, Александр Пятков, Лаймонас Норейка, Даниил Нетребин, Владимир Маренков

Описание:
Командование южных решает послать в тыл северных диверсионную группу в составе Тарасова, Волентира и двух морпехов: Швеца и Зиновьевой. Диверсанты захватывают подполковника Морошкина из группы «Северных», который намеренно подставился, спрятав на теле скрытый передатчик. Тарасов разгадывает замысел, его группа проникает на аэродром северных и отбирает секретные документы у офицера северных. Лыков преследует диверсантов на бронетранспортёре, Волентир ослепляет БТР, машина разносит мост и падает в болото, Волентир тяжело ранен обломками моста. Швец и Тарасов помогают северным вылезти из машины, Зиновьева едет на побережье и передаёт документы. Южные переходят в победоносное наступление.


Возраст: 12+ (зрителям, достигшим 12 лет)

Продолжительность: 01:19:42
Качество видео: DVDRip

Видео: DivX 5, 672x288 (2.35), ~2310 Kbps, 0.478 bpp
Аудио: AC3 2 ch, 192 Kbps
  • Сцены на аэродроме «Северных» снимались на аэродроме истребительной авиации ПВО Бельбек. При этом в кадре несколько раз появляются истребители-перехватчики Су-15.
Код: выделить все
Общее
Полное имя                       : otvetniy_hod_ac3192kbbs.avi
Формат                           : AVI
Формат/Информация                : Audio Video Interleave
Размер файла                     : 1,40 Гбайт
Продолжительность                : 1 ч. 19 м.
Общий поток                      : 2513 Кбит/сек
Программа кодирования            : VirtualDubModRus 1.5.10.2 (build 2542/release)
Библиотека кодирования           : VirtualDubMod build 2542/release

Видео
Идентификатор                    : 0
Формат                           : MPEG-4 Visual
Профиль формата                  : Advanced Simple@L5
Параметр BVOP формата            : 1
Параметр QPel формата            : Да
Параметр GMC формата             : Без точки перехода
Параметр матрицы формата         : Default (MPEG)
Идентификатор кодека             : DX50
Идентификатор кодека/Подсказка   : DivX 5
Продолжительность                : 1 ч. 19 м.
Битрейт                          : 2311 Кбит/сек
Ширина                           : 672 пикс.
Высота                           : 288 пикс.
Соотношение сторон               : 2,35:1
Частота кадров                   : 25,000 кадр/сек
Цветовое пространство            : YUV
Подвыборка цветности             : 4:2:0
Битовая глубина                  : 8 бит
Тип развёртки                    : Прогрессивная
Метод сжатия                     : С потерями
Бит/(Пиксели*Кадры)              : 0.478
Размер потока                    : 1,29 Гбайт (92%)
Библиотека кодирования           : XviD 1.2.1 (UTC 2008-12-04)

Аудио
Идентификатор                    : 1
Формат                           : AC-3
Формат/Информация                : Audio Coding 3
Расширение режима                : CM (complete main)
Идентификатор кодека             : 2000
Продолжительность                : 1 ч. 19 м.
Вид битрейта                     : Постоянный
Битрейт                          : 192 Кбит/сек
Канал(ы)                         : 2 канала(ов)
Расположение каналов             : Front: L R
Частота                          : 48,0 КГц
Битовая глубина                  : 16 бит
Метод сжатия                     : С потерями
Задержка видео                   : 300 мс.
Размер потока                    : 109 Мбайт (8%)
Выравнивание                     : Разделение по промежуткам
Продолжительность промежутка     : 40  мс. (1,00 видеокадр)
Время предзагрузки промежутка    : 500 ms
Скриншоты:


Все одноименные релизы в Клубе
И фильм первый: В зоне особого внимания (1977)
Время раздачи: 24/7 до 5 скачавших
[NNM-Club.me]_otvetniy_hod_ac3192kbbs.avi.torrent
 Торрент: Платиновая раздача  Зарегистрирован
 
Скачать


Примагнититься
 Зарегистрирован:   03 Фев 2014 13:23:16
 Размер:   1,4 GB  (
 Рейтинг:   4,6 (Голосов: 208)
 Поблагодарили:   515
 Проверка:   Оформление проверено модератором 04 Фев 2014 00:34:07
Как cкачать  ·  Как раздать  ·  Правильно оформить  ·  Поднять ратио!  
Voron-36
Стаж: 9 лет 3 мес.
Сообщений: 206
Ratio: 32,84
100%
Откуда: Воронеж
russia.gif
Знаете ли вы, что...
Сцена с мостом снята под Тулой.
Bumbarac
Стаж: 9 лет 8 мес.
Сообщений: 106
Ratio: 27,159
100%
russia.gif
Voron-36 писал(а): Перейти к сообщению
Знаете ли вы, что...
Сцена с мостом снята под Тулой.

Да Ну! Под Семикаракорами.
Мост до сих пор невосстановлен... :D
Voron-36
Стаж: 9 лет 3 мес.
Сообщений: 206
Ratio: 32,84
100%
Откуда: Воронеж
russia.gif
Точно не знаю где,(у Шурика Лисина надо узнать, они этот мост три раза делали, дубли не удачные) "В зоне особого внимания" снимался по Гайжунаем на "наших" складах дивизии.
Lelikkyy
Стаж: 9 лет 8 мес.
Сообщений: 94
Ratio: 34,552
100%
Откуда: Урал, город Екатеринбург (Свердловск)
ussr.gif
Отличное продолжение, отличной дилогии (1.В зоне, особого внимания (1977 год), 2.Ответный ход (1981 год). И даже, отличного качества.
константи​н201442​
Стаж: 6 лет 5 мес.
Сообщений: 58
Ratio: 8,074
100%
Уже раз 5 смотрел ,не подряд конечно,мне нравиться. СПАСИБО!
YurgenTM
Стаж: 9 лет 1 мес.
Сообщений: 193
Ratio: 14,545
100%
Откуда: Praha
czechrepublic.gif
"В зоне особого внимания", конечно, гораздо круче. Но, для полноты картины, можно и посмотреть.
Смартфон
Стаж: 9 лет 2 мес.
Сообщений: 31
Ratio: 0,662
100%
Откуда: Барнаул,А​лтайский​ край
ussr.gif
Встаньте на раздачу пожалуйста.
cactus_75
Стаж: 10 лет
Сообщений: 3
Ratio: 1,411
0%
ukraine.gif
Скиньте ссылочку на В зоне особого внимания (1977 год) в таком же качестве.
Показать сообщения:   
Начать новую тему   Ответить на тему    Торрент-трекер NNM-Club -> Классика кино и Старые фильмы до 90-х -> Старые Отечественные Фильмы (HD*Rip/LQ, DVDRip, SATRip, VHSRip) Часовой пояс: GMT + 3
Страница 1 из 1