Классический форум-трекер
canvas not supported
Нас вместе: 4 077 902

Интерны (2014) SATRip [10 сезон: 1-23 (204) серии]


Страницы:  1, 2, 3, 4, 5, 6, 7  След. 
 
RSS
Начать новую тему   Ответить на тему    Торрент-трекер NNM-Club -> Отечественные сериалы -> Интерны
Автор Сообщение
Саша 1992 ®
Модератор Видео
Стаж: 7 лет 9 мес.
Сообщений: 1497
Ratio: 473,806
Раздал: 43,02 TB
Поблагодарили: 128109
100%
russia.gif
Интерны (2014) SATRip

Режиссер / Телекомпания: тнт
Русское название: Интерны
Год выпуска: 2014
Жанр: Комедия

Режиссер: Максим Пежемский
В ролях: Иван Охлобыстин, Илья Глинников, Александр Ильин мл., Вадим Демчог, Светлана Камынина, Юлия Назаренко-Благая, Один Ланд Байрон, Светлана Пермякова

Описание:
В новом, 10 сезоне «Интернов», к доктору Быкову прибудут новые, совсем зелёные врачи (интерны), над которыми он начнёт глумиться так же, как и над старыми. Какой сюжет нам приготовили сценаристы на этот раз, мы узнаем уже сегодня.

Качество видео: SATRip
Продолжительность: 23x ~00:25:00

Видеокодек: XviD
Битрейт видео: ~1790 Кбит/сек
Размер кадра: 720 x 400
Аудиокодек: MP3 2.0
Битрейт аудио: 128 Кбит/сек

Общее
Полное имя : D:\Видео\Интерны. 10 сезон (2014) SATRip\Интерны_23.avi
Формат : AVI
Формат/Информация : Audio Video Interleave
Размер файла : 345 Мбайт
Продолжительность : 24 м.
Общий поток : 1938 Кбит/сек
Библиотека кодирования : VirtualDub build 32706/release

Видео
Идентификатор : 0
Формат : MPEG-4 Visual
Профиль формата : Advanced Simple@L5
Параметр BVOP формата : 2
Параметр QPel формата : Нет
Параметр GMC формата : Без точки перехода
Параметр матрицы формата : Default (MPEG)
Идентификатор кодека : XVID
Идентификатор кодека/Подсказка : XviD
Продолжительность : 24 м.
Битрейт : 1800 Кбит/сек
Ширина : 720 пикселей
Высота : 400 пикселей
Соотношение сторон : 16:9
Частота кадров : 25,000 кадров/сек
Цветовое пространство : YUV
Субдискретизация насыщенности : 4:2:0
Битовая глубина : 8 бит
Тип развёртки : Прогрессивная
Метод сжатия : С потерями
Бит/(Пиксели*Кадры) : 0.250
Размер потока : 321 Мбайт (93%)
Библиотека кодирования : XviD 1.2.1 (UTC 2008-12-04)

Аудио
Идентификатор : 1
Формат : MPEG Audio
Версия формата : Version 1
Профиль формата : Layer 3
Режим : Joint stereo
Расширение режима : MS Stereo
Идентификатор кодека : 55
Идентификатор кодека/Подсказка : MP3
Продолжительность : 24 м.
Вид битрейта : Постоянный
Битрейт : 128 Кбит/сек
Каналы : 2 канала
Частота : 48,0 КГц
Метод сжатия : С потерями
Размер потока : 22,8 Мбайт (7%)
Выравнивание : Разделение по промежуткам
Продолжительность промежутка : 40 мс. (1,00 видеокадр)
Время предзагрузки промежутка : 500 мс.
Библиотека кодирования : LAME3.99r
Настройки программы : -m j -V 4 -q 2 -lowpass 17 -b 128
Внимание! Раздача ведётся путём добавления новых серий; при каждом добавлении создётся новый торрент. Чтобы начать докачку новой серии, пользователям необходимо сделать следующее:
(1) остановить скачивание,
(2) удалить старый торрент у себя из клиента (старые серии удалять не надо),
(3) скачать новый торрент и запустить его у себя в клиенте вместо старого, при этом указать клиенту путь в старую папку куда и должно происходить скачивание новых серий.
Ваш клиент при этом должен произвести хеширование (проверку) старой папки (если не производит сам - помогите ему сделать это), и будет докачивать только те серии которых у вас ещё нет. Старые серии при этом не удаляются, а продолжают раздаваться!
Eсли вы уже удалили старые серии, то предотвратить повторную закачку старых серий можно, отжав галочку в соответсвующих местах при запуске нового торрента. По возможности, желательно не удалять старые серии как можно дольше чтобы релизёр не столько продолжал раздавать старые серии, а смог сконцентрироваться на новых.

Скриншоты:
Все раздачи сериала «Интерны»
ТОРРЕНТ ОБНОВЛЁН 13.03.2014. ДОБАВЛЕНА 23 ЗАКЛЮЧИТЕЛЬНАЯ СЕРИЯ 10 СЕЗОНА
Время раздачи: С 10:00 до 22:00 (до 10 скачавших)
[NNM-Club.me]_Internyi. 10 sezon (2014) SATRip.torrent
 Торрент: Платиновая раздача  Зарегистрирован
 
Скачать


Примагнититься
 Зарегистрирован:   13 Мар 2014 14:02:53
 Размер:   7,65 GB  (
 Рейтинг:   4,7 (Голосов: 1044)
 Поблагодарили:   3638
 Проверка:   Оформление проверено модератором 14 Мар 2014 08:49:14
Как cкачать  ·  Как раздать  ·  Правильно оформить  ·  Поднять ратио!  
april22
Стаж: 7 лет 6 мес.
Сообщений: 2
Ratio: 19,487
45.45%
ЗАЧЕТ !
НЕ у спел по телеку посмотреть , а тут такая оперативность !
Стою на раздачах , не уйду до конца !
Lioness11
Стаж: 7 лет 10 мес.
Сообщений: 64
Ratio: 268,996
Раздал: 51,96 TB
Поблагодарили: 1095
100%
Откуда: Челябинск
russia.gif
Ура!!! Обновляемая раздача))) Саша, спасибо :)
Blooddiamond
Стаж: 9 лет 3 мес.
Сообщений: 6
Ratio: 3,172
Поблагодарили: 2
23.81%
turkmenistan.gif
У меня вопрос, а новые серии так и будут качаться в не папки?
borodetskiy
Стаж: 8 лет 3 мес.
Сообщений: 95
Ratio: 5,833
0.92%
Серия пока никакая, надеюсь пока, для затравки. Думая раскачаются.
yffllzz
Стаж: 8 лет 7 мес.
Сообщений: 22
Ratio: 27,993
100%
Спасибо. Наконец-то сподобились!!! Пораздаю.
Spermatozoid
Стаж: 8 лет 7 мес.
Сообщений: 146
Ratio: 8,895
40.73%
Откуда: не оттуда
спасибо, что Вы есть. просто потому, что раздача обновляемая.
очень не нравятся некоторые аксакалы, которые гонятся за количеством релизов.
yffllzz
Стаж: 8 лет 7 мес.
Сообщений: 22
Ratio: 27,993
100%
А почему не в папке?
april22
Стаж: 7 лет 6 мес.
Сообщений: 2
Ratio: 19,487
45.45%
сейчас в папку качается , все норм !
Тут лучшая раздача - искал много и на руторе и ретрекере , тут и качество и скорость выше :-)

респект и уважуха релизёрам !
буду стоять до конца!
alexop12
Стаж: 6 лет 6 мес.
Сообщений: 12
Ratio: 9,839
100%
yffllzz писал(а): Перейти к сообщению
А почему не в папке?

В папке "Интерны. 10 сезон (2014) SATRip", и можно переименовать 1 серию в "Интерны_01". :смущение:
yffllzz
Стаж: 8 лет 7 мес.
Сообщений: 22
Ratio: 27,993
100%
И правда в папке, спасибо.
Hanni82
Стаж: 9 лет 1 мес.
Сообщений: 34
Ratio: 2,363
100%
Какая-то чушь уже пошла. К медицинскому юмору уде никакого отношение данное творение не имеет. Просто сериал про отношения. Как и десятки других.
Gameru
Стаж: 7 лет 1 мес.
Сообщений: 9
Ratio: 5,802
20%
Hanni82 писал(а): Перейти к сообщению
К медицинскому юмору уде никакого отношение данное творение не имеет.

так всегда было и -это есть корочо
LiLOF
Талант
Стаж: 6 лет 6 мес.
Сообщений: 865
Ratio: 0,944
Поблагодарили: 9
0.14%
мама Черноус бы в гости с ребенком зашла , что ли..))
andymoskal
Стаж: 9 лет 10 мес.
Сообщений: 77
Ratio: 22,914
100%
ussr.gif
Всё-таки надо было закончить,когда Быков с крыши сбросился.Был бы супер конец,можно было б и слезу пустить.А это уже не то...
Показать сообщения:   
Начать новую тему   Ответить на тему    Торрент-трекер NNM-Club -> Отечественные сериалы -> Интерны Часовой пояс: GMT + 3
Страницы:  1, 2, 3, 4, 5, 6, 7  След.
Страница 1 из 7