Классический форум-трекер
canvas not supported
Нас вместе: 4 093 865

Наука 2.0. EXперименты с Антоном Войцеховским. Суда. Балтийский завод (2013) SATRip


 
 
RSS
Начать новую тему   Ответить на тему    Торрент-трекер NNM-Club -> Документалистика и Телепередачи
Автор Сообщение
svlesin ®
Модератор Документалистики/TV
RG Releasers
Релизер 25000+ Uploader 300+
 
Стаж: 10 лет 2 мес.
Сообщений: 33802
Ratio: 1813,492
Поблагодарили: 3252726
100%
russia.gif
Наука 2.0. EXперименты с Антоном Войцеховским. Суда. Балтийский завод (2013) SATRip
Режиссер / Телекомпания: Наука 2.0
Русское название: EXперименты
Год выпуска: 2012
Жанр: Документальный, научно-познавательный, исследование
Выпущено: Россия, Телестудия "Единая медиагруппа", ТК "Наука 2.0"

Описание:
Экспериментатор телеканала «Наука 2.0» Антон Войцеховский обладает невероятным талантом рассказывать просто о самом сложном - необычных явлениях и научных открытиях. У него в помощниках speed–камера, которая снимает 7 тысяч кадров в секунду! Эксперименты – всегда незабываемое зрелище!

В выпуске:
Из всех созданных людьми двужущихся объектов речные и морские суда - самые большие. Человеческая фигура просто теряется на фоне такой громадины. Тем не менее, даже очень большие суда до сих пор делаются практически вручную. Мы проследим весь путь создания судов: от самой первой детали до ввода судна в эксплуатацию.

Ведущий: Антон Войцеховский

Продолжительность: ~ 00:26:13

Видеокодек: XVID
Битрейт видео: ~1500 kb/s
Размер кадра: 720 x 400
Качество видео: SATRip
Аудиокодек: АС3, 2ch.
Битрейт аудио: 128 kb/s
Формат : AVI
Формат/Информация : Audio Video Interleave
Размер файла : 305 Мбайт
Продолжительность : 26 м.
Общий поток : 1628 Кбит/сек
Режиссёр : SATRip by Thunder
Программа кодирования : VirtualDubMod 1.5.10.3 | www.virtualdub-fr.org || (build 2550/release)
Формат оригинала/Имя : Documentary

Видео
Идентификатор : 0
Формат : MPEG-4 Visual
Профиль формата : Advanced Simple@L5
Параметр BVOP формата : 2
Параметр QPel формата : Нет
Параметр GMC формата : Без точки перехода
Параметр матрицы формата : Default (H.263)
Идентификатор кодека : XVID
Идентификатор кодека/Подсказка : XviD
Продолжительность : 26 м.
Битрейт : 1490 Кбит/сек
Ширина : 720 пикселей
Высота : 400 пикселей
Соотношение сторон : 16:9
Частота кадров : 25,000 кадров/сек
Цветовое пространство : YUV
Субдискретизация насыщенности : 4:2:0
Битовая глубина : 8 бит
Тип развёртки : Прогрессивная
Метод сжатия : С потерями
Бит/(Пиксели*Кадры) : 0.207
Размер потока : 279 Мбайт (92%)
Библиотека кодирования : XviD 1.2.1 (UTC 2008-12-04)

Аудио
Идентификатор : 1
Формат : AC-3
Формат/Информация : Audio Coding 3
Расширение режима : CM (complete main)
Идентификатор кодека : 2000
Продолжительность : 26 м.
Вид битрейта : Постоянный
Битрейт : 128 Кбит/сек
Каналы : 2 канала
Расположение каналов : Front: L R
Частота : 48,0 КГц
Битовая глубина : 16 бит
Метод сжатия : С потерями
Размер потока : 24,0 Мбайт (8%)
Выравнивание : Разделение по промежуткам
Продолжительность промежутка : 40 мс. (1,00 видеокадр)
Время предзагрузки промежутка : 500 мс.
Скриншоты:
Время раздачи: 24/7. До первых 5 скачавших.
EXперименты на NoNaMe Club
[NNM-Club.me]_Nauka 2.0. EXperimentyi s Antonom Voytsehovskim. Suda. Baltiyskiy zavod (2013).avi.torrent
 Торрент: Платиновая раздача  Зарегистрирован
 
Скачать


Примагнититься
 Зарегистрирован:   03 Фев 2014 22:05:42
 Размер:   305 MB  (
 Рейтинг:   4,7 (Голосов: 20)
 Поблагодарили:   61
 Проверка:   Оформление проверено модератором 03 Фев 2014 22:06:06
Как cкачать  ·  Как раздать  ·  Правильно оформить  ·  Поднять ратио!  

_________________
Уважаемые пользователи Клуба! От меня релизов больше не будет. Может быть, буду поддерживать «Обновляемые раздачи». Спасибо всем, кто благодарил меня и говорил/нажимал «Спасибо»!
Показать сообщения:   
Начать новую тему   Ответить на тему    Торрент-трекер NNM-Club -> Документалистика и Телепередачи Часовой пояс: GMT + 3
Страница 1 из 1