Классический форум-трекер
canvas not supported
Нас вместе: 4 078 926

Война машин (2010) SATRip


 
 
RSS
Начать новую тему   Ответить на тему    Торрент-трекер NNM-Club -> Документалистика и Телепередачи -> Вторая Мировая война
Автор Сообщение
alf62 ®
RG NNM-Club DocTV
 
Стаж: 11 лет
Сообщений: 3334
Ratio: 1934,73
Поблагодарили: 152733
100%
russia.gif
Война машин (2010) SATRip
Режиссер / Телекомпания: Россия, Эксперт-ТВ
Год выпуска: 2010
Жанр: Документальный, война, история

Описание:
Фильм повествует о противостоянии двух гениев военной промышленности: немца Альберта Шпеера и советского наркома вооружения Дмитрия Федоровича Устинова. Через работу и жизнь героев показывается как на самом деле создавалась победа, в каких условиях ковалось оружие для фронта. Не смотря на то, что «Война машин» о военном периоде, документальный фильм не о войне, а о другом подвиге – трудовом, про который, почему-то, несправедливо забыли и относятся к нему несколько снисходительно, хотя он является куда более ярким и полноценным, чем та катастрофическая цепочка неудач, которая была на фронтах.

Доп. информация: SATRip by alf62


Продолжительность: 00:53:02
Качество видео: SATRip

Язык: Русский

Видеокодек: DivX 5
Битрейт видео: ~1406 kb/s
Размер кадра: 704x400
Аудиокодек: MP3
Битрейт аудио: 128 Кбит/с (2 канала, стерео)
Война машин\Vojna.mashin.2010.DivX.SATRip.alf62.avi
Format : AVI
Format/Info : Audio Video Interleave
File size : 585 MiB
Duration : 53mn 1s
Overall bit rate : 1 544 Kbps
Writing application : VirtualDubMod 1.5.10.3 | (build 2550/release)
Writing library : VirtualDubMod build 2550/release

Video
ID : 0
Format : MPEG-4 Visual
Format profile : Advanced Simple@L5
Format settings, BVOP : 2
Format settings, QPel : No
Format settings, GMC : No warppoints
Format settings, Matrix : Default (MPEG)
Codec ID : DX50
Codec ID/Hint : DivX 5
Duration : 53mn 1s
Bit rate : 1 406 Kbps
Width : 704 pixels
Height : 400 pixels
Display aspect ratio : 16:9
Frame rate : 25.000 fps
Color space : YUV
Chroma subsampling : 4:2:0
Bit depth : 8 bits
Scan type : Progressive
Compression mode : Lossy
Bits/(Pixel*Frame) : 0.200
Stream size : 533 MiB (91%)
Writing library : XviD 73

Audio
ID : 1
Format : MPEG Audio
Format version : Version 1
Format profile : Layer 3
Codec ID : 55
Codec ID/Hint : MP3
Duration : 53mn 1s
Bit rate mode : Constant
Bit rate : 128 Kbps
Channel count : 2 channels
Sampling rate : 44.1 KHz
Compression mode : Lossy
Stream size : 48.5 MiB (8%)
Alignment : Split accross interleaves
Interleave, duration : 40 ms (1.00 video frame)
Interleave, preload duration : 500 ms
Writing library : LAME3.99r
Encoding settings : -m s -V 4 -q 2 -lowpass 17 -b 128
Скриншоты:



Время раздачи: 24/7 (круглосуточно)
[NNM-Club.me]_Vojna.mashin.2010.DivX.SATRip.alf62.avi.torrent
 Торрент:   Зарегистрирован
 
Зарегистрируйтесь и скачайте торрент!
11,7 KB

Примагнититься
 Зарегистрирован:   06 Фев 2014 16:16:59
 Размер:   585 MB  (
 Рейтинг:   4,8 (Голосов: 31)
 Поблагодарили:   100
 Проверка:   Оформление проверено модератором 06 Фев 2014 23:05:37
Как cкачать  ·  Как раздать  ·  Правильно оформить  ·  Поднять ратио!  
Загрузка...
Показать сообщения:   
Начать новую тему   Ответить на тему    Торрент-трекер NNM-Club -> Документалистика и Телепередачи -> Вторая Мировая война Часовой пояс: GMT + 3
Страница 1 из 1