Классический форум-трекер
canvas not supported
Нас вместе: 4 094 260

Эстафета Олимпийского огня. Сочи. Обратный отсчет (2014.02.06) SATRip


 
 
RSS
Начать новую тему   Ответить на тему    Торрент-трекер NNM-Club -> Архив торрентов -> Архив Документалистики и TV
Автор Сообщение
svlesin ®
Модератор Документалистики/TV
RG Releasers
Релизер 25000+ Uploader 300+
 
Стаж: 10 лет 2 мес.
Сообщений: 33803
Ratio: 1814,606
Поблагодарили: 3252775
100%
russia.gif
Эстафета Олимпийского огня. Сочи. Обратный отсчет (2014.02.06) SATRip
Режиссер / Телекомпания: Россия

Русское название: Эстафета Олимпийского огня. Сочи. Обратный отсчет
Год выпуска: 2014
Жанр: Телепередача
Выпущено:

Описание:
Прежде чем осветить открытие зимних Олимпийских игр в Сочи, Олимпийский огонь должен был совершить невероятное путешествие вокруг России. Начало эстафете было положено 29 сентября 2013 года в Греции. 123 дня путешествия были полны интересных событий. Эстафете предстояло спуститься на дно озера Байкал, выйти в открытый космос, подняться на величественный Эльбрус.

Продолжительность: 00:50:10

Видеокодек: XVID
Качество видео: SATRip
Битрейт видео: ~1500 kb/s
Размер кадра: 720 x 400
Аудиокодек: MP3, 2.0ch.
Битрейт аудио: 128 kb/s
Формат : AVI
Формат/Информация : Audio Video Interleave
Размер файла : 588 Мбайт
Продолжительность : 50 м.
Общий поток : 1638 Кбит/сек
Программа кодирования : VirtualDubMod 1.5.10.3 | www.virtualdub-fr.org || (build 2550/release)
Библиотека кодирования : VirtualDubMod build 2550/release

Видео
Идентификатор : 0
Формат : MPEG-4 Visual
Профиль формата : Advanced Simple@L5
Параметр BVOP формата : 2
Параметр QPel формата : Нет
Параметр GMC формата : Без точки перехода
Параметр матрицы формата : Default (H.263)
Идентификатор кодека : XVID
Идентификатор кодека/Подсказка : XviD
Продолжительность : 50 м.
Битрейт : 1500 Кбит/сек
Ширина : 720 пикселей
Высота : 400 пикселей
Соотношение сторон : 16:9
Частота кадров : 25,000 кадров/сек
Цветовое пространство : YUV
Субдискретизация насыщенности : 4:2:0
Битовая глубина : 8 бит
Тип развёртки : Прогрессивная
Метод сжатия : С потерями
Бит/(Пиксели*Кадры) : 0.208
Размер потока : 538 Мбайт (92%)
Библиотека кодирования : XviD 73

Аудио
Идентификатор : 1
Формат : MPEG Audio
Версия формата : Version 1
Профиль формата : Layer 3
Идентификатор кодека : 55
Идентификатор кодека/Подсказка : MP3
Продолжительность : 50 м.
Вид битрейта : Постоянный
Битрейт : 128 Кбит/сек
Каналы : 2 канала
Частота : 48,0 КГц
Метод сжатия : С потерями
Размер потока : 45,9 Мбайт (8%)
Выравнивание : Соединение по промежуткам
Продолжительность промежутка : 40 мс. (1,00 видеокадр)
Время предзагрузки промежутка : 504 мс.
Библиотека кодирования : LAME3.99r
Настройки программы : -m s -V 4 -q 2 -lowpass 17 -b 128
Скриншоты:


Время раздачи: 24/7. До первых 5 скачавших.
Rip by Taz
ХХII Зимние Олимпийские игры. Сочи 2014. Расписание и результаты соревнований.
[NNM-Club.me]_YEstafeta Olimpiyskogo ognya. Sochi. Obratnyiy otschet (2014.02.06).avi.torrent
 Торрент: Золотая раздача  Зарегистрирован
 
Зарегистрируйтесь и скачайте торрент!
11,7 KB

Примагнититься
 Зарегистрирован:   06 Фев 2014 18:18:25
 Размер:   588 MB  (
 Рейтинг:   3,3 (Голосов: 39)
 Поблагодарили:   61
 Проверка:   Оформление проверено модератором 06 Фев 2014 18:22:41
Как cкачать  ·  Как раздать  ·  Правильно оформить  ·  Поднять ратио!  

_________________
Уважаемые пользователи Клуба! От меня релизов больше не будет. Может быть, буду поддерживать «Обновляемые раздачи». Спасибо всем, кто благодарил меня и говорил/нажимал «Спасибо»!
Топик был перенесен из форума ХХII Зимние Олимпийские игры. Сочи 2014 в форум Архив Документалистики и TV

Причина переноса: Отсутствие сида более месяца

Исправил релиз - напиши ЛС Microsoft SQL, дав ссылку на релиз.
Если нет ответа 24 часа - нажми на кнопку "Обратить внимание модераторов".
Показать сообщения:   
Начать новую тему   Ответить на тему    Торрент-трекер NNM-Club -> Архив торрентов -> Архив Документалистики и TV Часовой пояс: GMT + 3
Страница 1 из 1