Классический форум-трекер
canvas not supported
Нас вместе: 4 094 820

Эстафета Олимпийского огня. Сочи. Обратный отсчет (2014.02.06) HDTV [H.264/1080i]


 
 
RSS
Начать новую тему   Ответить на тему    Торрент-трекер NNM-Club -> Архив торрентов -> Архив Документалистики и TV
Автор Сообщение
svlesin ®
Модератор Документалистики/TV
RG Releasers
Релизер 25000+ Uploader 300+
 
Стаж: 10 лет 2 мес.
Сообщений: 33803
Ratio: 1815,527
Поблагодарили: 3252813
100%
russia.gif
Эстафета Олимпийского огня. Сочи. Обратный отсчет (2014.02.06) HDTV [H.264/1080i]
Режиссер / Телекомпания: Россия

Русское название: Эстафета Олимпийского огня. Сочи. Обратный отсчет
Год выпуска: 2014
Жанр: Телепередача
Выпущено: Россия, Россия HD

Описание:
Прежде чем осветить открытие зимних Олимпийских игр в Сочи, Олимпийский огонь должен был совершить невероятное путешествие вокруг России. Начало эстафете было положено 29 сентября 2013 года в Греции. 123 дня путешествия были полны интересных событий. Эстафете предстояло спуститься на дно озера Байкал, выйти в открытый космос, подняться на величественный Эльбрус.

Продолжительность: 00:50:46

Видеокодек: AVC
Качество видео: HDTV
Битрейт видео: ~10,4 Мбит/сек
Размер кадра: 1920 x 1080
Аудиокодек: MP2, 2.0ch.
Битрейт аудио: 192 kb/s
Формат : MPEG-TS
Размер файла : 3,95 Гбайт
Продолжительность : 50 м.
Общий поток : 11,1 Мбит/сек

Видео
Идентификатор : 306 (0x132)
Идентификатор меню : 1 (0x1)
Формат : AVC
Формат/Информация : Advanced Video Codec
Профиль формата : High@L4.0
Параметр CABAC формата : Да
Параметр ReFrames формата : 3 кадра
Параметр GOP формата : M=4, N=28
Идентификатор кодека : 27
Продолжительность : 50 м.
Битрейт : 10,4 Мбит/сек
Ширина : 1920 пикселей
Высота : 1080 пикселей
Соотношение сторон : 16:9
Частота кадров : 25,000 кадров/сек
Стандарт вещания : Component
Цветовое пространство : YUV
Субдискретизация насыщенности : 4:2:0
Битовая глубина : 8 бит
Тип развёртки : Чересстрочная
Порядок развёртки : Верхнее поле первое
Бит/(Пиксели*Кадры) : 0.200
Размер потока : 3,69 Гбайт (93%)
Основные цвета : BT.709-5, BT.1361, IEC 61966-2-4, SMPTE RP177
Характеристики трансфера : BT.709-5, BT.1361
Коэффициенты матрицы : BT.709-5, BT.1361, IEC 61966-2-4 709, SMPTE RP177

Аудио
Идентификатор : 406 (0x196)
Идентификатор меню : 1 (0x1)
Формат : MPEG Audio
Версия формата : Version 1
Профиль формата : Layer 2
Идентификатор кодека : 3
Продолжительность : 50 м.
Вид битрейта : Постоянный
Битрейт : 192 Кбит/сек
Каналы : 2 канала
Частота : 48,0 КГц
Метод сжатия : С потерями
Задержка видео : -40 мс.
Размер потока : 69,7 Мбайт (2%)
Язык : English
Скриншоты:
Время раздачи: 24/7. До первых 5 скачавших.
Эстафета Олимпийского огня. Сочи. Обратный отсчет на NoNaMe Club
ХХII Зимние Олимпийские игры. Сочи 2014. Расписание и результаты соревнований.
[NNM-Club.me]_YEstafeta Olimpiyskogo ognya. Sochi. Obratnyiy otschet (2014.02.06)_1080i.ts.torrent
 Торрент: Золотая раздача  Зарегистрирован
 
Зарегистрируйтесь и скачайте торрент!
20 KB

Примагнититься
 Зарегистрирован:   08 Фев 2014 06:14:16
 Размер:   3,95 GB  (
 Рейтинг:   3,9 (Голосов: 36)
 Поблагодарили:   69
 Проверка:   Оформление проверено модератором 08 Фев 2014 06:15:05
Как cкачать  ·  Как раздать  ·  Правильно оформить  ·  Поднять ратио!  

_________________
Уважаемые пользователи Клуба! От меня релизов больше не будет. Может быть, буду поддерживать «Обновляемые раздачи». Спасибо всем, кто благодарил меня и говорил/нажимал «Спасибо»!
Топик был перенесен из форума ХХII Зимние Олимпийские игры. Сочи 2014 в форум Архив Документалистики и TV

Причина переноса: Отсутствие сида более месяца

Исправил релиз - напиши ЛС Microsoft SQL, дав ссылку на релиз.
Если нет ответа 24 часа - нажми на кнопку "Обратить внимание модераторов".
Показать сообщения:   
Начать новую тему   Ответить на тему    Торрент-трекер NNM-Club -> Архив торрентов -> Архив Документалистики и TV Часовой пояс: GMT + 3
Страница 1 из 1