Классический форум-трекер
canvas not supported
Нас вместе: 4 083 435
Платим за отзывы

Такси / Taxi (1998-2007) BDRip [H.264/720p-LQ] [Hi10P] [Квадрология / Quadrilogy]


 
 
RSS
Начать новую тему   Ответить на тему    Торрент-трекер NNM-Club -> Коллекции / *логии -> Зарубежное кино (коллекции / *логии)
Автор Сообщение
sinteros ®
Стаж: 10 лет 9 мес.
Сообщений: 548
Ratio: 105,378
Поблагодарили: 58347
100%
Такси / Taxi (1998-2007) BDRip [H.264/720p-LQ] [Hi10P] [Квадрология / Quadrilogy]


Производство: Франция
Год выпуска: 1998, 2000, 2003, 2007
Жанр: Боевик, Комедия, Криминал
Продолжительность: 01:29:50, 01:28:25, 01:27:24, 01:30:53
Перевод: Профессиональный (дублированный), Профессиональный (многоголосый, закадровый), Профессиональный (двухголосый, закадровый), Авторский (одноголосый закадровый)
Режиссер: Жерар Пирес
Актеры: Сами Насери, Фредерик Дифенталь, Марион Котийяр, Мануэла Гурари, Эмма Сьоберг, Бернар Фарси, Жорж Нери, Гай Нгуен, Морис Мурсия, Сабина Бэйл, Жан-Кристоф Буве, Фредерик Тирмон, Марк Фор, Хирата Харухико, Цую Симидзу, Бай Лин, Эдуард Монтут, Леон-Пьер Мондини, Бернард Льопис, Жан-Люк Кучар, Франсуа Дамиенс, Морад Зегвенди, Дрисс Спиноза
Описание фильма:
Молодой таксист Даниэль помешан на быстрой езде. Как ураган проносится он по извилистым улицам Марселя на своем мощном ревущем звере `Пежо`, пугая пассажиров и прохожих. Неподкупный полицейский Эмильен вынуждает его помочь в поимке банды грабителей, ускользающих от полиции на своих неуловимых `Мерседесах`. И до самого конца не ясно, кто же сможет удержаться на крутом вираже...

<<<<< >>>>>
Вся квадрология весит 5,72гб с учетом одной звуковой дорожки на каждый MKV контейнер!
Такси / Taxi (1998) BDRip
Год выпуска: 1998
Производство: Франция
Жанр: Боевик, Комедия, Криминал
Перевoд: Профессиональный (дублированный), Профессиональный (двухголосый, закадровый)x3, Авторский (одноголосый закадровый)x3
Оригинальная аудиодорожка: Французская
Язык субтитров: Русский (R5), Французкий, Английский
Вид субтитров: Вшитые

Режиссeр: Жерар Пирес

В рoлях: Сами Насери, Фредерик Дифенталь, Марион Котийяр, Мануэла Гурари, Эмма Сьоберг, Бернар Фарси, Жорж Нери, Гай Нгуен, Морис Мурсия, Сабина Бэйл

Описаниe: Молодой таксист Даниэль помешан на быстрой езде. Как ураган проносится он по извилистым улицам Марселя на своем мощном ревущем звере «Пежо», пугая пассажиров и прохожих. Неподкупный полицейский Эмильен вынуждает его помочь в поимке банды грабителей, ускользающих от полиции на своих неуловимых «Мерседесах». И до самого конца не ясно, кто же сможет удержаться на крутом вираже…



Продолжительнoсть: 01:29:50
Качество: BDRip
Формат: MKV

Видео: MPEG-4 AVC/H.264, 1280x544(2,35:1), 23,976fps, 1772 Кbps, 0.106bit/pixel
Аудио 1: DUB Russian, AC3, 6ch, 48 kHz, 448 kbps, (Дубляж со вставками MVO - Мосфильм R5)
Аудио 2: DVO Russian, AC3, 2ch, 48 kHz, 192 kbps, (Двухголосый - РТР & СТС) - Отдельным файлом
Аудио 3: DVO Russian, AC3, 6ch, 48 kHz, 448 kbps, (Двухголосый - Пирамида & СуперБит) - Отдельным файлом
Аудио 4: DVO Russian, AC3, 6ch, 48 kHz, 448 kbps, (Двухголосый - Союз Видео) - Отдельным файлом
Аудио 5: AVO Russian, AC3, 6ch, 48 kHz, 448 kbps, (Одноголосый - Гаврилов) - Отдельным файлом
Аудио 6: AVO Russian, AC3, 2ch, 48 kHz, 192 kbps, (Одноголосый - Cербин) - Отдельным файлом
Аудио 7: AVO Russian, AC3, 6ch, 48 kHz, 448 kbps, (Одноголосый - Неизвестный) - Отдельным файлом
Аудио 8: MVO Ukranian, AC3, 1ch, 48 kHz, 192 kbps, (Многоголосый - Так Треба Продакшн & ICTV) - Отдельным файлом
Аудио 9: MVO Ukranian, AC3, 1ch, 48 kHz, 192 kbps, (Многоголосый - Новий Канал) - Отдельным файлом
Аудио 10: DVO Ukranian, AC3, 1ch, 48 kHz, 192 kbps, (Двухголосый - 1+1) - Отдельным файлом
Аудио 11: French, AC3, 6ch, 48 kHz, 448 kbps, (Оригинал) - Отдельным файлом
Общее
Полное имя : Такси 1 (1998) BDRip-AVC.mkv
Формат : Matroska
Версия формата : Version 4 / Version 2
Размер файла : 3,47 Гбайт
Продолжительность : 1 ч. 29 м.
Общий поток : 5530 Кбит/сек
Название фильма : Такси / Taxi (1998) BDRip-AVC (Sinteros)
Программа кодирования : mkvmerge v6.6.0 ('The Edge Of The In Between') built on Dec 1 2013 17:55:00
Библиотека кодирования : libebml v1.3.0 + libmatroska v1.4.1
Attachment : Yes

Видео
Идентификатор : 1
Формат : AVC
Формат/Информация : Advanced Video Codec
Профиль формата : High 10@L4.1
Параметр CABAC формата : Да
Параметр ReFrames формата : 11 кадров
Идентификатор кодека : V_MPEG4/ISO/AVC
Продолжительность : 1 ч. 29 м.
Битрейт : 1772 Кбит/сек
Ширина : 1280 пикселей
Высота : 544 пикселя
Соотношение сторон : 2,35:1
Режим частоты кадров : Постоянный
Частота кадров : 23,976 кадра/сек
Цветовое пространство : YUV
Субдискретизация насыщенности : 4:2:0
Битовая глубина : 10 бит
Тип развёртки : Прогрессивная
Бит/(Пиксели*Кадры) : 0.106
Размер потока : 1,11 Гбайт (32%)
Заголовок : MPEG-4 AVC/H.264, 1280x544(2,35:1), 23,976fps, 1836 Кbps, 0.110bit/pixel
Библиотека кодирования : x264 core 133 r2334 a3ac64b
Настройки программы : cabac=1 / ref=11 / deblock=1:-1:-1 / analyse=0x3:0x133 / me=tesa / subme=10 / psy=1 / psy_rd=1.00:0.15 / mixed_ref=1 / me_range=24 / chroma_me=1 / trellis=2 / 8x8dct=1 / cqm=0 / deadzone=21,11 / fast_pskip=1 / chroma_qp_offset=-3 / threads=12 / lookahead_threads=1 / sliced_threads=0 / nr=0 / decimate=1 / interlaced=0 / bluray_compat=0 / constrained_intra=0 / bframes=6 / b_pyramid=2 / b_adapt=2 / b_bias=0 / direct=1 / weightb=1 / open_gop=0 / weightp=2 / keyint=250 / keyint_min=23 / scenecut=40 / intra_refresh=0 / rc_lookahead=60 / rc=crf / mbtree=1 / crf=21.0 / qcomp=0.60 / qpmin=0 / qpmax=81 / qpstep=4 / ip_ratio=1.40 / aq=1:1.00
Язык : French
Default : Да
Forced : Нет

Аудио #1
Идентификатор : 2
Формат : AC-3
Формат/Информация : Audio Coding 3
Расширение режима : CM (complete main)
Параметр Endianness формата : Big
Идентификатор кодека : A_AC3
Продолжительность : 1 ч. 29 м.
Вид битрейта : Постоянный
Битрейт : 448 Кбит/сек
Каналы : 6 каналов
Расположение каналов : Front: L C R, Side: L R, LFE
Частота : 48,0 КГц
Битовая глубина : 16 бит
Метод сжатия : С потерями
Размер потока : 288 Мбайт (8%)
Заголовок : DUB Russian, AC3, 6ch, 48 kHz, 448 kbps, (Дубляж со вставками MVO - Мосфильм R5)
Язык : Russian
Default : Да
Forced : Нет

Аудио #2 - Отдельным файлом
Идентификатор : 3
Формат : AC-3
Формат/Информация : Audio Coding 3
Расширение режима : CM (complete main)
Параметр Endianness формата : Big
Идентификатор кодека : A_AC3
Продолжительность : 1 ч. 29 м.
Вид битрейта : Постоянный
Битрейт : 192 Кбит/сек
Каналы : 2 канала
Расположение каналов : Front: L R
Частота : 48,0 КГц
Битовая глубина : 16 бит
Метод сжатия : С потерями
Размер потока : 123 Мбайт (3%)
Заголовок : DVO Russian, AC3, 2ch, 48 kHz, 192 kbps, (Двухголосый - РТР & СТС) - Отдельным файлом
Язык : Russian
Default : Нет
Forced : Нет

Аудио #3 - Отдельным файлом
Идентификатор : 4
Формат : AC-3
Формат/Информация : Audio Coding 3
Расширение режима : CM (complete main)
Параметр Endianness формата : Big
Идентификатор кодека : A_AC3
Продолжительность : 1 ч. 29 м.
Вид битрейта : Постоянный
Битрейт : 448 Кбит/сек
Каналы : 6 каналов
Расположение каналов : Front: L C R, Side: L R, LFE
Частота : 48,0 КГц
Битовая глубина : 16 бит
Метод сжатия : С потерями
Размер потока : 288 Мбайт (8%)
Заголовок : DVO Russian, AC3, 6ch, 48 kHz, 448 kbps, (Двухголосый - Пирамида & СуперБит) - Отдельным файлом
Язык : Russian
Default : Нет
Forced : Нет

Аудио #4 - Отдельным файлом
Идентификатор : 5
Формат : AC-3
Формат/Информация : Audio Coding 3
Расширение режима : CM (complete main)
Параметр Endianness формата : Big
Идентификатор кодека : A_AC3
Продолжительность : 1 ч. 29 м.
Вид битрейта : Постоянный
Битрейт : 448 Кбит/сек
Каналы : 6 каналов
Расположение каналов : Front: L C R, Side: L R, LFE
Частота : 48,0 КГц
Битовая глубина : 16 бит
Метод сжатия : С потерями
Размер потока : 288 Мбайт (8%)
Заголовок : DVO Russian, AC3, 6ch, 48 kHz, 448 kbps, (Двухголосый - Союз Видео) - Отдельным файлом
Язык : Russian
Default : Нет
Forced : Нет

Аудио #5 - Отдельным файлом
Идентификатор : 6
Формат : AC-3
Формат/Информация : Audio Coding 3
Расширение режима : CM (complete main)
Параметр Endianness формата : Big
Идентификатор кодека : A_AC3
Продолжительность : 1 ч. 29 м.
Вид битрейта : Постоянный
Битрейт : 448 Кбит/сек
Каналы : 6 каналов
Расположение каналов : Front: L C R, Side: L R, LFE
Частота : 48,0 КГц
Битовая глубина : 16 бит
Метод сжатия : С потерями
Размер потока : 288 Мбайт (8%)
Заголовок : AVO Russian, AC3, 6ch, 48 kHz, 448 kbps, (Одноголосый - Гаврилов) - Отдельным файлом
Язык : Russian
Default : Нет
Forced : Нет

Аудио #6 - Отдельным файлом
Идентификатор : 7
Формат : AC-3
Формат/Информация : Audio Coding 3
Профиль формата : Dolby Digital
Расширение режима : CM (complete main)
Параметр Endianness формата : Big
Идентификатор кодека : A_AC3
Продолжительность : 1 ч. 29 м.
Вид битрейта : Постоянный
Битрейт : 192 Кбит/сек
Каналы : 2 канала
Расположение каналов : Front: L R
Частота : 48,0 КГц
Битовая глубина : 16 бит
Метод сжатия : С потерями
Размер потока : 123 Мбайт (3%)
Заголовок : AVO Russian, AC3, 2ch, 48 kHz, 192 kbps, (Одноголосый - Cербин) - Отдельным файлом
Язык : Russian
Default : Нет
Forced : Нет

Аудио #7 - Отдельным файлом
Идентификатор : 8
Формат : AC-3
Формат/Информация : Audio Coding 3
Расширение режима : CM (complete main)
Параметр Endianness формата : Big
Идентификатор кодека : A_AC3
Продолжительность : 1 ч. 29 м.
Вид битрейта : Постоянный
Битрейт : 448 Кбит/сек
Каналы : 6 каналов
Расположение каналов : Front: L C R, Side: L R, LFE
Частота : 48,0 КГц
Битовая глубина : 16 бит
Метод сжатия : С потерями
Размер потока : 288 Мбайт (8%)
Заголовок : AVO Russian, AC3, 6ch, 48 kHz, 448 kbps, (Одноголосый - Неизвестный) - Отдельным файлом
Язык : Russian
Default : Нет
Forced : Нет

Аудио #8 - Отдельным файлом
Идентификатор : 9
Формат : AC-3
Формат/Информация : Audio Coding 3
Расширение режима : CM (complete main)
Параметр Endianness формата : Big
Идентификатор кодека : A_AC3
Продолжительность : 1 ч. 29 м.
Вид битрейта : Постоянный
Битрейт : 192 Кбит/сек
Каналы : 1 канал
Расположение каналов : Front: C
Частота : 48,0 КГц
Битовая глубина : 16 бит
Метод сжатия : С потерями
Размер потока : 123 Мбайт (3%)
Заголовок : MVO Ukranian, AC3, 1ch, 48 kHz, 192 kbps, (Многоголосый - Так Треба Продакшн & ICTV) - Отдельным файлом
Язык : Ukrainian
Default : Нет
Forced : Нет

Аудио #9 - Отдельным файлом
Идентификатор : 10
Формат : AC-3
Формат/Информация : Audio Coding 3
Расширение режима : CM (complete main)
Параметр Endianness формата : Big
Идентификатор кодека : A_AC3
Продолжительность : 1 ч. 29 м.
Вид битрейта : Постоянный
Битрейт : 192 Кбит/сек
Каналы : 1 канал
Расположение каналов : Front: C
Частота : 48,0 КГц
Битовая глубина : 16 бит
Метод сжатия : С потерями
Размер потока : 123 Мбайт (3%)
Заголовок : MVO Ukranian, AC3, 1ch, 48 kHz, 192 kbps, (Многоголосый - Новий Канал) - Отдельным файлом
Язык : Ukrainian
Default : Нет
Forced : Нет

Аудио #10 - Отдельным файлом
Идентификатор : 11
Формат : AC-3
Формат/Информация : Audio Coding 3
Расширение режима : CM (complete main)
Параметр Endianness формата : Big
Идентификатор кодека : A_AC3
Продолжительность : 1 ч. 29 м.
Вид битрейта : Постоянный
Битрейт : 192 Кбит/сек
Каналы : 1 канал
Расположение каналов : Front: C
Частота : 48,0 КГц
Битовая глубина : 16 бит
Метод сжатия : С потерями
Размер потока : 123 Мбайт (3%)
Заголовок : DVO Ukranian, AC3, 1ch, 48 kHz, 192 kbps, (Двухголосый - 1+1) - Отдельным файлом
Язык : Ukrainian
Default : Нет
Forced : Нет

Аудио #11 - Отдельным файлом
Идентификатор : 12
Формат : AC-3
Формат/Информация : Audio Coding 3
Расширение режима : CM (complete main)
Параметр Endianness формата : Big
Идентификатор кодека : A_AC3
Продолжительность : 1 ч. 29 м.
Вид битрейта : Постоянный
Битрейт : 448 Кбит/сек
Каналы : 6 каналов
Расположение каналов : Front: L C R, Side: L R, LFE
Частота : 48,0 КГц
Битовая глубина : 16 бит
Метод сжатия : С потерями
Размер потока : 288 Мбайт (8%)
Заголовок : French, AC3, 6ch, 48 kHz, 448 kbps, (Оригинал) - Отдельным файлом
Язык : French
Default : Нет
Forced : Нет

Текст #1
Идентификатор : 13
Формат : PGS
Режим смешивания : zlib
Идентификатор кодека : S_HDMV/PGS
Идентификатор кодека/Информация : The same subtitle format used on BDs/HD-DVDs
Заголовок : Русский (R5)
Язык : Russian
Default : Нет
Forced : Нет

Текст #2
Идентификатор : 14
Формат : PGS
Режим смешивания : zlib
Идентификатор кодека : S_HDMV/PGS
Идентификатор кодека/Информация : The same subtitle format used on BDs/HD-DVDs
Заголовок : Французкий
Язык : French
Default : Нет
Forced : Нет

Текст #3
Идентификатор : 15
Формат : PGS
Режим смешивания : zlib
Идентификатор кодека : S_HDMV/PGS
Идентификатор кодека/Информация : The same subtitle format used on BDs/HD-DVDs
Заголовок : Английский
Язык : English
Default : Нет
Forced : Нет

Меню
00:00:00.000 : en:
00:07:14.559 : en:
00:13:02.364 : en:
00:17:40.768 : en:
00:21:46.012 : en:
00:28:42.886 : en:
00:34:32.777 : en:
00:38:56.333 : en:
00:47:43.568 : en:
00:53:46.347 : en:
00:58:44.478 : en:
01:04:58.561 : en:
01:09:08.769 : en:
01:11:46.091 : en:
01:21:48.278 : en:
01:25:22.617 : en:
Скриншоты:

Такси 2 / Taxi 2 (2000) BDRip
Год выпуска: 2000
Производство: Франция
Жанр: Боевик, Комедия, Криминал
Перевoд: Профессиональный (дублированный), Авторский (одноголосый закадровый)x3
Оригинальная аудиодорожка: Французская
Язык субтитров: Русский (R5)
Вид субтитров: Вшитые

Режиссeр: Жерар Кравчик

В рoлях: Сами Насери, Фредерик Дифенталь, Марион Котийяр, Эмма Сьоберг, Бернар Фарси, Жан-Кристоф Буве, Фредерик Тирмон, Марк Фор, Хирата Харухико, Цую Симидзу

Описаниe: Во Францию прибывает министр обороны Японии. Цель его визита — ознакомиться с французским опытом борьбы с терроризмом и подписать «контракт века» о взаимном сотрудничестве.
Неожиданно во время показательных выступлений французской полиции министра обороны похищает гангстерская группировка «Якудза», желающая сорвать заключение наиважнейшего контракта. Даниэль и Эмильен отправляются на поиски высокого гостя. В дело вступает уже хорошо знакомое нам такси…



Продолжительнoсть: 01:28:25
Качество: BDRip
Формат: MKV

Видео: MPEG-4 AVC/H.264, 1280x544(2,35:1), 24,000fps, 1845 Кbps, 0.110bit/pixel
Аудио 1: DUB Russian, AC3, 6ch, 48 kHz, 448 kbps, (Дубляж - ДВД-групп R5)
Аудио 2: AVO Russian, AC3, 6ch, 48 kHz, 448 kbps, (Одноголосый - Гаврилов) - Отдельным файлом
Аудио 3: AVO Russian, AC3, 2ch, 48 kHz, 192 kbps, (Одноголосый - Гранкин) - Отдельным файлом
Аудио 4: AVO Russian, AC3, 1ch, 48 kHz, 192 kbps, (Одноголосый - Визгунов) - Отдельным файлом
Аудио 5: MVO Ukranian, AC3, 6ch, 48 kHz, 384 kbps, (Многоголосый - Новий Канал) - Отдельным файлом
Аудио 6: DVO Ukranian, AC3, 1ch, 48 kHz, 192 kbps, (Двухголосый - 1+1) - Отдельным файлом
Аудио 7: French, AC3, 6ch, 48 kHz, 448 kbps, (Оригинал) - Отдельным файлом
Общее
Полное имя : Такси 2 (2000) BDRip-AVC.mkv
Формат : Matroska
Версия формата : Version 4 / Version 2
Размер файла : 2,61 Гбайт
Продолжительность : 1 ч. 28 м.
Общий поток : 4234 Кбит/сек
Название фильма : Такси 2 / Taxi 2 (2000) BDRip-AVC (Sinteros)
Программа кодирования : mkvmerge v6.6.0 ('The Edge Of The In Between') built on Dec 1 2013 17:55:00
Библиотека кодирования : libebml v1.3.0 + libmatroska v1.4.1
Attachment : Yes

Видео
Идентификатор : 1
Формат : AVC
Формат/Информация : Advanced Video Codec
Профиль формата : High 10@L4.1
Параметр CABAC формата : Да
Параметр ReFrames формата : 11 кадров
Идентификатор кодека : V_MPEG4/ISO/AVC
Продолжительность : 1 ч. 28 м.
Битрейт : 1845 Кбит/сек
Ширина : 1280 пикселей
Высота : 544 пикселя
Соотношение сторон : 2,35:1
Режим частоты кадров : Постоянный
Частота кадров : 24,000 кадра/сек
Цветовое пространство : YUV
Субдискретизация насыщенности : 4:2:0
Битовая глубина : 10 бит
Тип развёртки : Прогрессивная
Бит/(Пиксели*Кадры) : 0.110
Размер потока : 1,14 Гбайт (44%)
Заголовок : MPEG-4 AVC/H.264, 1280x544(2,35:1), 24,000fps, 1883 Кbps, 0.113bit/pixel
Библиотека кодирования : x264 core 133 r2334 a3ac64b
Настройки программы : cabac=1 / ref=11 / deblock=1:-1:-1 / analyse=0x3:0x133 / me=tesa / subme=10 / psy=1 / psy_rd=1.00:0.15 / mixed_ref=1 / me_range=24 / chroma_me=1 / trellis=2 / 8x8dct=1 / cqm=0 / deadzone=21,11 / fast_pskip=1 / chroma_qp_offset=-3 / threads=12 / lookahead_threads=1 / sliced_threads=0 / nr=0 / decimate=1 / interlaced=0 / bluray_compat=0 / constrained_intra=0 / bframes=6 / b_pyramid=2 / b_adapt=2 / b_bias=0 / direct=1 / weightb=1 / open_gop=0 / weightp=2 / keyint=250 / keyint_min=23 / scenecut=40 / intra_refresh=0 / rc_lookahead=60 / rc=crf / mbtree=1 / crf=21.0 / qcomp=0.60 / qpmin=0 / qpmax=81 / qpstep=4 / ip_ratio=1.40 / aq=1:1.00
Язык : French
Default : Да
Forced : Нет

Аудио #1
Идентификатор : 2
Формат : AC-3
Формат/Информация : Audio Coding 3
Расширение режима : CM (complete main)
Параметр Endianness формата : Big
Идентификатор кодека : A_AC3
Продолжительность : 1 ч. 28 м.
Вид битрейта : Постоянный
Битрейт : 448 Кбит/сек
Каналы : 6 каналов
Расположение каналов : Front: L C R, Side: L R, LFE
Частота : 48,0 КГц
Битовая глубина : 16 бит
Метод сжатия : С потерями
Размер потока : 283 Мбайт (11%)
Заголовок : DUB Russian, AC3, 6ch, 48 kHz, 448 kbps, (Дубляж - ДВД-групп R5)
Язык : Russian
Default : Да
Forced : Нет

Аудио #2 - Отдельным файлом
Идентификатор : 3
Формат : AC-3
Формат/Информация : Audio Coding 3
Расширение режима : CM (complete main)
Параметр Endianness формата : Big
Идентификатор кодека : A_AC3
Продолжительность : 1 ч. 28 м.
Вид битрейта : Постоянный
Битрейт : 448 Кбит/сек
Каналы : 6 каналов
Расположение каналов : Front: L C R, Side: L R, LFE
Частота : 48,0 КГц
Битовая глубина : 16 бит
Метод сжатия : С потерями
Размер потока : 283 Мбайт (11%)
Заголовок : AVO Russian, AC3, 6ch, 48 kHz, 448 kbps, (Одноголосый - Гаврилов) - Отдельным файлом
Язык : Russian
Default : Нет
Forced : Нет

Аудио #3 - Отдельным файлом
Идентификатор : 4
Формат : AC-3
Формат/Информация : Audio Coding 3
Расширение режима : CM (complete main)
Параметр Endianness формата : Big
Идентификатор кодека : A_AC3
Продолжительность : 1 ч. 28 м.
Вид битрейта : Постоянный
Битрейт : 192 Кбит/сек
Каналы : 2 канала
Расположение каналов : Front: L R
Частота : 48,0 КГц
Битовая глубина : 16 бит
Метод сжатия : С потерями
Размер потока : 121 Мбайт (5%)
Заголовок : AVO Russian, AC3, 2ch, 48 kHz, 192 kbps, (Одноголосый - Гранкин) - Отдельным файлом
Язык : Russian
Default : Нет
Forced : Нет

Аудио #4 - Отдельным файлом
Идентификатор : 5
Формат : AC-3
Формат/Информация : Audio Coding 3
Расширение режима : CM (complete main)
Параметр Endianness формата : Big
Идентификатор кодека : A_AC3
Продолжительность : 1 ч. 28 м.
Вид битрейта : Постоянный
Битрейт : 192 Кбит/сек
Каналы : 1 канал
Расположение каналов : Front: C
Частота : 48,0 КГц
Битовая глубина : 16 бит
Метод сжатия : С потерями
Размер потока : 121 Мбайт (5%)
Заголовок : AVO Russian, AC3, 1ch, 48 kHz, 192 kbps, (Одноголосый - Визгунов) - Отдельным файлом
Язык : Russian
Default : Нет
Forced : Нет

Аудио #5 - Отдельным файлом
Идентификатор : 6
Формат : AC-3
Формат/Информация : Audio Coding 3
Расширение режима : CM (complete main)
Параметр Endianness формата : Big
Идентификатор кодека : A_AC3
Продолжительность : 1 ч. 28 м.
Вид битрейта : Постоянный
Битрейт : 384 Кбит/сек
Каналы : 6 каналов
Расположение каналов : Front: L C R, Side: L R, LFE
Частота : 48,0 КГц
Битовая глубина : 16 бит
Метод сжатия : С потерями
Размер потока : 243 Мбайт (9%)
Заголовок : MVO Ukranian, AC3, 6ch, 48 kHz, 384 kbps, (Многоголосый - Новий Канал) - Отдельным файлом
Язык : Ukrainian
Default : Нет
Forced : Нет

Аудио #6 - Отдельным файлом
Идентификатор : 7
Формат : AC-3
Формат/Информация : Audio Coding 3
Расширение режима : CM (complete main)
Параметр Endianness формата : Big
Идентификатор кодека : A_AC3
Продолжительность : 1 ч. 28 м.
Вид битрейта : Постоянный
Битрейт : 192 Кбит/сек
Каналы : 1 канал
Расположение каналов : Front: C
Частота : 48,0 КГц
Битовая глубина : 16 бит
Метод сжатия : С потерями
Размер потока : 121 Мбайт (5%)
Заголовок : DVO Ukranian, AC3, 1ch, 48 kHz, 192 kbps, (Двухголосый - 1+1) - Отдельным файлом
Язык : Ukrainian
Default : Нет
Forced : Нет

Аудио #7 - Отдельным файлом
Идентификатор : 8
Формат : AC-3
Формат/Информация : Audio Coding 3
Расширение режима : CM (complete main)
Параметр Endianness формата : Big
Идентификатор кодека : A_AC3
Продолжительность : 1 ч. 28 м.
Вид битрейта : Постоянный
Битрейт : 448 Кбит/сек
Каналы : 6 каналов
Расположение каналов : Front: L C R, Side: L R, LFE
Частота : 48,0 КГц
Битовая глубина : 16 бит
Метод сжатия : С потерями
Размер потока : 283 Мбайт (11%)
Заголовок : French, AC3, 6ch, 48 kHz, 448 kbps, (Оригинал) - Отдельным файлом
Язык : French
Default : Нет
Forced : Нет

Текст
Идентификатор : 9
Формат : PGS
Режим смешивания : zlib
Идентификатор кодека : S_HDMV/PGS
Идентификатор кодека/Информация : The same subtitle format used on BDs/HD-DVDs
Заголовок : Русский (R5)
Язык : Russian
Default : Нет
Forced : Нет

Меню
00:00:00.000 : en:
00:07:29.750 : en:
00:14:43.500 : en:
00:23:18.416 : en:
00:31:25.333 : en:
00:39:41.000 : en:
00:46:52.791 : en:
00:54:17.083 : en:
01:01:14.125 : en:
01:08:10.333 : en:
01:15:46.082 : en:
01:23:34.125 : en:
Скриншоты:

Такси 3 / Taxi 3 (2003) BDRip
Год выпуска: 2003
Производство: Франция
Жанр: Боевик, Комедия, Криминал
Перевoд: Профессиональный (дублированный), Профессиональный (многоголосый, закадровый), Авторский (одноголосый закадровый)
Оригинальная аудио дорожка: Французская
Язык субтитров: Русский (R5)
Вид субтитров: Вшитые

Режиссeр: Жерар Кравчик

В рoлях: Сами Насери, Фредерик Дифенталь, Бернар Фарси, Бай Лин, Эмма Сьоберг, Марион Котийяр, Эдуард Монтут, Жан-Кристоф Буве, Леон-Пьер Мондини, Бернард Льопис

Описаниe: Банда Санта-Клаусов терроризирует Марсель в канун Рождества, обещая обчистить город до основания. Комиссар полиции уже задумал провести крупномасштабную операцию под кодовым названием «Снеговик», в который главная роль отведена таксисту Даниелю и полицейскому Эмильену.
Но как бы наши друзья не натворили куда больший вред, чем сами преступники, ведь чтобы поймать «мафию Дедов Морозов» друзья вытворяют на своем такси такое!



Продолжительнoсть: 01:27:24
Качество: BDRip
Формат: MKV

Видео: MPEG-4 AVC/H.264, 1280x544(2,35:1), 24,000fps, 1832 Кbps, 0.110bit/pixel
Аудио 1: DUB Russian, AC3, 6ch, 48 kHz, 448 kbps, (Дубляж - Мосфильм R5)
Аудио 2: MVO Russian, AC3, 6ch, 48 kHz, 448 kbps, (Многоголосый - Карусель) - Отдельным файлом
Аудио 3: AVO Russian, AC3, 6ch, 48 kHz, 448 kbps, (Одноголосый - Гаврилов) - Отдельным файлом
Аудио 4: MVO Ukranian, AC3, 6ch, 48 kHz, 384 kbps, (Многоголосый - Новий Канал & ICTV) - Отдельным файлом
Аудио 5: French, AC3, 6ch, 48 kHz, 448 kbps, (Оригинал) - Отдельным файлом
Общее
Полное имя : Такси 3 (2003) BDrip-AVC.mkv
Формат : Matroska
Версия формата : Version 4 / Version 2
Размер файла : 2,50 Гбайт
Продолжительность : 1 ч. 27 м.
Общий поток : 4089 Кбит/сек
Название фильма : Такси 3 / Taxi 3 (2003) BDRip-AVC (Sinteros)
Программа кодирования : mkvmerge v6.6.0 ('The Edge Of The In Between') built on Dec 1 2013 17:55:00
Библиотека кодирования : libebml v1.3.0 + libmatroska v1.4.1
Attachment : Yes

Видео
Идентификатор : 1
Формат : AVC
Формат/Информация : Advanced Video Codec
Профиль формата : High 10@L4.1
Параметр CABAC формата : Да
Параметр ReFrames формата : 11 кадров
Идентификатор кодека : V_MPEG4/ISO/AVC
Продолжительность : 1 ч. 27 м.
Битрейт : 1832 Кбит/сек
Ширина : 1280 пикселей
Высота : 544 пикселя
Соотношение сторон : 2,35:1
Режим частоты кадров : Постоянный
Частота кадров : 24,000 кадра/сек
Цветовое пространство : YUV
Субдискретизация насыщенности : 4:2:0
Битовая глубина : 10 бит
Тип развёртки : Прогрессивная
Бит/(Пиксели*Кадры) : 0.110
Размер потока : 1,12 Гбайт (45%)
Заголовок : MPEG-4 AVC/H.264, 1280x544(2,35:1), 24,000fps, 1867 Кbps, 0.112bit/pixel
Библиотека кодирования : x264 core 133 r2334 a3ac64b
Настройки программы : cabac=1 / ref=11 / deblock=1:-1:-1 / analyse=0x3:0x133 / me=tesa / subme=10 / psy=1 / psy_rd=1.00:0.15 / mixed_ref=1 / me_range=24 / chroma_me=1 / trellis=2 / 8x8dct=1 / cqm=0 / deadzone=21,11 / fast_pskip=1 / chroma_qp_offset=-3 / threads=12 / lookahead_threads=1 / sliced_threads=0 / nr=0 / decimate=1 / interlaced=0 / bluray_compat=0 / constrained_intra=0 / bframes=6 / b_pyramid=2 / b_adapt=2 / b_bias=0 / direct=1 / weightb=1 / open_gop=0 / weightp=2 / keyint=250 / keyint_min=23 / scenecut=40 / intra_refresh=0 / rc_lookahead=60 / rc=crf / mbtree=1 / crf=20.5 / qcomp=0.60 / qpmin=0 / qpmax=81 / qpstep=4 / ip_ratio=1.40 / aq=1:1.00
Язык : French
Default : Да
Forced : Нет

Аудио #1
Идентификатор : 2
Формат : AC-3
Формат/Информация : Audio Coding 3
Расширение режима : CM (complete main)
Параметр Endianness формата : Big
Идентификатор кодека : A_AC3
Продолжительность : 1 ч. 27 м.
Вид битрейта : Постоянный
Битрейт : 448 Кбит/сек
Каналы : 6 каналов
Расположение каналов : Front: L C R, Side: L R, LFE
Частота : 48,0 КГц
Битовая глубина : 16 бит
Метод сжатия : С потерями
Размер потока : 280 Мбайт (11%)
Заголовок : DUB Russian, AC3, 6ch, 48 kHz, 448 kbps, (Дубляж - Мосфильм R5)
Язык : Russian
Default : Да
Forced : Нет

Аудио #2 - Отдельным файлом
Идентификатор : 3
Формат : AC-3
Формат/Информация : Audio Coding 3
Расширение режима : CM (complete main)
Параметр Endianness формата : Big
Идентификатор кодека : A_AC3
Продолжительность : 1 ч. 27 м.
Вид битрейта : Постоянный
Битрейт : 448 Кбит/сек
Каналы : 6 каналов
Расположение каналов : Front: L C R, Side: L R, LFE
Частота : 48,0 КГц
Битовая глубина : 16 бит
Метод сжатия : С потерями
Размер потока : 280 Мбайт (11%)
Заголовок : MVO Russian, AC3, 6ch, 48 kHz, 448 kbps, (Многоголосый - Карусель) - Отдельным файлом
Язык : Russian
Default : Нет
Forced : Нет

Аудио #3 - Отдельным файлом
Идентификатор : 4
Формат : AC-3
Формат/Информация : Audio Coding 3
Расширение режима : CM (complete main)
Параметр Endianness формата : Big
Идентификатор кодека : A_AC3
Продолжительность : 1 ч. 27 м.
Вид битрейта : Постоянный
Битрейт : 448 Кбит/сек
Каналы : 6 каналов
Расположение каналов : Front: L C R, Side: L R, LFE
Частота : 48,0 КГц
Битовая глубина : 16 бит
Метод сжатия : С потерями
Размер потока : 280 Мбайт (11%)
Заголовок : AVO Russian, AC3, 6ch, 48 kHz, 448 kbps, (Одноголосый - Гаврилов) - Отдельным файлом
Язык : Russian
Default : Нет
Forced : Нет

Аудио #4 - Отдельным файлом
Идентификатор : 5
Формат : AC-3
Формат/Информация : Audio Coding 3
Расширение режима : CM (complete main)
Параметр Endianness формата : Big
Идентификатор кодека : A_AC3
Продолжительность : 1 ч. 27 м.
Вид битрейта : Постоянный
Битрейт : 384 Кбит/сек
Каналы : 6 каналов
Расположение каналов : Front: L C R, Side: L R, LFE
Частота : 48,0 КГц
Битовая глубина : 16 бит
Метод сжатия : С потерями
Размер потока : 240 Мбайт (9%)
Заголовок : MVO Ukranian, AC3, 6ch, 48 kHz, 384 kbps, (Многоголосый - Новий Канал & ICTV) - Отдельным файлом
Язык : Ukrainian
Default : Нет
Forced : Нет

Аудио #5 - Отдельным файлом
Идентификатор : 6
Формат : AC-3
Формат/Информация : Audio Coding 3
Расширение режима : CM (complete main)
Параметр Endianness формата : Big
Идентификатор кодека : A_AC3
Продолжительность : 1 ч. 27 м.
Вид битрейта : Постоянный
Битрейт : 448 Кбит/сек
Каналы : 6 каналов
Расположение каналов : Front: L C R, Side: L R, LFE
Частота : 48,0 КГц
Битовая глубина : 16 бит
Метод сжатия : С потерями
Размер потока : 280 Мбайт (11%)
Заголовок : French, AC3, 6ch, 48 kHz, 448 kbps, (Оригинал) - Отдельным файлом
Язык : French
Default : Нет
Forced : Нет

Текст
Идентификатор : 7
Формат : PGS
Режим смешивания : zlib
Идентификатор кодека : S_HDMV/PGS
Идентификатор кодека/Информация : The same subtitle format used on BDs/HD-DVDs
Заголовок : Русский (R5)
Язык : Russian
Default : Нет
Forced : Нет

Меню
00:00:00.000 : en:Chapter 1
00:08:29.833 : en:Chapter 2
00:15:59.833 : en:Chapter 3
00:23:21.000 : en:Chapter 4
00:30:43.333 : en:Chapter 5
00:39:43.166 : en:Chapter 6
00:47:47.500 : en:Chapter 7
00:55:08.916 : en:Chapter 8
01:03:00.666 : en:Chapter 9
01:10:09.291 : en:Chapter 10
01:17:52.125 : en:Chapter 11
01:21:35.708 : en:Chapter 12
01:27:15.708 : en:Chapter 13
Скриншоты:

Такси 4 / Taxi 4 (2007) BDRip
Год выпуска: 2007
Производство: Франция
Жанр: Боевик, Комедия, Криминал
Перевoд: Профессиональный (дублированный), Профессиональный (двухголосый, закадровый)x2, Авторский (одноголосый закадровый)
Оригинальная аудио дорожка: Французская
Язык субтитров: Русский, Английский
Вид субтитров: Вшитые

Режиссeр: Жерар Кравчик

В рoлях: Сами Насери, Фредерик Дифенталь, Бернар Фарси, Эмма Сьоберг, Эдуард Монтаут, Жан-Кристоф Буве, Жан-Люк Кучар, Франсуа Дамиенс, Морад Зегвенди, Дрисс Спиноза

Описаниe: Продолжение знаменитой автомобильной саги. Спустя пять лет после событий третьего фильма, Даниэль и Эмильен снова вместе и мы вновь имеем возможность наблюдать за их приключениями - на этот раз на Лазурном берегу.
Преступника № 1 транспортируют из Бельгии в Конго… через Марсель. Всего несколько часов самый опасный человек в мире, надежно упакованный в скафандр и железную клетку, должен пробыть в полицейском участке комиссара Жибера.
Но стеречь преступника доверили Эмильену… Петра внедрится в банду и очарует злодея, Жибер задаст жару бандитам и покажет, как настоящие французы играют в футбол. И, конечно, полицейским Марселя опять не обойтись без помощи Даниеля и его реактивного такси.



Продолжительнoсть: 01:30:53
Качество: BDRip
Формат: MKV

Видео: MPEG-4 AVC/H.264, 1280x544(2,35:1), 23,976fps, 1669 Кbps, 0.100bit/pixel
Аудио 1: DUB Russian, AC3, 6ch, 48 kHz, 384 kbps, (Дубляж - Мосфильм R5)
Аудио 2: DVO Russian, AC3, 1ch, 48 kHz, 192 kbps, (Двухголосый - Инес СТС & ТНТ) - Отдельным файлом
Аудио 3: DVO Russian, AC3, 6ch, 48 kHz, 384 kbps, (Двухголосый - Гланц и Королёва) - Отдельным файлом
Аудио 4: AVO Russian, AC3, 6ch, 48 kHz, 384 kbps, (Одноголосый - Гаврилов) - Отдельным файлом
Аудио 5: MVO Ukranian, AC3, 1ch, 48 kHz, 192 kbps, (Многоголосый - Украйна) - Отдельным файлом
Аудио 6: DVO Ukranian, AC3, 1ch, 48 kHz, 192 kbps, (Двухголосый - 1+1) - Отдельным файлом
Аудио 7: MVO Ukranian, AC3, 1ch, 48 kHz, 192 kbps, (Многоголосый - Так Треба Продакшн & ICTV) - Отдельным файлом
Аудио 8: French, AC3, 6ch, 48 kHz, 384 kbps, (Оригинал) - Отдельным файлом
Общее
Полное имя : Такси 4 (2007) BDRip-AVC.mkv
Формат : Matroska
Версия формата : Version 4 / Version 2
Размер файла : 2,57 Гбайт
Продолжительность : 1 ч. 30 м.
Общий поток : 4054 Кбит/сек
Название фильма : Такси 4 / Taxi 4 (2007) BDRip-AVC (Sinteros)
Программа кодирования : mkvmerge v6.6.0 ('The Edge Of The In Between') built on Dec 1 2013 17:55:00
Библиотека кодирования : libebml v1.3.0 + libmatroska v1.4.1
Attachment : Yes

Видео
Идентификатор : 1
Формат : AVC
Формат/Информация : Advanced Video Codec
Профиль формата : High 10@L4.1
Параметр CABAC формата : Да
Параметр ReFrames формата : 11 кадров
Идентификатор кодека : V_MPEG4/ISO/AVC
Продолжительность : 1 ч. 30 м.
Битрейт : 1669 Кбит/сек
Ширина : 1280 пикселей
Высота : 544 пикселя
Соотношение сторон : 2,35:1
Режим частоты кадров : Постоянный
Частота кадров : 23,976 кадра/сек
Цветовое пространство : YUV
Субдискретизация насыщенности : 4:2:0
Битовая глубина : 10 бит
Тип развёртки : Прогрессивная
Бит/(Пиксели*Кадры) : 0.100
Размер потока : 1,06 Гбайт (41%)
Заголовок : MPEG-4 AVC/H.264, 1280x544(2,35:1), 23,976fps, 1706 Кbps, 0.102bit/pixel
Библиотека кодирования : x264 core 133 r2334 a3ac64b
Настройки программы : cabac=1 / ref=11 / deblock=1:-1:-1 / analyse=0x3:0x133 / me=tesa / subme=10 / psy=1 / psy_rd=1.00:0.15 / mixed_ref=1 / me_range=24 / chroma_me=1 / trellis=2 / 8x8dct=1 / cqm=0 / deadzone=21,11 / fast_pskip=1 / chroma_qp_offset=-3 / threads=12 / lookahead_threads=1 / sliced_threads=0 / nr=0 / decimate=1 / interlaced=0 / bluray_compat=0 / constrained_intra=0 / bframes=6 / b_pyramid=2 / b_adapt=2 / b_bias=0 / direct=1 / weightb=1 / open_gop=0 / weightp=2 / keyint=250 / keyint_min=23 / scenecut=40 / intra_refresh=0 / rc_lookahead=60 / rc=crf / mbtree=1 / crf=21.0 / qcomp=0.60 / qpmin=0 / qpmax=81 / qpstep=4 / ip_ratio=1.40 / aq=1:1.00
Язык : French
Default : Да
Forced : Нет

Аудио #1
Идентификатор : 2
Формат : AC-3
Формат/Информация : Audio Coding 3
Расширение режима : CM (complete main)
Параметр Endianness формата : Big
Идентификатор кодека : A_AC3
Продолжительность : 1 ч. 30 м.
Вид битрейта : Постоянный
Битрейт : 384 Кбит/сек
Каналы : 6 каналов
Расположение каналов : Front: L C R, Side: L R, LFE
Частота : 48,0 КГц
Битовая глубина : 16 бит
Метод сжатия : С потерями
Размер потока : 250 Мбайт (9%)
Заголовок : DUB Russian, AC3, 6ch, 48 kHz, 384 kbps, (Дубляж - Мосфильм R5)
Язык : Russian
Default : Да
Forced : Нет

Аудио #2Аудио #2 - Отдельным файломИдентификатор : 3
Формат : AC-3
Формат/Информация : Audio Coding 3
Расширение режима : CM (complete main)
Параметр Endianness формата : Big
Идентификатор кодека : A_AC3
Продолжительность : 1 ч. 30 м.
Вид битрейта : Постоянный
Битрейт : 192 Кбит/сек
Каналы : 1 канал
Расположение каналов : Front: C
Частота : 48,0 КГц
Битовая глубина : 16 бит
Метод сжатия : С потерями
Размер потока : 125 Мбайт (5%)
Заголовок : DVO Russian, AC3, 1ch, 48 kHz, 192 kbps, (Двухголосый - Инес СТС & ТНТ) - Отдельным файлом
Язык : Russian
Default : Нет
Forced : Нет

Аудио #3 - Отдельным файлом
Идентификатор : 4
Формат : AC-3
Формат/Информация : Audio Coding 3
Расширение режима : CM (complete main)
Параметр Endianness формата : Big
Идентификатор кодека : A_AC3
Продолжительность : 1 ч. 30 м.
Вид битрейта : Постоянный
Битрейт : 384 Кбит/сек
Каналы : 6 каналов
Расположение каналов : Front: L C R, Side: L R, LFE
Частота : 48,0 КГц
Битовая глубина : 16 бит
Метод сжатия : С потерями
Размер потока : 250 Мбайт (9%)
Заголовок : DVO Russian, AC3, 6ch, 48 kHz, 384 kbps, (Двухголосый - Гланц и Королёва) - Отдельным файлом
Язык : Russian
Default : Нет
Forced : Нет

Аудио #4 - Отдельным файлом
Идентификатор : 5
Формат : AC-3
Формат/Информация : Audio Coding 3
Расширение режима : CM (complete main)
Параметр Endianness формата : Big
Идентификатор кодека : A_AC3
Продолжительность : 1 ч. 30 м.
Вид битрейта : Постоянный
Битрейт : 384 Кбит/сек
Каналы : 6 каналов
Расположение каналов : Front: L C R, Side: L R, LFE
Частота : 48,0 КГц
Битовая глубина : 16 бит
Метод сжатия : С потерями
Размер потока : 250 Мбайт (9%)
Заголовок : AVO Russian, AC3, 6ch, 48 kHz, 384 kbps, (Одноголосый - Гаврилов) - Отдельным файлом
Язык : Russian
Default : Нет
Forced : Нет

Аудио #5 - Отдельным файлом
Идентификатор : 6
Формат : AC-3
Формат/Информация : Audio Coding 3
Расширение режима : CM (complete main)
Параметр Endianness формата : Big
Идентификатор кодека : A_AC3
Продолжительность : 1 ч. 30 м.
Вид битрейта : Постоянный
Битрейт : 192 Кбит/сек
Каналы : 1 канал
Расположение каналов : Front: C
Частота : 48,0 КГц
Битовая глубина : 16 бит
Метод сжатия : С потерями
Размер потока : 125 Мбайт (5%)
Заголовок : MVO Ukranian, AC3, 6ch, 48 kHz, 192 kbps, (Многоголосый - Украйна) - Отдельным файлом
Язык : Ukrainian
Default : Нет
Forced : Нет

Аудио #6 - Отдельным файлом
Идентификатор : 7
Формат : AC-3
Формат/Информация : Audio Coding 3
Расширение режима : CM (complete main)
Параметр Endianness формата : Big
Идентификатор кодека : A_AC3
Продолжительность : 1 ч. 30 м.
Вид битрейта : Постоянный
Битрейт : 192 Кбит/сек
Каналы : 1 канал
Расположение каналов : Front: C
Частота : 48,0 КГц
Битовая глубина : 16 бит
Метод сжатия : С потерями
Размер потока : 125 Мбайт (5%)
Заголовок : DVO Ukranian, AC3, 1ch, 48 kHz, 192 kbps, (Двухголосый - 1+1) - Отдельным файлом
Язык : Ukrainian
Default : Нет
Forced : Нет

Аудио #7 - Отдельным файлом
Идентификатор : 8
Формат : AC-3
Формат/Информация : Audio Coding 3
Расширение режима : CM (complete main)
Параметр Endianness формата : Big
Идентификатор кодека : A_AC3
Продолжительность : 1 ч. 30 м.
Вид битрейта : Постоянный
Битрейт : 192 Кбит/сек
Каналы : 1 канал
Расположение каналов : Front: C
Частота : 48,0 КГц
Битовая глубина : 16 бит
Метод сжатия : С потерями
Размер потока : 125 Мбайт (5%)
Заголовок : MVO Ukranian, AC3, 1ch, 48 kHz, 192 kbps, (Многоголосый - Так Треба Продакшн & ICTV) - Отдельным файлом
Язык : Ukrainian
Default : Нет
Forced : Нет

Аудио #8 - Отдельным файлом
Идентификатор : 9
Формат : AC-3
Формат/Информация : Audio Coding 3
Расширение режима : CM (complete main)
Параметр Endianness формата : Big
Идентификатор кодека : A_AC3
Продолжительность : 1 ч. 30 м.
Вид битрейта : Постоянный
Битрейт : 384 Кбит/сек
Каналы : 6 каналов
Расположение каналов : Front: L C R, Side: L R, LFE
Частота : 48,0 КГц
Битовая глубина : 16 бит
Метод сжатия : С потерями
Размер потока : 250 Мбайт (9%)
Заголовок : French, AC3, 6ch, 48 kHz, 384 kbps, (Оригинал) - Отдельным файлом
Язык : French
Default : Нет
Forced : Нет

Текст #1
Идентификатор : 10
Формат : PGS
Режим смешивания : zlib
Идентификатор кодека : S_HDMV/PGS
Идентификатор кодека/Информация : The same subtitle format used on BDs/HD-DVDs
Язык : Russian
Default : Нет
Forced : Нет

Текст #2
Идентификатор : 11
Формат : PGS
Режим смешивания : zlib
Идентификатор кодека : S_HDMV/PGS
Идентификатор кодека/Информация : The same subtitle format used on BDs/HD-DVDs
Язык : English
Default : Нет
Forced : Нет

Меню
00:00:00.000 : en:
00:10:19.993 : en:
00:21:06.974 : en:
00:31:32.015 : en:
00:40:24.004 : en:
00:47:29.930 : en:
00:51:54.986 : en:
00:57:43.960 : en:
01:04:11.930 : en:
01:08:59.885 : en:
01:17:40.947 : en:
01:22:37.952 : en:
Скриншоты:


Примечание: Рип в High 10 Profile, в настоящее время не поддерживается большинством аппаратных проигрывателей, поэтому предназначен исключительно для воспроизведения на ПК.
Для корректного воспроизведения может потребоваться обновление ПО.



Такси, Такси 2, Такси 3, Такси 4 на NNM-club

Время раздачи: 24/7 (жду до 10-15 скачавших, а дальше могу уйти с радачи)
[NNM-Club.me]_Taksi - Kvadrologiya (1998-2007) BDRip-AVC.torrent
 Торрент: Платиновая раздача  Зарегистрирован
 
Скачать


Примагнититься
 Зарегистрирован:   12 Фев 2014 05:31:59
 Размер:   11,2 GB  (
 Рейтинг:   4,9 (Голосов: 191)
 Поблагодарили:   556
 Проверка:   Оформление проверено модератором 14 Фев 2014 01:45:41
Как cкачать  ·  Как раздать  ·  Правильно оформить  ·  Поднять ратио!  
Loading...
ka4ek92
Стаж: 9 лет 2 мес.
Сообщений: 779
Ratio: 2,747
100%
спасибо как раз хотел пересмотреть
MakcRZN
Стаж: 11 лет 3 мес.
Сообщений: 319
Ratio: 33,658
Раздал: 97,67 TB
Поблагодарили: 264
100%
Откуда: Рязань
russia.gif
всё хорошо... прочитал ))
gforcer18
Стаж: 9 лет 2 мес.
Сообщений: 99
Ratio: 26,157
100%
Откуда: Удмуртия, г.Ижевск
russia.gif
спасибо, давно искал норм. качество
ishrus
Стаж: 8 лет 1 мес.
Сообщений: 329
Ratio: 52,107
100%
russia.gif
sinteros

Спасибо!
sinteros ®
Стаж: 10 лет 9 мес.
Сообщений: 548
Ratio: 105,378
Поблагодарили: 58347
100%
ishrus писал(а): Перейти к сообщению

Спасибо!


Пожалуйста!
Алексей Борисович Струков
Стаж: 8 лет 3 мес.
Сообщений: 485
Ratio: 1,729
Поблагодарили: 1
24.29%
Откуда: Челябинск РСФСР,СССР,РФ
russia.gif
В сеть кто то выложил пиратскую версию такси пять хотелось на нашем форуме найти лицензию заранее спасибо!!!
SanLex
Стаж: 5 лет 1 мес.
Сообщений: 1836
Ratio: 220,796
Поблагодарили: 75076
100%
Поклонник данного фильмеца, самая Такси 3 / Taxi 3 (2003) мое, в остальном 8/10 за коллекцию всего фильма. ;)
Показать сообщения:   
Начать новую тему   Ответить на тему    Торрент-трекер NNM-Club -> Коллекции / *логии -> Зарубежное кино (коллекции / *логии) Часовой пояс: GMT + 3
Страница 1 из 1