Классический форум-трекер
canvas not supported
Нас вместе: 4 083 729
Платим за отзывы

Полицейская история 2013 / Jing cha gu shi 2013 (2013) HDTVRip [H.264/720p-LQ]


Страницы:  1, 2  След. 
 
RSS
Начать новую тему   Ответить на тему    Торрент-трекер NNM-Club -> Зарубежное кино -> Азиатское кино (HD*Rip/LQ, DVDRip, SATRip, VHSRip)
Автор Сообщение
YmNIK13 ®
 
Стаж: 6 лет 4 мес.
Сообщений: 400
Ratio: 34,081
Раздал: 24,79 TB
Поблагодарили: 15605
100%
Откуда: Харьков
ukraine.gif
Полицейская история 2013 / Jing cha gu shi 2013 (2013) HDTVRip [H.264/720p-LQ]
Год выпуска: 2013
Производство: Китай, Гонконг
Жанр: Криминал, Драма, Боевик

Перевод: любительскый (двухголосый)
Автор перевода: Дмитрий Познанский и Елена Егорова (green tea)
Язык субтитров: китайские и английские (неотключаемые)
Вид субтитров: Вшитые

Описание фильма:
История начинается с того, что посетители паба оказываются взятыми в заложники. Среди посетителей есть офицер полиции Вэнь Чжун и его непослушная дочь Мяомяо. Человек, удерживающий всех в заложниках — владелец паба, который таким образом пытается добиться освобождения из тюрьмы одного преступника…

Режиссер: Дин Шэн
Актеры: Джеки Чан, Лю Е, Тянь Цзин, Бо Хуан, Юй Жун Гуан, Александр Байли, Макс Хуан, Джеймс Лоджа, Андреас Нгуйен



Дата мировой премьеры: 24 декабря 2013
Дата российской премьеры: 20 марта 2014, «Каравелла DDC»

Продолжительность: 01:46:21
Качество видео: HDTVRip

Видеокодек: MPEG-4 AVC/H.264
Битрейт видео: 2448 Кбит/сек
Размер кадра: 1280x544 (2,35:1)
Аудио: AC3 (2 ch), 192 Кбит/сек
Код:

Общее
Уникальный идентификатор                 : 239403706612932753608770442557586513142 (0xB41B7A0B641F09978C63CA893AE99CF6)
Полное имя                               : H:\Видео\Policejskaja.istorija.2014(2013).HDTV.720p.mkv
Формат                                   : Matroska
Версия формата                           : Version 4 / Version 2
Размер файла                             : 1,95 Гбайт
Продолжительность                        : 1 ч. 46 м.
Режим общего битрейта                    : Переменный
Общий поток                              : 2623 Кбит/сек
Дата кодирования                         : UTC 2014-02-12 14:18:33
Программа кодирования                    : mkvmerge v6.1.0 ('Old Devil') built on Mar  4 2013 09:10:42
Библиотека кодирования                   : libebml v1.3.0 + libmatroska v1.4.0

Видео
Идентификатор                            : 1
Формат                                   : AVC
Формат/Информация                        : Advanced Video Codec
Профиль формата                          : High@L4.1
Параметр CABAC формата                   : Да
Параметр ReFrames формата                : 11 кадров
Идентификатор кодека                     : V_MPEG4/ISO/AVC
Продолжительность                        : 1 ч. 46 м.
Вид битрейта                             : Переменный
Битрейт                                  : 2448 Кбит/сек
Максимальный битрейт                     : 40,0 Мбит/сек
Ширина                                   : 1280 пикселей
Высота                                   : 544 пикселя
Соотношение сторон                       : 2,35:1
Режим частоты кадров                     : Постоянный
Частота кадров                           : 25,000 кадров/сек
Цветовое пространство                    : YUV
Субдискретизация насыщенности            : 4:2:0
Битовая глубина                          : 8 бит
Тип развёртки                            : Прогрессивная
Бит/(Пиксели*Кадры)                      : 0.141
Размер потока                            : 1,77 Гбайт (91%)
Библиотека кодирования                   : x264 core 130 r2273 b3065e6
Настройки программы                      : cabac=1 / ref=11 / deblock=1:-2:-1 / analyse=0x3:0x133 / me=umh / subme=10 / psy=1 / psy_rd=1.00:0.20 / mixed_ref=1 / me_range=32 / chroma_me=1 / trellis=2 / 8x8dct=1 / cqm=0 / deadzone=21,11 / fast_pskip=0 / chroma_qp_offset=-3 / threads=6 / lookahead_threads=1 / sliced_threads=0 / nr=0 / decimate=0 / interlaced=0 / bluray_compat=0 / constrained_intra=0 / bframes=4 / b_pyramid=2 / b_adapt=2 / b_bias=0 / direct=3 / weightb=1 / open_gop=0 / weightp=2 / keyint=250 / keyint_min=25 / scenecut=40 / intra_refresh=0 / rc_lookahead=60 / rc=2pass / mbtree=1 / bitrate=2448 / ratetol=1.0 / qcomp=0.60 / qpmin=0 / qpmax=69 / qpstep=4 / cplxblur=20.0 / qblur=0.5 / ip_ratio=1.40 / aq=1:1.0
Язык                                     : Korean
Default                                  : Да
Forced                                   : Нет

Аудио
Идентификатор                            : 2
Формат                                   : AC-3
Формат/Информация                        : Audio Coding 3
Расширение режима                        : CM (complete main)
Параметр Endianness формата              : Big
Идентификатор кодека                     : A_AC3
Продолжительность                        : 1 ч. 46 м.
Вид битрейта                             : Постоянный
Битрейт                                  : 192 Кбит/сек
Каналы                                   : 2 канала
Расположение каналов                     : Front: L R
Частота                                  : 48,0 КГц
Битовая глубина                          : 16 бит
Метод сжатия                             : С потерями
Задержка видео                           : 8 мс.
Размер потока                            : 146 Мбайт (7%)
Язык                                     : Russian
Default                                  : Да
Forced                                   : Да
Скриншоты:


Время раздачи: 24/7 до первых 10
[NNM-Club.me]_Policejskaja.istorija.2014(2013).HDTV.720p.mkv.torrent
 Торрент:   Зарегистрирован
 
Зарегистрируйтесь и скачайте торрент!
19,8 KB

Примагнититься
 Зарегистрирован:   13 Фев 2014 20:26:25
 Размер:   1,95 GB  (
 Рейтинг:   4,8 (Голосов: 359)
 Поблагодарили:   1539
 Проверка:   Оформление проверено модератором 15 Фев 2014 05:35:47
Как cкачать  ·  Как раздать  ·  Правильно оформить  ·  Поднять ратио!  
Loading...
Denniz
Стаж: 9 лет 2 мес.
Сообщений: 87
Ratio: 1,518
79.8%
Спасибо!
YmNIK13 ®
 
Стаж: 6 лет 4 мес.
Сообщений: 400
Ratio: 34,081
Раздал: 24,79 TB
Поблагодарили: 15605
100%
Откуда: Харьков
ukraine.gif
Сюжет Крепкий орешек + основная фишка Шерлок Хомс (2009). Фильм стоит переименовать в "Истории".

Фильм средний все вытягивает Джеки Чан. К сожалению нет фирменного юмора от Джеки :огорчение: , все очень грустно и серьезно. Почему-то вспоминается фильм Разборка в Бронксе, где мне лично, героя Джеки Чана было очень жаль, и постоянно мучила мысль: "Ну как же так, это ведь сам Джеки, его не могут избить!".

P.S. Стареет Джеки, раньше все бои ускорялись, а теперь замедляются :(
sKul1967
Стаж: 8 лет 8 мес.
Сообщений: 14
Ratio: 3,679
100%
Согласен!
AHTOHbl4
Стаж: 10 лет 2 мес.
Сообщений: 417
Ratio: 38,161
100%
ussr.gif
Грустно... Но я должен это посмотреть
peetbull
Стаж: 9 лет 6 мес.
Сообщений: 232
Ratio: 8,94
Раздал: 11,13 TB
68.45%
Откуда: Одесса
ukraine.gif
и Джеки в этом году будет 60 лет!
yoght
Стаж: 9 лет 5 мес.
Сообщений: 187
Ratio: 13,552
100%
Ну и мыло !!!!! О нет - старый образ актера джеки развеялся ....
Volga Boss
Стаж: 9 лет 7 мес.
Сообщений: 58
Ratio: 42,398
Раздал: 17,18 TB
100%
Откуда: Волгоград
russia.gif
Ну парни вы тоже уже сдаете позиции молодому поколению, может пора научится принимать действительность. Посмотрю все равно фильм, все же это было круто в 80-90 года.

_________________
OS Windows 10 Pro x64, ASUS B150 PRO GAMING LGA 1151, INTEL Core i5 6500, DDR 4 2*4 Gb, ASUS GeForce GTX 1060 DUAL OC 6Gb, SSD: 120gb, HDD: 1Tb
ka4ek92
Стаж: 9 лет 2 мес.
Сообщений: 779
Ratio: 2,75
100%
спасибо посмотрим, надеюсь в этим фильмом он не облажался как с доспехами бога 3
Desperator
Стаж: 9 лет 4 мес.
Сообщений: 163
Ratio: 0,635
Поблагодарили: 30
100%
Если бы не Джеки Чан, то фильм бы был ...
CrashMaker
Стаж: 8 лет 7 мес.
Сообщений: 635
Ratio: 17,824
Раздал: 34,02 TB
Поблагодарили: 65
100%
Откуда: рожденный в СССР
ussr.gif
мдяяя... как-то совсем не похоже на фильмы Джеки... не скажу что данная проба лично мне понравилась... имхо...

_________________
„Народ, не имеющий национального самосознания — есть навоз, на котором произрастают другие народы.“
П.А. Столыпин.
Антисемит - это не тот кому не нравятся евреи, а тот, кто им не нравится.
Слава Богам и предкам наша!
serg197607
Стаж: 9 лет 5 мес.
Сообщений: 3
Ratio: 1,576
100%
russia.gif
:крутой: что вы хотите? Джеки уже старик прыгать и скакать ему уже тяжело. Приходиться играть серьезные роли. :(
___________________________________________________________________________________
здесь платят деньги за выполнение простых заданий <***>
 !  Примечание от Lelya_K:
Реклама и ссылки на сторонний ресурс сети - запрещены!
sektorGazzzaa
Стаж: 9 лет 5 мес.
Сообщений: 27
Ratio: 3,832
100%
ukraine.gif
старик Джеки...
TemTik
Стаж: 8 лет
Сообщений: 7
Ratio: 10,021
94.44%
да ну вас, юмор и махач подавай, вы другие фильмы из этой серии смотрели? там ни юмора ни махача не было, серьезная драма и Джеки молодец что в разных амплуа себя пробует, не всю же жизнь людей веселить)
Rorsheh9
Стаж: 7 лет 2 мес.
Сообщений: 7
Ratio: 9,386
3.92%
А мне понравился фильм в целом,хоть я и не любитель драм.
Показать сообщения:   
Начать новую тему   Ответить на тему    Торрент-трекер NNM-Club -> Зарубежное кино -> Азиатское кино (HD*Rip/LQ, DVDRip, SATRip, VHSRip) Часовой пояс: GMT + 3
Страницы:  1, 2  След.
Страница 1 из 2